osu file format v14

[General]
AudioFilename: audio.mp3
AudioLeadIn: 0
PreviewTime: 51145
Countdown: 0
SampleSet: Soft
StackLeniency: 0.7
Mode: 0
LetterboxInBreaks: 0
WidescreenStoryboard: 1

[Editor]
DistanceSpacing: 1
BeatDivisor: 4
GridSize: 4
TimelineZoom: 1.4

[Metadata]
Title:Baton Road
TitleUnicode:バトンロード
Artist:KANA-BOON
ArtistUnicode:KANA-BOON
Creator:Firebool
Version:Hard
Source:BORUTO-ボルト- -NARUTO NEXT GENERATIONS-
Tags:Boruto Next generation Naruto OneRing Cappu
BeatmapID:1426503
BeatmapSetID:628178

[Difficulty]
HPDrainRate:6.5
CircleSize:3.7
OverallDifficulty:6.5
ApproachRate:8
SliderMultiplier:1.4
SliderTickRate:1

[Events]
//Background and Video events
0,0,"nsuns4_road_to_boruto-game-characters-(771).jpg",0,0
Video,0,"Video.avi"
//Break Periods
//Storyboard Layer 0 (Background)
//Storyboard Layer 1 (Fail)
//Storyboard Layer 2 (Pass)
//Storyboard Layer 3 (Foreground)
//Storyboard Sound Samples

[TimingPoints]
775,370.37037037037,4,2,1,35,1,0
7812,-66.6666666666667,4,2,1,35,0,0
8182,-100,4,2,1,35,0,0
9663,-83.3333333333333,4,1,1,40,0,0
12626,-100,4,1,1,35,0,0
13923,-133.333333333333,4,1,1,35,0,0
15589,-100,4,1,1,35,0,0
33367,-83.3333333333333,4,1,1,35,0,0
39293,-76.9230769230769,4,1,1,40,0,0
40589,-200,4,1,1,40,0,0
40960,-76.9230769230769,4,1,1,40,0,0
41145,-133.333333333333,4,1,1,40,0,0
42067,-76.9230769230769,4,1,1,40,0,0
43552,-200,4,1,1,40,0,0
43923,-76.9230769230769,4,1,1,40,0,0
44108,-133.333333333333,4,1,1,40,0,0
45219,-76.9230769230769,4,1,1,40,0,0
50774,-50,4,1,1,40,0,0
51145,-83.3333333333333,4,1,1,40,0,1
60034,-133.333333333333,4,1,1,40,0,1
60404,-100,4,1,1,40,0,1
60774,-83.3333333333333,4,1,1,40,0,1
61145,-83.3333333333333,4,1,1,40,0,1
71886,-100,4,1,1,40,0,0

[Colours]
Combo1 : 255,128,64
Combo2 : 255,255,85
Combo3 : 255,147,201
Combo4 : 128,0,255

[HitObjects]
104,312,775,5,0,0:0:0:0:
152,172,1145,1,0,0:0:0:0:
249,283,1515,1,0,0:0:0:0:
104,312,1886,1,0,0:0:0:0:
176,298,2071,1,0,0:0:0:0:
249,283,2256,5,8,0:0:0:0:
346,172,2626,1,0,0:0:0:0:
394,312,2997,1,0,0:0:0:0:
249,283,3367,1,0,0:0:0:0:
297,226,3552,1,0,0:0:0:0:
346,172,3737,1,8,0:0:0:0:
200,115,4108,5,0,0:0:0:0:
249,169,4293,1,0,0:0:0:0:
297,226,4478,1,8,0:0:0:0:
249,169,4849,5,0,0:0:0:0:
200,223,5034,1,0,0:0:0:0:
152,280,5219,6,0,L|100:340,1,70,8|0,0:0|0:0,0:0:0:0:
232,240,5589,2,0,L|216:317,1,70,2|0,0:0|0:0,0:0:0:0:
281,165,5960,2,0,L|306:240,1,70,8|0,0:0|0:0,0:0:0:0:
392,352,6330,2,0,L|384:304,3,35,2|0|0|0,0:0|0:0|0:0|0:0,0:0:0:0:
412,220,6700,6,0,L|424:300,1,70,8|0,0:0|0:0,0:0:0:0:
488,328,7071,1,0,0:0:0:0:
478,256,7256,1,0,0:0:0:0:
469,185,7441,1,8,0:0:0:0:
460,114,7626,1,0,0:0:0:0:
360,140,7812,6,0,P|392:216|416:140,1,210.000008010865,8|8,0:0|0:0,0:0:0:0:
280,36,8367,1,8,0:0:0:0:
352,64,8552,2,0,L|380:44,2,35
272,148,8923,6,0,L|252:188,3,35
316,200,9293,2,0,L|307:243,3,35
332,308,9663,6,0,B|256:316|236:252|236:252|192:280,1,167.999994873047,0|8,0:0|0:0,0:0:0:0:
40,232,10219,1,0,0:0:0:0:
40,232,10404,2,0,P|56:276|92:308,1,83.9999974365235
196,344,10774,2,0,P|180:300|144:268,1,83.9999974365235,8|0,0:0|0:0,0:0:0:0:
117,198,11145,5,0,0:0:0:0:
199,187,11330,1,0,0:0:0:0:
224,107,11515,2,0,P|273:113|298:142,1,83.9999974365235,8|0,0:0|0:0,0:0:0:0:
199,187,11886,5,0,0:0:0:0:
117,198,12071,1,0,0:0:0:0:
92,278,12256,2,0,P|42:271|17:242,1,83.9999974365235,8|0,0:0|0:0,0:0:0:0:
20,116,12626,5,0,3:3:0:0:
220,60,12997,1,0,3:3:0:0:
168,261,13367,1,0,3:3:0:0:
144,176,13552,2,0,L|133:135,2,35,0|0|0,3:3|3:3|3:3,3:3:0:0:
127,328,13923,6,0,P|181:338|226:313,1,105.000004005432,0|0,3:3|3:3,3:3:0:0:
248,176,14478,2,0,L|248:228,1,52.5000020027161,0|0,3:3|3:3,3:3:0:0:
332,136,14849,2,0,L|318:186,1,52.5000020027161,0|0,3:3|3:3,3:3:0:0:
423,119,15219,2,0,L|397:164,1,52.5000020027161,0|0,3:3|3:3,3:3:0:0:
300,320,15589,6,0,P|336:332|372:324,1,70
480,272,15960,1,8,0:0:0:0:
480,272,16145,2,0,P|444:260|408:268,1,70
300,196,16515,1,0,0:0:0:0:
300,196,16700,2,0,L|340:260,1,70,2|0,0:0|0:0,0:0:0:0:
388,125,17071,5,0,0:0:0:0:
362,190,17256,1,0,0:0:0:0:
337,255,17441,2,0,L|300:196,1,70,8|0,0:0|0:0,0:0:0:0:
208,184,17812,5,0,0:0:0:0:
234,119,17997,1,0,0:0:0:0:
258,54,18182,2,0,L|295:114,1,70,2|0,0:0|0:0,0:0:0:0:
261,270,18552,6,0,P|225:274|189:262,1,70
84,178,18923,1,8,0:0:0:0:
84,178,19108,2,0,P|120:174|156:186,1,70
64,308,19478,1,0,0:0:0:0:
64,308,19663,2,0,L|116:248,1,70,2|0,0:0|0:0,0:0:0:0:
237,312,20034,5,0,0:0:0:0:
172,284,20219,1,0,0:0:0:0:
109,255,20404,2,0,L|64:308,1,70,8|0,0:0|0:0,0:0:0:0:
88,120,20774,5,0,0:0:0:0:
154,146,20959,1,0,0:0:0:0:
220,172,21145,1,8,0:0:0:0:
260,28,21330,1,0,0:0:0:0:
260,28,21423,1,0,0:0:0:0:
260,28,21515,6,8,L|264:112,1,70,8|0,0:0|0:0,0:0:0:0:
308,176,21886,1,8,0:0:0:0:
376,64,22071,2,0,L|400:92,2,35
488,48,22441,1,0,0:0:0:0:
488,48,22626,2,0,L|480:120,1,70,2|0,0:0|0:0,0:0:0:0:
401,248,22997,6,0,L|401:178,1,70
404,96,23367,1,8,0:0:0:0:
469,214,23552,1,0,0:0:0:0:
401,178,23737,1,0,0:0:0:0:
332,211,23923,1,0,0:0:0:0:
332,211,24108,2,0,L|332:280,1,70,2|0,0:0|0:0,0:0:0:0:
244,356,24478,6,0,L|246:284,1,70
191,182,24849,1,8,0:0:0:0:
332,211,25034,2,0,L|361:235,2,35
272,148,25404,1,0,0:0:0:0:
184,260,25589,2,0,P|224:256|252:236,1,70,2|0,0:0|0:0,0:0:0:0:
272,148,25960,5,0,3:3:0:0:
191,182,26145,1,0,3:3:0:0:
108,150,26330,1,0,3:3:0:0:
75,69,26515,2,0,P|108:100|136:104,1,70,0|0,3:3|3:3,3:3:0:0:
260,44,26886,5,0,3:3:0:0:
335,87,27071,1,0,3:3:0:0:
356,173,27256,1,0,3:3:0:0:
310,248,27441,6,0,P|344:260|380:260,1,70
504,296,27812,1,8,0:0:0:0:
504,296,27997,2,0,P|470:308|434:308,1,70
310,248,28367,1,0,0:0:0:0:
310,248,28552,2,0,L|362:300,1,70,2|0,0:0|0:0,0:0:0:0:
305,361,28923,6,0,L|255:311,1,70
174,206,29293,1,8,0:0:0:0:
156,276,29478,1,0,0:0:0:0:
42,156,29663,1,0,0:0:0:0:
24,226,29849,1,0,0:0:0:0:
6,296,30034,2,0,P|57:294|92:275,1,70,2|0,0:0|0:0,0:0:0:0:
174,206,30404,6,0,P|123:208|88:227,1,70
73,286,30774,1,8,0:0:0:0:
5,196,30960,2,0,L|29:234,2,35
117,146,31330,1,0,0:0:0:0:
117,146,31515,2,0,L|104:221,1,70,2|0,0:0|0:0,0:0:0:0:
139,359,31886,6,0,L|151:283,1,70
241,211,32256,1,8,0:0:0:0:
105,215,32441,2,0,L|84:256,2,35
169,95,32812,1,0,0:0:0:0:
170,167,32997,1,2,0:0:0:0:
173,240,33182,1,0,0:0:0:0:
61,142,33367,6,0,L|109:222,1,83.9999974365235,4|0,0:0|0:0,0:0:0:0:
169,95,33737,2,0,L|121:175,1,83.9999974365235,8|0,0:0|0:0,0:0:0:0:
263,165,34108,2,0,L|169:163,1,83.9999974365235,4|0,0:0|0:0,0:0:0:0:
249,281,34478,2,0,L|203:199,1,83.9999974365235,8|0,0:0|0:0,0:0:0:0:
219,92,34849,6,0,L|267:172,1,83.9999974365235,4|0,0:0|0:0,0:0:0:0:
327,44,35219,2,0,L|279:124,1,83.9999974365235,8|0,0:0|0:0,0:0:0:0:
421,114,35590,2,0,L|327:112,1,83.9999974365235,4|0,0:0|0:0,0:0:0:0:
406,230,35960,2,0,L|360:148,1,83.9999974365235,8|0,0:0|0:0,0:0:0:0:
327,44,36330,5,8,0:0:0:0:
296,164,36515,2,0,L|288:208,2,41.9999987182618,0|0|8,0:0|0:0|0:0,0:0:0:0:
216,156,36886,2,0,L|208:112,2,41.9999987182618,0|0|8,0:0|0:0|0:0,0:0:0:0:
177,228,37256,1,0,0:0:0:0:
216,156,37441,1,8,0:0:0:0:
237,284,37626,6,0,P|177:312|125:292,1,125.999996154785
87,216,37997,1,0,0:0:0:0:
87,216,38182,2,0,L|125:294,1,83.9999974365235
70,356,38552,2,0,L|126:288,1,83.9999974365235
224,232,38923,2,0,L|168:300,1,83.9999974365235
140,176,39293,5,8,3:3:0:0:
170,296,39478,1,8,3:3:0:0:
300,276,39849,5,8,3:3:0:0:
170,296,40034,1,8,3:3:0:0:
300,276,40404,5,0,0:0:0:0:
248,192,40589,2,0,P|227:167|204:189,1,70
152,128,41145,2,0,L|136:88,3,26.2500010013581
108,112,41515,2,0,L|92:72,3,26.2500010013581
72,56,41886,1,0,0:0:0:0:
72,56,42256,5,8,3:3:0:0:
180,128,42441,1,8,3:3:0:0:
240,80,42812,5,8,3:3:0:0:
104,124,42997,1,8,3:3:0:0:
240,80,43367,5,0,0:0:0:0:
204,164,43552,2,0,P|224:192|252:176,1,70
304,120,44108,2,0,L|327:109,3,26.2500010013581
324,84,44478,2,0,L|347:73,3,26.2500010013581
384,64,44849,1,0,0:0:0:0:
425,139,45034,1,0,0:0:0:0:
466,214,45219,6,0,P|417:243|376:240,1,90.9999958343508,4|0,0:0|0:0,0:0:0:0:
245,183,45589,2,0,P|293:153|336:156,1,90.9999958343508,8|0,0:0|0:0,0:0:0:0:
342,309,45960,2,0,P|312:260|312:220,1,90.9999958343508,4|0,0:0|0:0,0:0:0:0:
373,89,46330,2,8,P|402:137|400:176,1,90.9999958343508
310,227,46700,5,4,0:0:0:0:
264,336,46886,1,0,0:0:0:0:
224,200,47071,1,8,0:0:0:0:
238,317,47257,1,0,0:0:0:0:
136,219,47441,1,4,0:0:0:0:
206,313,47627,1,0,0:0:0:0:
69,279,47812,1,8,0:0:0:0:
67,161,47998,1,8,0:0:0:0:
67,161,48182,6,0,P|120:152|148:116,1,90.9999958343508,8|0,0:0|0:0,0:0:0:0:
196,68,48552,2,0,P|143:77|115:113,1,90.9999958343508,8|0,0:0|0:0,0:0:0:0:
119,103,48830,1,0,0:0:0:0:
119,103,48923,1,8,0:0:0:0:
25,80,49108,1,0,0:0:0:0:
25,80,49293,2,0,L|68:164,1,90.9999958343508,8|0,0:0|0:0,0:0:0:0:
119,103,49663,5,8,3:3:0:0:
12,216,49849,1,8,3:3:0:0:
66,161,50219,5,8,3:3:0:0:
88,312,50405,1,8,3:3:0:0:
212,275,50774,2,0,P|236:196|164:236,1,210
165,332,51145,6,0,P|205:348|249:340,1,83.9999974365235
242,120,51515,2,0,P|283:141|310:173,1,83.9999974365235,8|0,0:0|0:0,0:0:0:0:
348,284,51886,1,0,0:0:0:0:
272,253,52071,1,0,0:0:0:0:
360,364,52256,1,8,0:0:0:0:
412,232,52441,1,0,0:0:0:0:
348,284,52626,6,0,P|392:268|416:224,1,83.9999974365235
324,124,52997,2,0,P|280:140|256:184,1,83.9999974365235,8|0,0:0|0:0,0:0:0:0:
348,284,53367,1,0,0:0:0:0:
259,169,53552,1,0,0:0:0:0:
265,251,53737,1,8,0:0:0:0:
336,204,53922,1,0,0:0:0:0:
265,251,54108,6,0,P|236:296|200:308,1,83.9999974365235
116,208,54478,2,0,P|169:210|197:235,1,83.9999974365235,8|0,0:0|0:0,0:0:0:0:
156,356,54849,2,0,P|131:308|139:271,1,83.9999974365235
173,183,55219,1,8,0:0:0:0:
88,116,55404,1,0,0:0:0:0:
88,116,55589,6,0,B|118:180|118:180|176:184,1,125.999996154785
252,177,55960,2,0,B|221:112|221:112|164:109,1,125.999996154785,8|0,0:0|0:0,0:0:0:0:
120,180,56330,6,0,L|160:264,1,83.9999974365235
288,252,56700,2,0,L|251:176,1,83.9999974365235,8|0,0:0|0:0,0:0:0:0:
148,64,57071,5,0,0:0:0:0:
4,128,57256,1,0,0:0:0:0:
76,96,57441,1,8,0:0:0:0:
24,208,57626,1,0,0:0:0:0:
24,208,57812,2,0,P|72:224|112:220,1,83.9999974365235
184,208,58182,2,0,P|136:192|96:196,1,83.9999974365235,8|0,0:0|0:0,0:0:0:0:
46,341,58552,5,0,0:0:0:0:
103,194,58737,1,0,0:0:0:0:
74,267,58923,1,8,0:0:0:0:
144,336,59108,1,0,0:0:0:0:
144,336,59294,2,0,P|189:313|214:282,1,83.9999974365235
257,222,59664,2,0,P|211:244|186:275,1,83.9999974365235,8|0,0:0|0:0,0:0:0:0:
286,318,60034,6,0,B|342:314|342:314|358:278,1,78.7500030040742
431,338,60404,6,0,B|369:333|369:333|351:293,1,105,8|0,0:0|0:0,0:0:0:0:
319,216,60774,6,0,L|355:305,1,83.9999974365235
428,176,61145,2,0,L|384:248,1,83.9999974365235,8|0,0:0|0:0,0:0:0:0:
316,116,61515,5,0,0:0:0:0:
384,247,61700,1,0,0:0:0:0:
404,96,61886,1,8,0:0:0:0:
304,200,62071,1,0,0:0:0:0:
263,61,62256,5,0,0:0:0:0:
332,76,62441,1,0,0:0:0:0:
279,130,62626,1,8,0:0:0:0:
263,61,62812,1,0,0:0:0:0:
224,196,62997,6,0,L|196:108,1,83.9999974365235
180,24,63367,2,0,L|154:104,1,83.9999974365235,8|0,0:0|0:0,0:0:0:0:
120,180,63737,1,0,0:0:0:0:
36,80,63923,1,0,0:0:0:0:
24,156,64108,1,8,0:0:0:0:
154,103,64293,1,0,0:0:0:0:
84,260,64478,6,0,P|140:264|168:248,1,83.9999974365235
236,268,64849,2,0,P|180:264|152:280,1,83.9999974365235,8|0,0:0|0:0,0:0:0:0:
64,352,65219,1,0,0:0:0:0:
156,276,65404,1,0,0:0:0:0:
204,340,65589,1,8,0:0:0:0:
84,260,65774,1,0,0:0:0:0:
204,340,65960,6,0,P|232:308|236:268,1,83.9999974365235
292,224,66330,2,0,P|264:256|260:296,1,83.9999974365235,8|0,0:0|0:0,0:0:0:0:
352,336,66700,1,0,0:0:0:0:
376,256,66886,1,0,0:0:0:0:
436,316,67071,1,8,0:0:0:0:
376,256,67256,1,0,0:0:0:0:
376,256,67441,6,0,B|432:236|432:236|444:164,1,125.999996154785
433,96,67812,6,0,B|377:116|377:116|364:184,1,125.999996154785,8|0,0:0|0:0,0:0:0:0:
429,253,68182,6,0,L|444:164,1,83.9999974365235
380,98,68552,2,0,L|364:184,1,83.9999974365235,8|0,0:0|0:0,0:0:0:0:
429,253,68923,5,0,0:0:0:0:
364,180,69108,1,0,0:0:0:0:
429,253,69293,1,8,0:0:0:0:
481,94,69478,1,0,0:0:0:0:
481,94,69663,2,0,L|445:174,1,83.9999974365235
429,253,70034,2,0,L|463:176,1,83.9999974365235,8|0,0:0|0:0,0:0:0:0:
368,84,70404,5,0,0:0:0:0:
446,149,70589,1,0,0:0:0:0:
350,184,70774,2,0,P|340:136|356:100,1,83.9999974365235,8|0,0:0|0:0,0:0:0:0:
368,84,71145,5,0,0:0:0:0:
273,120,71330,1,0,0:0:0:0:
350,185,71515,2,0,P|303:169|280:137,1,83.9999974365235,8|0,0:0|0:0,0:0:0:0:
275,44,71886,6,0,B|224:42|186:88|197:137,1,140,0|8,0:0|0:0,0:0:0:0:
145,192,72441,1,0,0:0:0:0:
145,192,72626,2,0,P|127:231|99:251,1,70
74,178,72997,2,0,P|34:193|0:187,1,70,8|0,0:0|0:0,0:0:0:0:
32,116,73367,6,0,L|60:88,2,35
7,189,73737,2,0,P|42:192|74:178,1,70,8|0,0:0|0:0,0:0:0:0:
145,192,74108,2,0,P|127:231|99:251,1,70
66,310,74478,2,0,P|99:321|133:316,1,70,8|0,3:0|0:0,0:0:0:0:
208,276,74849,6,0,B|206:327|252:365|301:354,1,140,0|8,0:0|0:0,0:0:0:0:
324,224,75404,1,0,0:0:0:0:
324,224,75589,2,0,P|296:248|284:284,1,70
248,188,75960,2,0,P|276:212|288:248,1,70,8|0,0:0|0:0,0:0:0:0:
380,336,76330,6,0,L|360:260,1,70
376,172,76700,2,0,L|396:248,1,70,8|0,0:0|0:0,0:0:0:0:
296,288,77071,6,0,L|363:248,1,70
453,241,77441,2,0,L|384:279,1,70,8|0,0:0|0:0,0:0:0:0:
296,288,77812,6,0,L|420:216,1,140,0|8,0:0|0:0,0:0:0:0:
436,136,78367,1,0,0:0:0:0:
436,136,78552,2,0,L|404:200,1,70
320,88,78923,2,0,L|342:155,1,70,8|0,0:0|0:0,0:0:0:0:
208,124,79293,6,0,L|256:148,2,35
284,204,79663,2,0,P|240:216|208:208,1,70,8|0,0:0|0:0,0:0:0:0:
136,244,80034,2,0,P|180:256|212:248,1,70
284,280,80404,2,0,P|240:292|208:284,1,70,8|0,0:0|0:0,0:0:0:0:
46,157,80774,5,0,0:0:0:0:
91,200,80960,1,0,0:0:0:0:
136,244,81145,2,0,L|140:172,1,70,8|0,0:0|0:0,0:0:0:0:
144,72,81515,5,0,0:0:0:0:
194,119,81701,1,0,0:0:0:0:
244,168,81886,2,0,L|247:90,1,70,8|0,0:0|0:0,0:0:0:0:
340,28,82256,5,8,3:3:0:0:
246,98,82441,1,8,3:3:0:0:
354,145,82626,2,0,P|340:184|320:208,1,70,8|0,0:0|0:0,0:0:0:0:
244,212,82997,2,0,P|258:251|278:275,1,70
360,312,83367,1,8,0:0:0:0:
292,360,83552,1,0,0:0:0:0:
432,356,83737,6,0,B|456:304|420:256|420:256|436:224,1,140,0|8,0:0|0:0,0:0:0:0:
384,132,84293,1,0,0:0:0:0:
384,132,84478,2,0,L|428:196,1,70
484,92,84849,2,0,L|440:156,1,70,8|0,0:0|0:0,0:0:0:0:
396,28,85219,5,0,3:3:0:0:
362,77,85404,1,0,3:3:0:0:
328,126,85589,1,0,3:3:0:0:
196,36,85960,5,0,3:3:0:0:
180,196,86330,2,0,L|196:232,3,35
180,196,86700,5,8,0:0:0:0:
100,116,86886,2,0,L|136:152,2,35,0|0|8,0:0|0:0|0:0,0:0:0:0:
180,196,87256,5,8,0:0:0:0:
136,84,87442,2,0,L|156:132,2,35,0|0|8,0:0|0:0|0:0,0:0:0:0:
180,196,87812,5,8,0:0:0:0:
179,62,87997,2,0,L|180:120,2,35,0|0|8,0:0|0:0|0:0,0:0:0:0:
180,196,88367,5,8,0:0:0:0:
227,64,88552,2,0,L|208:112,2,35,0|0|8,0:0|0:0|0:0,0:0:0:0:
180,196,88923,5,8,3:3:0:0:
178,280,89108,1,8,3:3:0:0:
261,282,89293,1,8,3:3:0:0:
264,198,89478,1,8,3:3:0:0:
