osu file format v14

[General]
AudioFilename: audio.mp3
AudioLeadIn: 0
PreviewTime: 51110
Countdown: 0
SampleSet: Soft
StackLeniency: 0.7
Mode: 0
LetterboxInBreaks: 0
WidescreenStoryboard: 1

[Editor]
Bookmarks: 1851,14166,32777
DistanceSpacing: 1
BeatDivisor: 4
GridSize: 4
TimelineZoom: 1.3

[Metadata]
Title:Baton Road
TitleUnicode:バトンロード
Artist:KANA BOON
ArtistUnicode:KANA BOON
Creator:Lian2002
Version:Hard
Source:ボルート:次の世代ナルト
Tags:Boruto-Oppening-Naruto-Shippuden-KANA BOON
BeatmapID:1306678
BeatmapSetID:595681

[Difficulty]
HPDrainRate:4
CircleSize:4
OverallDifficulty:4
ApproachRate:8
SliderMultiplier:1.40000000596046
SliderTickRate:1

[Events]
//Background and Video events
Video,0,"Boruto- Naruto Next Generations Opening - YouTube.MP4"
0,0,"thumb-1920-727044.png",0,0
//Break Periods
//Storyboard Layer 0 (Background)
//Storyboard Layer 1 (Fail)
//Storyboard Layer 2 (Pass)
//Storyboard Layer 3 (Foreground)
//Storyboard Sound Samples

[TimingPoints]
925,370.37037037037,7,2,1,90,1,0
51850,-100,7,2,1,90,0,1
86665,-100,7,2,1,90,0,0

[Colours]
Combo1 : 128,0,0
Combo2 : 0,128,128
Combo3 : 128,128,255

[HitObjects]
96,192,925,6,0,L|46:275,4,70.000000298023
160,96,2036,2,0,L|224:128,1,70.000000298023,8|0,0:0|0:0,0:0:0:0:
320,107,2591,2,0,P|325:181|271:220,2,140.000000596046,0|8|0,0:0|0:0|0:0,0:0:0:0:
222,127,3887,5,0,0:0:0:0:
222,127,4073,2,0,P|169:211|224:315,1,210.000000894069,8|0,0:0|0:0,0:0:0:0:
315,306,4813,2,0,P|355:213|302:127,1,210.000000894069,8|0,0:0|0:0,0:0:0:0:
209,305,5554,2,0,P|155:342|71:319,1,140.000000596046,8|0,0:0|0:0,0:0:0:0:
137,249,6295,5,0,0:0:0:0:
49,178,6665,1,8,0:0:0:0:
100,64,7036,1,0,0:0:0:0:
100,64,7221,6,0,L|185:53,1,70.000000298023,8|0,0:0|0:0,0:0:0:0:
199,141,7591,2,0,L|283:123,1,70.000000298023,8|0,0:0|0:0,0:0:0:0:
316,200,7962,2,0,L|396:178,2,70.000000298023,8|0|0,0:0|0:0|0:0,0:0:0:0:
204,233,8517,6,8,L|233:305,1,70.000000298023
247,328,8795,1,8,0:0:0:0:
275,348,8887,1,8,0:0:0:0:
309,355,8981,1,8,0:0:0:0:
341,342,9073,2,8,L|304:252,1,70.000000298023
316,200,9443,5,0,0:0:0:0:
421,149,9628,1,8,0:0:0:0:
449,48,9813,1,0,0:0:0:0:
421,149,9999,6,8,L|357:117,1,70.000000298023
316,200,10370,1,0,0:0:0:0:
316,200,10554,2,8,P|266:148|196:139,1,140.000000596046
212,242,11110,1,0,0:0:0:0:
155,349,11480,2,8,P|105:263|207:135,2,280.000001192092
212,242,13332,5,0,0:0:0:0:
301,47,13702,1,8,0:0:0:0:
330,319,14073,1,0,0:0:0:0:
330,319,14258,1,8,0:0:0:0:
413,183,14628,1,0,0:0:0:0:
413,183,14813,1,8,0:0:0:0:
300,89,15184,6,8,L|221:89,1,70.000000298023
96,160,15554,1,0,0:0:0:0:
96,160,15739,2,8,L|189:160,1,70.000000298023
290,159,16110,2,0,L|290:260,1,70.000000298023,0|8,0:0|0:0,0:0:0:0:
293,336,16480,6,8,L|345:303,2,35.0000001490115
187,301,16850,1,0,0:0:0:0:
106,366,17036,1,8,0:0:0:0:
24,312,17221,2,8,L|-27:273,2,35.0000001490115
106,366,17591,2,0,L|106:275,1,70.000000298023
173,239,17962,6,8,P|114:142|40:253,1,280.000001192092
105,220,18887,2,8,L|105:6,1,210.000000894069
208,122,19628,2,8,P|134:89|212:65,1,210.000000894069
288,164,20369,5,0,0:0:0:0:
381,107,20554,1,8,0:0:0:0:
397,211,20739,1,0,0:0:0:0:
495,172,20924,1,8,0:0:0:0:
488,295,21110,2,8,L|502:346,2,35.0000001490115
397,211,21480,2,0,L|414:307,1,70.000000298023
426,353,21850,6,8,B|381:371|307:341|320:185,1,210.000000894069
262,216,22591,2,0,B|273:343|199:373|154:355,1,210.000000894069,8|0,0:0|0:0,0:0:0:0:
178,272,23332,6,0,L|132:197,1,70.000000298023
59,239,23702,1,8,0:0:0:0:
59,239,23795,1,8,0:0:0:0:
59,239,23887,2,8,P|81:147|140:117,2,140.000000596046
141,212,24813,6,8,L|301:64,1,210.000000894069
419,54,25554,2,8,L|257:215,1,210.000000894069
270,202,26202,1,8,0:0:0:0:
270,202,26295,1,8,0:0:0:0:
189,282,26480,5,0,0:0:0:0:
263,356,26665,1,0,0:0:0:0:
376,358,26850,2,8,L|434:357,2,35.0000001490115
263,356,27221,1,0,0:0:0:0:
189,282,27406,1,0,0:0:0:0:
98,236,27591,2,8,L|33:237,2,35.0000001490115
192,192,27962,6,8,P|158:148|121:136,1,70.000000298023,8|8,0:0|0:0,0:0:0:0:
32,128,28332,2,8,P|66:84|103:72,1,70.000000298023
164,42,28702,2,8,P|196:42|239:61,1,70.000000298023
146,141,29073,6,0,P|174:161|192:192,1,70.000000298023
153,250,29443,2,8,P|166:284|205:309,2,70.000000298023
222,241,29999,1,0,0:0:0:0:
280,202,30184,1,0,0:0:0:0:
349,197,30369,6,8,L|381:117,2,70.000000298023
323,262,30925,1,0,0:0:0:0:
323,262,31110,1,0,0:0:0:0:
388,285,31295,2,8,L|474:316,2,70.000000298023
323,262,31851,1,0,0:0:0:0:
323,262,32036,1,0,0:0:0:0:
235,302,32221,6,0,L|293:369,1,70.000000298023,8|0,0:0|0:0,0:0:0:0:
150,335,32591,2,0,P|87:309|68:292,1,70.000000298023,8|0,0:0|0:0,0:0:0:0:
104,222,32962,1,0,0:0:0:0:
26,260,33147,2,0,P|-1:216|5:175,1,70.000000298023,8|0,0:0|0:0,0:0:0:0:
0,72,33702,2,8,P|63:25|144:31,2,140.000000596046
92,118,34813,6,0,L|151:182,1,70.000000298023
198,247,35184,1,0,0:0:0:0:
198,247,35369,2,8,P|277:168|324:150,2,140.000000596046
117,282,36295,2,8,P|167:337|240:323,1,140.000000596046
198,247,36850,5,0,0:0:0:0:
198,247,37036,1,0,0:0:0:0:
292,290,37221,1,8,0:0:0:0:
292,290,37313,1,8,0:0:0:0:
292,290,37406,6,8,P|303:224|255:169,1,140.000000596046
213,76,37962,6,8,P|267:84|351:138,1,140.000000596046
462,167,38517,6,8,P|413:78|365:44,1,140.000000596046
339,126,39073,2,8,L|317:200,1,70.000000298023
309,226,39350,2,8,L|353:247,5,35.0000001490115
474,282,40184,1,0,0:0:0:0:
474,282,40369,2,8,P|416:345|274:346,2,210.000000894069
346,225,41850,5,0,0:0:0:0:
283,192,42036,1,8,0:0:0:0:
215,209,42221,1,0,0:0:0:0:
134,323,42591,1,8,0:0:0:0:
77,281,42776,1,8,0:0:0:0:
256,192,43147,5,0,0:0:0:0:
256,64,43332,2,8,P|160:96|128:192,2,210.000000894069,8|8|8,0:0|0:0|0:0,0:0:0:0:
256,192,44628,2,8,L|288:224,6,35.0000001490115
384,320,45554,6,0,P|320:256|259:256,1,140.000000596046,8|0,0:0|0:0,0:0:0:0:
288,352,46295,1,8,0:0:0:0:
256,256,46665,1,8,0:0:0:0:
224,160,47036,6,0,P|160:160|96:224,1,140.000000596046,0|8,0:0|0:0,0:0:0:0:
192,256,47776,1,8,0:0:0:0:
224,160,48147,1,8,0:0:0:0:
256,64,48517,6,8,P|320:64|384:128,1,140.000000596046,8|8,0:0|0:0,0:0:0:0:
96,224,49258,1,8,0:0:0:0:
384,320,49628,1,8,0:0:0:0:
224,320,49999,5,8,0:0:0:0:
256,96,50184,1,8,0:0:0:0:
288,224,50554,5,8,0:0:0:0:
320,32,50739,1,8,0:0:0:0:
333,140,51110,2,0,P|272:130|203:181,1,140.000000596046
288,224,51665,6,8,L|314:289,2,70.000000298023
256,128,52406,1,0,0:0:0:0:
192,64,52591,1,8,0:0:0:0:
96,64,52776,1,0,0:0:0:0:
32,128,52962,2,0,L|31:214,2,70.000000298023,8|0|8,0:0|0:0|0:0,0:0:0:0:
96,64,53517,5,0,0:0:0:0:
128,160,53702,1,8,0:0:0:0:
160,256,53887,1,0,0:0:0:0:
192,352,54073,6,0,L|243:296,1,70.000000298023,8|0,0:0|0:0,0:0:0:0:
288,224,54443,1,0,0:0:0:0:
270,136,54628,1,8,0:0:0:0:
370,217,54813,1,8,0:0:0:0:
355,119,54999,2,8,P|419:119|466:51,1,140.000000596046
384,40,55554,5,0,0:0:0:0:
421,198,55739,2,8,L|435:277,1,70.000000298023
434,271,56110,1,0,0:0:0:0:
512,260,56296,2,8,P|478:342|414:354,1,140.000000596046,8|8,0:0|0:0,0:0:0:0:
344,263,56850,1,8,0:0:0:0:
344,263,56943,1,8,0:0:0:0:
344,263,57036,2,8,P|386:181|450:169,1,140.000000596046,8|8,0:0|0:0,0:0:0:0:
192,352,57776,6,8,L|160:256,1,70.000000298023,8|8,0:0|0:0,0:0:0:0:
128,192,58147,1,8,0:0:0:0:
32,160,58333,2,8,L|64:64,1,70.000000298023
192,32,58702,5,8,0:0:0:0:
192,32,58887,2,8,B|224:96|224:96|352:32,1,210.000000894069,8|8,0:0|0:0,0:0:0:0:
384,160,59628,1,8,0:0:0:0:
384,160,59721,1,8,0:0:0:0:
384,160,59814,6,8,L|448:128,1,70.000000298023
306,214,60184,1,0,0:0:0:0:
306,214,60370,2,8,B|288:192|288:192|160:256,2,140.000000596046
306,214,61481,5,0,0:0:0:0:
188,241,61851,2,8,L|145:155,1,70.000000298023
58,172,62221,1,0,0:0:0:0:
58,172,62407,2,0,L|97:258,1,70.000000298023
263,220,62776,1,8,0:0:0:0:
263,220,62869,1,8,0:0:0:0:
263,220,62962,6,8,P|288:270|320:366,2,140.000000596046,8|8|8,0:0|0:0|0:0,0:0:0:0:
112,96,63887,1,0,0:0:0:0:
112,96,64073,1,0,0:0:0:0:
112,96,64258,1,0,0:0:0:0:
112,96,64443,2,8,P|192:64|247:59,1,140.000000596046
256,160,64999,1,0,0:0:0:0:
256,160,65184,2,8,P|320:160|407:130,1,140.000000596046
352,64,65924,6,8,P|384:32|410:26,4,70.000000298023
352,164,66850,6,8,P|384:196|410:202,1,70.000000298023
419,116,67221,1,0,0:0:0:0:
406,26,67406,6,8,P|373:37|351:63,1,70.000000298023
419,116,67776,1,0,0:0:0:0:
406,201,67962,1,0,0:0:0:0:
380,292,68147,2,8,P|357:318|325:329,2,70.000000298023
317,249,68702,1,0,0:0:0:0:
284,173,68887,1,0,0:0:0:0:
242,104,69073,5,0,0:0:0:0:
189,34,69259,2,8,L|105:80,1,70.000000298023
45,107,69814,1,0,0:0:0:0:
47,201,70185,6,8,L|46:289,1,70.000000298023
144,352,70554,1,0,0:0:0:0:
229,311,70739,2,8,B|232:311|253:286|292:239,2,70.000000298023
144,352,71480,6,8,L|144:279,1,70.000000298023
229,311,71850,2,8,B|232:311|253:286|292:239,1,70.000000298023
339,184,72221,1,0,0:0:0:0:
472,174,72591,5,8,0:0:0:0:
472,174,72776,1,8,0:0:0:0:
288,64,73147,5,8,0:0:0:0:
288,64,73332,1,8,0:0:0:0:
288,64,73517,1,8,0:0:0:0:
339,184,73702,5,8,0:0:0:0:
275,214,73887,2,8,L|216:139,1,70.000000298023
167,129,74258,2,8,L|116:62,1,70.000000298023
93,192,74813,6,0,P|52:202|19:230,2,70.000000298023
202,248,75369,1,8,0:0:0:0:
91,278,75554,2,8,L|88:364,2,70.000000298023
93,192,76110,1,0,0:0:0:0:
167,129,76295,1,0,0:0:0:0:
256,128,76481,6,8,P|256:75|256:32,2,70.000000298023
335,187,77221,2,8,L|382:239,2,70.000000298023
256,128,77776,2,8,L|199:183,1,70.000000298023
186,274,78146,5,8,0:0:0:0:
111,140,78331,1,8,0:0:0:0:
164,282,78517,1,8,0:0:0:0:
86,146,78702,1,8,0:0:0:0:
80,143,79073,2,0,L|38:62,2,70.000000298023
164,282,79628,5,8,0:0:0:0:
288,227,79813,1,8,0:0:0:0:
181,297,79999,1,8,0:0:0:0:
307,241,80184,1,8,0:0:0:0:
278,345,80369,2,0,P|354:341|401:266,1,140.000000596046
307,241,80924,2,8,P|335:205|387:193,2,70.000000298023
394,296,81480,1,8,0:0:0:0:
394,296,81665,2,0,P|449:265|448:185,2,140.000000596046
208,192,82591,6,0,L|137:193,1,70.000000298023
310,45,83148,2,0,L|281:133,1,70.000000298023
356,193,83518,2,0,L|379:125,1,70.000000298023
308,316,83887,2,0,P|108:316|108:44,1,525.000002086161
256,96,85554,5,8,0:0:0:0:
352,192,85739,1,8,0:0:0:0:
256,288,85924,1,8,0:0:0:0:
160,192,86109,1,8,0:0:0:0:
352,192,86295,1,8,0:0:0:0:
256,96,86480,1,8,0:0:0:0:
256,288,86665,1,8,0:0:0:0:
128,96,87037,6,8,L|41:66,2,70.000000298023
378,96,87592,2,0,L|466:65,2,70.000000298023
128,288,88148,6,8,L|40:318,2,70.000000298023
384,287,88703,2,0,L|471:316,2,70.000000298023
256,224,89259,2,8,L|256:132,3,70.000000298023
