osu file format v14

[General]
AudioFilename: audio.mp3
AudioLeadIn: 0
PreviewTime: 51110
Countdown: 0
SampleSet: Soft
StackLeniency: 0.7
Mode: 0
LetterboxInBreaks: 0
WidescreenStoryboard: 1

[Editor]
Bookmarks: 1851,14166,32777
DistanceSpacing: 1
BeatDivisor: 4
GridSize: 8
TimelineZoom: 1.3

[Metadata]
Title:Baton Road
TitleUnicode:バトンロード
Artist:KANA BOON
ArtistUnicode:KANA BOON
Creator:Lian2002
Version:Easy
Source:ボルート:次の世代ナルト
Tags:Boruto-Oppening-Naruto-Shippuden-KANA BOON
BeatmapID:1276058
BeatmapSetID:595681

[Difficulty]
HPDrainRate:4
CircleSize:4
OverallDifficulty:4
ApproachRate:4
SliderMultiplier:1.10000000596046
SliderTickRate:1

[Events]
//Background and Video events
Video,0,"Boruto- Naruto Next Generations Opening - YouTube.MP4"
0,0,"thumb-1920-727044.png",0,0
//Break Periods
//Storyboard Layer 0 (Background)
//Storyboard Layer 1 (Fail)
//Storyboard Layer 2 (Pass)
//Storyboard Layer 3 (Foreground)
//Storyboard Sound Samples

[TimingPoints]
925,370.37037037037,7,2,1,90,1,0
51850,-100,7,2,1,90,0,1
86665,-100,7,2,1,90,0,0

[Colours]
Combo1 : 0,64,128
Combo2 : 128,0,64
Combo3 : 128,0,128

[HitObjects]
304,96,1110,6,8,P|96:96|96:288,2,440.000002384184,8|10|8,2:0|2:0|2:0,2:0:0:0:
224,184,4814,2,8,P|320:232|416:184,2,220.000001192092,8|12|8,2:0|2:0|2:0,2:0:0:0:
216,80,7036,2,8,P|312:32|408:80,2,220.000001192092,8|12|8,2:0|2:0|2:0,2:0:0:0:
312,168,9258,6,8,L|312:304,2,110.000000596046,8|8|8,2:0|2:0|2:0,2:0:0:0:
200,104,10739,2,8,P|200:176|200:328,2,220.000001192092,8|12|8,2:0|2:0|2:0,2:0:0:0:
88,168,12962,2,8,L|88:304,2,110.000000596046,8|8|8,2:0|2:0|2:0,2:0:0:0:
120,80,14629,5,8,2:0:0:0:
120,80,14814,2,8,P|232:32|320:88,3,220.000001192092,12|8|12|8,2:0|2:0|2:0|2:0,2:0:0:0:
216,120,17776,2,0,P|200:224|264:336,1,220.000001192092,8|4,0:0|0:0,0:0:0:0:
364,270,19258,2,0,P|277:219|320:128,1,220.000001192092,8|4,0:0|0:0,0:0:0:0:
360,192,20739,2,0,P|408:144|304:56,1,220.000001192092,8|4,0:0|0:0,0:0:0:0:
320,128,21851,6,12,P|248:160|169:120,1,165.000000894069,8|12,2:0|2:0,2:0:0:0:
173,126,22592,2,8,P|173:198|77:302,3,220.000001192092,8|12|8|8,2:0|2:0|2:0|2:0,2:0:0:0:
0,256,25554,2,8,P|0:184|96:80,1,220.000001192092,8|12,2:0|2:0,2:0:0:0:
96,184,26851,5,8,2:0:0:0:
96,184,27036,2,8,L|296:304,2,220.000001192092,8|12|8,2:0|2:0|2:0,2:0:0:0:
95,80,29258,2,8,L|283:193,2,220.000001192092,8|12|8,2:0|2:0|2:0,2:0:0:0:
256,64,31480,2,0,L|448:176,1,220.000001192092,8|4,0:0|0:0,0:0:0:0:
392,40,32962,1,8,0:0:0:0:
446,174,33702,6,8,P|446:278|328:280,3,220.000001192092,8|12|8|12,2:0|2:0|2:0|2:0,2:0:0:0:
376,216,36665,2,0,P|296:216|296:344,1,220.000001192092,8|4,0:0|0:0,0:0:0:0:
352,296,38147,2,0,L|192:128,1,220.000001192092,8|4,0:0|0:0,0:0:0:0:
232,72,39259,1,12,2:0:0:0:
232,72,39628,2,8,P|144:72|144:184,2,220.000001192092,12|8|8,2:0|2:0|2:0,2:0:0:0:
200,136,41851,5,12,2:0:0:0:
141,181,42222,1,12,2:0:0:0:
80,224,42592,2,8,P|80:320|192:320,3,220.000001192092,8|12|8|12,2:0|2:0|2:0|2:0,2:0:0:0:
144,264,45554,6,8,B|192:208|192:208|256:184|256:184|320:112,1,220.000001192092,8|12,0:0|0:0,0:0:0:0:
355,197,47036,2,0,B|304:256|304:256|240:280|240:280|192:336,1,220.000001192092,8|4,0:0|0:0,0:0:0:0:
144,264,48517,5,0,0:0:0:0:
80,224,49258,1,0,0:0:0:0:
144,176,49999,1,12,2:0:0:0:
144,176,50185,6,8,P|144:112|240:112,1,165.000000894069,8|12,2:0|2:0,2:0:0:0:
232,184,51110,2,8,P|304:184|304:56,2,220.000001192092,8|12|8,2:0|2:0|2:0,2:0:0:0:
264,120,52962,1,8,0:0:0:0:
264,120,53333,2,8,P|368:120|352:8,1,220.000001192092,8|12,2:0|2:0,2:0:0:0:
312,61,54443,5,8,0:0:0:0:
312,61,54814,2,8,B|312:152|312:200|312:200|312:288,2,220.000001192092,8|12|8,2:0|2:0|2:0,2:0:0:0:
312,61,56665,5,8,0:0:0:0:
312,61,57037,2,8,P|240:192|168:192,1,220.000001192092,12|8,2:0|2:0,2:0:0:0:
207,104,58147,5,8,0:0:0:0:
207,104,58517,2,8,P|107:137|80:240,2,220.000001192092,12|8|8,2:0|2:0|2:0,2:0:0:0:
176,200,60369,1,8,0:0:0:0:
176,200,60739,6,0,B|216:304|288:208|344:320,1,220.000001192092,8|4,0:0|0:0,0:0:0:0:
248,320,61850,1,0,0:0:0:0:
248,320,62221,2,0,B|288:216|360:312|416:200,3,220.000001192092,8|4|8|8,0:0|0:0|0:0|0:0,0:0:0:0:
168,296,64813,1,12,0:0:0:0:
168,296,65184,6,8,P|200:232|336:184,2,220.000001192092,8|4|8,0:0|0:0|0:0,0:0:0:0:
168,160,67036,1,4,0:0:0:0:
168,160,67406,2,8,P|272:112|392:128,2,220.000001192092,8|4|8,0:0|0:0|0:0,0:0:0:0:
224,48,69258,1,4,0:0:0:0:
224,48,69628,2,8,P|312:32|448:64,2,220.000001192092,8|4|8,0:0|0:0|0:0,0:0:0:0:
160,88,71480,5,8,0:0:0:0:
96,144,71850,1,8,0:0:0:0:
48,216,72221,2,0,P|96:304|304:304,1,330.000001788138,8|4,0:0|0:0,0:0:0:0:
226,258,73702,2,0,P|173:254|136:216,1,110.000000596046,8|4,0:0|0:0,0:0:0:0:
216,168,74443,1,8,0:0:0:0:
152,128,74814,6,8,P|248:96|280:200,1,220.000001192092,8|12,2:0|2:0,2:0:0:0:
216,168,75924,1,8,0:0:0:0:
216,168,76295,2,0,P|240:256|352:224,1,220.000001192092,4|8,0:0|0:0,0:0:0:0:
285,187,77406,5,8,0:0:0:0:
346,235,77776,1,8,0:0:0:0:
408,288,78147,2,0,B|544:128|296:144|392:56|448:8,1,330.000001788138,4|4,0:0|0:0,0:0:0:0:
448,7,79628,1,8,2:0:0:0:
464,88,79999,2,0,P|408:80|376:24,1,110.000000596046,4|8,0:0|0:0,0:0:0:0:
448,7,80739,2,8,B|416:103|416:103|355:153|348:223,1,220.000001192092,8|12,2:0|2:0,2:0:0:0:
432,240,81850,6,0,P|397:284|344:282,1,110.000000596046,8|4,0:0|0:0,0:0:0:0:
351,200,82591,2,8,L|308:136,2,55.000000298023
270,252,83332,1,8,0:0:0:0:
270,252,83517,2,8,P|244:297|228:305,2,55.000000298023,12|8|8,0:0|0:0|0:0,0:0:0:0:
270,252,84073,6,2,B|157:90|148:84|126:84|108:85|94:103|83:124|80:139|79:173|89:199|98:207|116:216|144:220|176:215|203:201|235:184|253:176|327:150|345:124|360:94|346:50|325:29|302:31|262:48|165:17|196:81|213:121|209:148|192:177|186:208|176:293,1,880.000004768368
