osu file format v14

[General]
AudioFilename: audio.mp3
AudioLeadIn: 0
PreviewTime: 54508
Countdown: 1
SampleSet: None
StackLeniency: 0.7
Mode: 1
LetterboxInBreaks: 0
WidescreenStoryboard: 0

[Editor]
DistanceSpacing: 0.8
BeatDivisor: 4
GridSize: 32
TimelineZoom: 2.3

[Metadata]
Title:NRG (Masayoshi Iimori Remix)
TitleUnicode:NRG (Masayoshi Iimori Remix)
Artist:KAN TAKAHIKO
ArtistUnicode:KAN TAKAHIKO
Creator:Eiuh
Version:RNG [SV]
Source:
Tags:
BeatmapID:1322023
BeatmapSetID:627359

[Difficulty]
HPDrainRate:7
CircleSize:4
OverallDifficulty:5.5
ApproachRate:10
SliderMultiplier:1.40000000596046
SliderTickRate:1

[Events]
//Background and Video events
0,0,"10.jpg",0,0
//Break Periods
//Storyboard Layer 0 (Background)
//Storyboard Layer 1 (Fail)
//Storyboard Layer 2 (Pass)
//Storyboard Layer 3 (Foreground)
//Storyboard Sound Samples

[TimingPoints]
80,428.571428571429,4,1,0,100,1,0
80,-83.3333333333333,4,1,0,100,0,0
20651,-79.3650793650794,4,1,0,100,0,0
21080,-75.187969924812,4,1,0,100,0,0
21508,-71.4285714285714,4,1,0,100,0,0
21937,-68.4931506849315,4,1,0,100,0,0
22365,-65.359477124183,4,1,0,100,0,0
22794,-62.5,4,1,0,100,0,0
23222,-60.2409638554217,4,1,0,100,0,0
23651,-57.8034682080925,4,1,0,100,0,0
24080,-55.5555555555556,4,1,0,100,0,0
24937,-52.6315789473684,4,1,0,100,0,0
25794,-50,4,1,0,100,0,0
27508,-200,4,1,0,100,0,0
28151,-196.078431372549,4,1,0,100,0,0
28794,-192.307692307692,4,1,0,100,0,0
30080,-185.185185185185,4,1,0,100,0,0
30937,-181.818181818182,4,1,0,100,0,0
31580,-178.571428571429,4,1,0,100,0,0
32222,-175.438596491228,4,1,0,100,0,0
33508,-169.491525423729,4,1,0,100,0,0
34365,-166.666666666667,4,1,0,100,0,0
35008,-163.934426229508,4,1,0,100,0,0
35651,-161.290322580645,4,1,0,100,0,0
36937,-156.25,4,1,0,100,0,0
37794,-153.846153846154,4,1,0,100,0,0
38437,-151.515151515152,4,1,0,100,0,0
39080,-149.253731343284,4,1,0,100,0,0
39937,-144.927536231884,4,1,0,100,0,0
40580,-142.857142857143,4,1,0,100,0,0
41222,-140.845070422535,4,1,0,100,0,0
41865,-138.888888888889,4,1,0,100,0,0
42508,-136.986301369863,4,1,0,100,0,0
44651,-133.333333333333,4,1,0,100,0,0
45294,-131.578947368421,4,1,0,100,0,0
45937,-129.87012987013,4,1,0,100,0,0
47222,-126.582278481013,4,1,0,100,0,0
48080,-125,4,1,0,100,0,0
48722,-121.951219512195,4,1,0,100,0,0
49365,-120.481927710843,4,1,0,100,0,0
50008,-119.047619047619,4,1,0,100,0,0
50651,-117.647058823529,4,1,0,100,0,0
54508,214.285714285714,4,1,0,100,1,0
54508,-25,4,1,0,100,0,0
54936,428.571428571429,4,1,0,100,1,0
54937,-80,4,1,0,100,0,0
65221,214.285714285714,4,1,0,100,1,0
65221,-25,4,1,0,100,0,1
68649,428.571428571429,4,1,0,100,1,0
68649,-76.9230769230769,4,1,0,100,0,0
75506,-71.4285714285714,4,1,0,100,0,0
76149,-66.6666666666667,4,1,0,100,0,0
76791,-62.5,4,1,0,100,0,0
77220,-58.8235294117647,4,1,0,100,0,0
77863,-55.5555555555556,4,1,0,100,0,0
78506,-52.6315789473684,4,1,0,100,0,0
78934,-50,4,1,0,100,0,0
82363,-33.3333333333333,4,1,0,100,0,0
83220,-50,4,1,0,100,0,0
96506,-66.6666666666667,4,1,0,100,0,0
99506,214.285714285714,4,1,0,100,1,0
99506,-28.5714285714286,4,1,0,100,0,1
99934,428.571428571429,4,1,0,100,1,0
99934,-66.6666666666667,4,1,0,100,0,0
102934,214.285714285714,4,1,0,100,1,0
102934,-28.5714285714286,4,1,0,100,0,1
103791,428.571428571429,4,1,0,100,1,0
103791,-66.6666666666667,4,1,0,100,0,0
106362,214.285714285714,4,1,0,100,1,0
106362,-28.5714285714286,4,1,0,100,0,1
106790,428.571428571429,4,1,0,100,1,0
106790,-66.6666666666667,4,1,0,100,0,0
109790,-25,4,1,0,100,0,1
110647,-66.6666666666667,4,1,0,100,0,0
116647,214.285714285714,4,1,0,100,1,0
116647,-33.3333333333333,4,1,0,100,0,0
117504,428.571428571429,4,1,0,100,1,0
117504,-66.6666666666667,4,1,0,100,0,0
123080,142.857142857143,4,1,0,100,1,0
123080,-25,4,1,0,100,0,0
123508,428.571428571429,4,1,0,100,1,0
123508,-76.9230769230769,4,1,0,100,0,0

[HitObjects]
256,192,80,5,0,0:0:0:0:
256,192,294,1,0,0:0:0:0:
256,192,615,1,0,0:0:0:0:
256,192,937,1,8,0:0:0:0:
256,192,1151,1,0,0:0:0:0:
256,192,1258,1,0,0:0:0:0:
256,192,1472,1,0,0:0:0:0:
256,192,1580,1,8,0:0:0:0:
256,192,1794,1,0,0:0:0:0:
256,192,2008,1,0,0:0:0:0:
256,192,2330,1,0,0:0:0:0:
256,192,2651,1,8,0:0:0:0:
256,192,2758,1,0,0:0:0:0:
256,192,2972,1,0,0:0:0:0:
256,192,3187,1,0,0:0:0:0:
256,192,3294,1,0,0:0:0:0:
256,192,3401,1,8,0:0:0:0:
256,192,3508,1,0,0:0:0:0:
256,192,3722,1,0,0:0:0:0:
256,192,4044,1,0,0:0:0:0:
256,192,4365,1,8,0:0:0:0:
256,192,4472,1,0,0:0:0:0:
256,192,4686,1,0,0:0:0:0:
256,192,4901,1,0,0:0:0:0:
256,192,5008,1,0,0:0:0:0:
256,192,5115,1,0,0:0:0:0:
256,192,5222,1,8,0:0:0:0:
256,192,5436,1,0,0:0:0:0:
256,192,5543,1,8,0:0:0:0:
256,192,5758,1,0,0:0:0:0:
256,192,6079,1,8,0:0:0:0:
256,192,6186,1,0,0:0:0:0:
256,192,6400,1,0,0:0:0:0:
256,192,6615,1,0,0:0:0:0:
256,192,6722,1,0,0:0:0:0:
256,192,6829,1,8,0:0:0:0:
256,192,6936,1,0,0:0:0:0:
256,192,7150,1,0,0:0:0:0:
256,192,7257,1,8,0:0:0:0:
256,192,7472,1,0,0:0:0:0:
256,192,7793,1,8,0:0:0:0:
256,192,7900,1,0,0:0:0:0:
256,192,8114,1,0,0:0:0:0:
256,192,8330,1,0,0:0:0:0:
256,192,8437,1,0,0:0:0:0:
256,192,8544,1,0,0:0:0:0:
256,192,8651,1,8,0:0:0:0:
256,192,8865,1,0,0:0:0:0:
256,192,8972,1,8,0:0:0:0:
256,192,9187,1,0,0:0:0:0:
256,192,9508,1,8,0:0:0:0:
256,192,9615,1,0,0:0:0:0:
256,192,9829,1,0,0:0:0:0:
256,192,10044,1,0,0:0:0:0:
256,192,10151,1,0,0:0:0:0:
256,192,10258,1,8,0:0:0:0:
256,192,10365,1,0,0:0:0:0:
256,192,10579,1,0,0:0:0:0:
256,192,10686,1,8,0:0:0:0:
256,192,10901,1,0,0:0:0:0:
256,192,11222,1,8,0:0:0:0:
256,192,11329,1,0,0:0:0:0:
256,192,11543,1,0,0:0:0:0:
256,192,11758,1,0,0:0:0:0:
256,192,11865,1,0,0:0:0:0:
256,192,11972,1,0,0:0:0:0:
256,192,12080,1,8,0:0:0:0:
256,192,12294,1,0,0:0:0:0:
256,192,12401,1,8,0:0:0:0:
256,192,12615,1,8,0:0:0:0:
256,192,12722,1,8,0:0:0:0:
256,192,12829,1,0,0:0:0:0:
256,192,12936,1,8,0:0:0:0:
256,192,13044,1,0,0:0:0:0:
256,192,13151,1,0,0:0:0:0:
256,192,13258,1,0,0:0:0:0:
256,192,13365,1,0,0:0:0:0:
256,192,13472,1,8,0:0:0:0:
256,192,13580,1,0,0:0:0:0:
256,192,13687,1,0,0:0:0:0:
256,192,13794,1,8,0:0:0:0:
256,192,14008,1,0,0:0:0:0:
256,192,14115,1,0,0:0:0:0:
256,192,14222,1,8,0:0:0:0:
256,192,14330,1,0,0:0:0:0:
256,192,14437,1,0,0:0:0:0:
256,192,14544,1,0,0:0:0:0:
256,192,14651,1,8,0:0:0:0:
256,192,14865,1,0,0:0:0:0:
256,192,14972,1,8,0:0:0:0:
256,192,15187,1,0,0:0:0:0:
256,192,15294,1,8,0:0:0:0:
256,192,15401,1,0,0:0:0:0:
256,192,15508,1,0,0:0:0:0:
256,192,15722,1,0,0:0:0:0:
256,192,15830,1,8,0:0:0:0:
256,192,15937,1,8,0:0:0:0:
256,192,16044,1,8,0:0:0:0:
256,192,16151,1,0,0:0:0:0:
256,192,16365,1,8,0:0:0:0:
256,192,16472,1,0,0:0:0:0:
256,192,16580,1,0,0:0:0:0:
256,192,16687,1,8,0:0:0:0:
256,192,16794,1,0,0:0:0:0:
256,192,16901,1,0,0:0:0:0:
256,192,17008,1,0,0:0:0:0:
256,192,17222,1,0,0:0:0:0:
256,192,17330,1,0,0:0:0:0:
256,192,17437,1,8,0:0:0:0:
256,192,17544,1,0,0:0:0:0:
256,192,17758,1,8,0:0:0:0:
256,192,17865,1,0,0:0:0:0:
256,192,18080,1,8,0:0:0:0:
256,192,18187,1,0,0:0:0:0:
256,192,18294,1,0,0:0:0:0:
256,192,18401,1,8,0:0:0:0:
256,192,18508,1,0,0:0:0:0:
256,192,18615,1,8,0:0:0:0:
256,192,18722,1,0,0:0:0:0:
256,192,18937,1,8,0:0:0:0:
256,192,19044,1,8,0:0:0:0:
256,192,19151,1,0,0:0:0:0:
256,192,19258,1,8,0:0:0:0:
256,192,19472,1,0,0:0:0:0:
256,192,19580,1,8,0:0:0:0:
256,192,19794,1,8,0:0:0:0:
256,192,19901,1,0,0:0:0:0:
256,192,20008,1,0,0:0:0:0:
256,192,20115,1,0,0:0:0:0:
256,192,20222,1,0,0:0:0:0:
256,192,20330,1,8,0:0:0:0:
256,192,20437,1,8,0:0:0:0:
256,192,20544,1,0,0:0:0:0:
256,192,20651,1,8,0:0:0:0:
256,192,20758,1,0,0:0:0:0:
256,192,20865,1,8,0:0:0:0:
256,192,21080,1,8,0:0:0:0:
256,192,21294,1,0,0:0:0:0:
256,192,21508,1,8,0:0:0:0:
256,192,21722,1,0,0:0:0:0:
256,192,21937,1,0,0:0:0:0:
256,192,22151,1,0,0:0:0:0:
256,192,22365,1,8,0:0:0:0:
256,192,22472,1,0,0:0:0:0:
256,192,22580,1,8,0:0:0:0:
256,192,22794,1,8,0:0:0:0:
256,192,22901,1,8,0:0:0:0:
256,192,23008,1,0,0:0:0:0:
256,192,23222,1,8,0:0:0:0:
256,192,23437,1,0,0:0:0:0:
256,192,23651,1,0,0:0:0:0:
256,192,23865,1,0,0:0:0:0:
256,192,24080,1,8,0:0:0:0:
256,192,24187,1,8,0:0:0:0:
256,192,24294,1,8,0:0:0:0:
256,192,24401,1,8,0:0:0:0:
256,192,24508,1,0,0:0:0:0:
256,192,24722,1,0,0:0:0:0:
256,192,24937,1,8,0:0:0:0:
256,192,25151,1,0,0:0:0:0:
256,192,25258,1,0,0:0:0:0:
256,192,25365,1,0,0:0:0:0:
256,192,25580,1,0,0:0:0:0:
256,192,25794,1,8,0:0:0:0:
256,192,25901,1,8,0:0:0:0:
256,192,26008,1,8,0:0:0:0:
256,192,26115,1,8,0:0:0:0:
256,192,26222,1,0,0:0:0:0:
256,192,26330,1,0,0:0:0:0:
256,192,26437,1,0,0:0:0:0:
256,192,26544,1,0,0:0:0:0:
256,192,26651,1,8,0:0:0:0:
256,192,26705,1,8,0:0:0:0:
256,192,26758,1,8,0:0:0:0:
256,192,26865,1,8,0:0:0:0:
256,192,26919,1,8,0:0:0:0:
256,192,26972,1,0,0:0:0:0:
256,192,27508,1,0,0:0:0:0:
256,192,28151,1,8,0:0:0:0:
256,192,28794,1,0,0:0:0:0:
256,192,30080,1,0,0:0:0:0:
256,192,30937,1,8,0:0:0:0:
256,192,31580,1,8,0:0:0:0:
256,192,32222,1,0,0:0:0:0:
256,192,33508,1,8,0:0:0:0:
256,192,34365,1,0,0:0:0:0:
256,192,35008,1,8,0:0:0:0:
256,192,35651,1,0,0:0:0:0:
256,192,36937,1,8,0:0:0:0:
256,192,37794,1,8,0:0:0:0:
256,192,38437,1,0,0:0:0:0:
256,192,39080,1,0,0:0:0:0:
256,192,39937,1,8,0:0:0:0:
256,192,40580,1,0,0:0:0:0:
256,192,41222,1,8,0:0:0:0:
256,192,41865,1,8,0:0:0:0:
256,192,42508,1,0,0:0:0:0:
256,192,42615,12,0,44437,0:0:0:0:
256,192,44651,5,0,0:0:0:0:
256,192,45294,1,8,0:0:0:0:
256,192,45937,1,0,0:0:0:0:
256,192,47222,1,8,0:0:0:0:
256,192,48080,1,0,0:0:0:0:
256,192,48722,1,8,0:0:0:0:
256,192,49365,1,8,0:0:0:0:
256,192,50008,1,0,0:0:0:0:
256,192,50651,1,0,0:0:0:0:
256,192,51508,12,0,54294,0:0:0:0:
256,192,54508,5,8,0:0:0:0:
256,192,54937,1,0,0:0:0:0:
256,192,55151,1,8,0:0:0:0:
256,192,55365,1,8,0:0:0:0:
256,192,55472,1,0,0:0:0:0:
256,192,55687,1,0,0:0:0:0:
256,192,55794,1,8,0:0:0:0:
256,192,56008,1,0,0:0:0:0:
256,192,56115,1,8,0:0:0:0:
256,192,56222,1,0,0:0:0:0:
256,192,56328,1,0,0:0:0:0:
256,192,56436,1,8,0:0:0:0:
256,192,56650,1,8,0:0:0:0:
256,192,56757,1,0,0:0:0:0:
256,192,56864,1,8,0:0:0:0:
256,192,56971,1,8,0:0:0:0:
256,192,57186,1,0,0:0:0:0:
256,192,57400,1,8,0:0:0:0:
256,192,57507,1,0,0:0:0:0:
256,192,57721,1,0,0:0:0:0:
256,192,57828,1,8,0:0:0:0:
256,192,57936,1,0,0:0:0:0:
256,192,58043,1,8,0:0:0:0:
256,192,58150,1,8,0:0:0:0:
256,192,58364,1,0,0:0:0:0:
256,192,58578,1,8,0:0:0:0:
256,192,58792,1,0,0:0:0:0:
256,192,58899,1,0,0:0:0:0:
256,192,59114,1,0,0:0:0:0:
256,192,59221,1,8,0:0:0:0:
256,192,59435,1,8,0:0:0:0:
256,192,59542,1,0,0:0:0:0:
256,192,59649,1,8,0:0:0:0:
256,192,59757,1,8,0:0:0:0:
256,192,59864,1,0,0:0:0:0:
256,192,60078,1,0,0:0:0:0:
256,192,60185,1,0,0:0:0:0:
256,192,60292,1,0,0:0:0:0:
256,192,60399,1,8,0:0:0:0:
256,192,60507,1,0,0:0:0:0:
256,192,60614,1,8,0:0:0:0:
256,192,60829,1,0,0:0:0:0:
256,192,60936,1,8,0:0:0:0:
256,192,61044,1,8,0:0:0:0:
256,192,61151,1,0,0:0:0:0:
256,192,61258,1,8,0:0:0:0:
256,192,61472,1,8,0:0:0:0:
256,192,61579,1,8,0:0:0:0:
256,192,61686,1,8,0:0:0:0:
256,192,61793,1,0,0:0:0:0:
256,192,62007,1,0,0:0:0:0:
256,192,62221,1,8,0:0:0:0:
256,192,62329,1,8,0:0:0:0:
256,192,62436,1,0,0:0:0:0:
256,192,62543,1,0,0:0:0:0:
256,192,62650,1,8,0:0:0:0:
256,192,62864,1,0,0:0:0:0:
256,192,62971,1,0,0:0:0:0:
256,192,63186,1,0,0:0:0:0:
256,192,63293,1,8,0:0:0:0:
256,192,63507,1,0,0:0:0:0:
256,192,63614,1,0,0:0:0:0:
256,192,63721,1,8,0:0:0:0:
256,192,63829,1,0,0:0:0:0:
256,192,63936,1,8,0:0:0:0:
256,192,64043,1,8,0:0:0:0:
256,192,64257,1,8,0:0:0:0:
256,192,64364,1,0,0:0:0:0:
256,192,64579,1,0,0:0:0:0:
256,192,64686,1,0,0:0:0:0:
256,192,64793,1,8,0:0:0:0:
256,192,65007,1,0,0:0:0:0:
256,192,65221,1,12,0:0:0:0:
256,192,65863,1,12,0:0:0:0:
256,192,66506,1,4,0:0:0:0:
256,192,67149,1,12,0:0:0:0:
256,192,67792,1,4,0:0:0:0:
256,192,68649,1,8,0:0:0:0:
256,192,68756,1,8,0:0:0:0:
256,192,68863,1,0,0:0:0:0:
256,192,68970,1,8,0:0:0:0:
256,192,69184,1,8,0:0:0:0:
256,192,69399,1,0,0:0:0:0:
256,192,69613,1,8,0:0:0:0:
256,192,69720,1,0,0:0:0:0:
256,192,69935,1,8,0:0:0:0:
256,192,70042,1,8,0:0:0:0:
256,192,70149,1,8,0:0:0:0:
256,192,70256,1,8,0:0:0:0:
256,192,70363,1,0,0:0:0:0:
256,192,70470,1,0,0:0:0:0:
256,192,70683,1,0,0:0:0:0:
256,192,70899,1,0,0:0:0:0:
256,192,71113,1,0,0:0:0:0:
256,192,71328,1,8,0:0:0:0:
256,192,71435,1,0,0:0:0:0:
256,192,71649,1,0,0:0:0:0:
256,192,71756,1,8,0:0:0:0:
256,192,71863,1,0,0:0:0:0:
256,192,71970,1,0,0:0:0:0:
256,192,72078,1,8,0:0:0:0:
256,192,72185,1,8,0:0:0:0:
256,192,72292,1,0,0:0:0:0:
256,192,72399,1,8,0:0:0:0:
256,192,72613,1,8,0:0:0:0:
256,192,72828,1,0,0:0:0:0:
256,192,73042,1,8,0:0:0:0:
256,192,73149,1,0,0:0:0:0:
256,192,73364,1,8,0:0:0:0:
256,192,73471,1,8,0:0:0:0:
256,192,73578,1,8,0:0:0:0:
256,192,73685,1,8,0:0:0:0:
256,192,73792,1,0,0:0:0:0:
256,192,73899,1,0,0:0:0:0:
256,192,74006,1,8,0:0:0:0:
256,192,74114,1,8,0:0:0:0:
256,192,74220,1,8,0:0:0:0:
256,192,74328,1,8,0:0:0:0:
256,192,74435,1,0,0:0:0:0:
256,192,74649,1,0,0:0:0:0:
256,192,74756,1,8,0:0:0:0:
256,192,74863,1,0,0:0:0:0:
256,192,74970,1,0,0:0:0:0:
256,192,75078,1,8,0:0:0:0:
256,192,75185,1,8,0:0:0:0:
256,192,75292,1,0,0:0:0:0:
256,192,75399,1,0,0:0:0:0:
256,192,75506,1,8,0:0:0:0:
256,192,75720,1,0,0:0:0:0:
256,192,75828,1,8,0:0:0:0:
256,192,75935,1,0,0:0:0:0:
256,192,76149,1,0,0:0:0:0:
256,192,76363,1,8,0:0:0:0:
256,192,76470,1,8,0:0:0:0:
256,192,76578,1,0,0:0:0:0:
256,192,76792,1,0,0:0:0:0:
256,192,77006,1,8,0:0:0:0:
256,192,77220,1,0,0:0:0:0:
256,192,77435,1,0,0:0:0:0:
256,192,77542,1,0,0:0:0:0:
256,192,77649,1,8,0:0:0:0:
256,192,77863,1,0,0:0:0:0:
256,192,78078,1,8,0:0:0:0:
256,192,78185,1,0,0:0:0:0:
256,192,78292,1,8,0:0:0:0:
256,192,78506,1,0,0:0:0:0:
256,192,78720,1,8,0:0:0:0:
256,192,78935,1,0,0:0:0:0:
256,192,79042,1,8,0:0:0:0:
256,192,79149,1,8,0:0:0:0:
256,192,79256,1,0,0:0:0:0:
256,192,79363,1,8,0:0:0:0:
256,192,79470,1,8,0:0:0:0:
256,192,79578,1,8,0:0:0:0:
256,192,79685,1,0,0:0:0:0:
256,192,79792,1,0,0:0:0:0:
256,192,79899,1,8,0:0:0:0:
256,192,80006,1,8,0:0:0:0:
256,192,80113,1,0,0:0:0:0:
256,192,80220,1,8,0:0:0:0:
256,192,80328,1,8,0:0:0:0:
256,192,80435,1,0,0:0:0:0:
256,192,80542,1,8,0:0:0:0:
256,192,80649,1,0,0:0:0:0:
256,192,80863,1,0,0:0:0:0:
256,192,81077,1,8,0:0:0:0:
256,192,81130,1,8,0:0:0:0:
256,192,81184,1,8,0:0:0:0:
256,192,81291,1,8,0:0:0:0:
256,192,81344,1,8,0:0:0:0:
256,192,81398,1,0,0:0:0:0:
256,192,82363,1,4,0:0:0:0:
256,192,82792,1,4,0:0:0:0:
256,192,83220,1,8,0:0:0:0:
256,192,83328,1,0,0:0:0:0:
256,192,83435,1,8,0:0:0:0:
256,192,83542,1,8,0:0:0:0:
256,192,83649,1,0,0:0:0:0:
256,192,83756,1,8,0:0:0:0:
256,192,83863,1,0,0:0:0:0:
256,192,83970,1,0,0:0:0:0:
256,192,84078,1,8,0:0:0:0:
256,192,84185,1,0,0:0:0:0:
256,192,84292,1,8,0:0:0:0:
256,192,84399,1,8,0:0:0:0:
256,192,84506,1,0,0:0:0:0:
256,192,84613,1,8,0:0:0:0:
256,192,84720,1,0,0:0:0:0:
256,192,84828,1,0,0:0:0:0:
256,192,84935,1,8,0:0:0:0:
256,192,85042,1,0,0:0:0:0:
256,192,85149,1,8,0:0:0:0:
256,192,85256,1,8,0:0:0:0:
256,192,85363,1,0,0:0:0:0:
256,192,85470,1,8,0:0:0:0:
256,192,85578,1,0,0:0:0:0:
256,192,85685,1,0,0:0:0:0:
256,192,85792,1,8,0:0:0:0:
256,192,86113,1,0,0:0:0:0:
256,192,86220,1,8,0:0:0:0:
256,192,86328,1,0,0:0:0:0:
256,192,86435,1,0,0:0:0:0:
256,192,86542,1,8,0:0:0:0:
256,192,86649,1,8,0:0:0:0:
256,192,86756,1,0,0:0:0:0:
256,192,86863,1,0,0:0:0:0:
256,192,86970,1,8,0:0:0:0:
256,192,87078,1,8,0:0:0:0:
256,192,87185,1,0,0:0:0:0:
256,192,87292,1,0,0:0:0:0:
256,192,87399,1,8,0:0:0:0:
256,192,87506,1,8,0:0:0:0:
256,192,87613,1,0,0:0:0:0:
256,192,87720,1,0,0:0:0:0:
256,192,87828,1,8,0:0:0:0:
256,192,87935,1,0,0:0:0:0:
256,192,88042,1,0,0:0:0:0:
256,192,88149,1,0,0:0:0:0:
256,192,88256,1,8,0:0:0:0:
256,192,88363,1,0,0:0:0:0:
256,192,88470,1,8,0:0:0:0:
256,192,88578,1,8,0:0:0:0:
256,192,88685,1,0,0:0:0:0:
256,192,88792,1,0,0:0:0:0:
256,192,88899,1,8,0:0:0:0:
256,192,89006,1,8,0:0:0:0:
256,192,89113,1,0,0:0:0:0:
256,192,89220,1,8,0:0:0:0:
256,192,89435,1,0,0:0:0:0:
256,192,89542,1,8,0:0:0:0:
256,192,89649,1,8,0:0:0:0:
256,192,89863,1,0,0:0:0:0:
256,192,90078,1,0,0:0:0:0:
256,192,90185,1,8,0:0:0:0:
256,192,90292,1,0,0:0:0:0:
256,192,90399,1,0,0:0:0:0:
256,192,90506,1,8,0:0:0:0:
256,192,90613,1,8,0:0:0:0:
256,192,90720,1,0,0:0:0:0:
256,192,90828,1,0,0:0:0:0:
256,192,90935,1,8,0:0:0:0:
256,192,91042,1,8,0:0:0:0:
256,192,91149,1,0,0:0:0:0:
256,192,91256,1,0,0:0:0:0:
256,192,91363,1,8,0:0:0:0:
256,192,91470,1,8,0:0:0:0:
256,192,91578,1,0,0:0:0:0:
256,192,91685,1,0,0:0:0:0:
256,192,91792,1,8,0:0:0:0:
256,192,91899,1,8,0:0:0:0:
256,192,92006,1,0,0:0:0:0:
256,192,92113,1,0,0:0:0:0:
256,192,92220,1,8,0:0:0:0:
256,192,92328,1,8,0:0:0:0:
256,192,92435,1,0,0:0:0:0:
256,192,92542,1,0,0:0:0:0:
256,192,92649,1,8,0:0:0:0:
256,192,92756,1,8,0:0:0:0:
256,192,92863,1,8,0:0:0:0:
256,192,92970,1,8,0:0:0:0:
256,192,93078,1,0,0:0:0:0:
256,192,93185,1,0,0:0:0:0:
256,192,93292,1,0,0:0:0:0:
256,192,93399,1,0,0:0:0:0:
256,192,93506,1,8,0:0:0:0:
256,192,93613,1,8,0:0:0:0:
256,192,93720,1,8,0:0:0:0:
256,192,93828,1,8,0:0:0:0:
256,192,93935,1,8,0:0:0:0:
256,192,94042,1,8,0:0:0:0:
256,192,94149,1,0,0:0:0:0:
256,192,94256,1,0,0:0:0:0:
256,192,94363,1,8,0:0:0:0:
256,192,94470,1,0,0:0:0:0:
256,192,94578,1,8,0:0:0:0:
256,192,94685,1,8,0:0:0:0:
256,192,94792,1,0,0:0:0:0:
256,192,94899,1,0,0:0:0:0:
256,192,95006,1,0,0:0:0:0:
256,192,95113,1,0,0:0:0:0:
256,192,95219,1,8,0:0:0:0:
256,192,95273,1,8,0:0:0:0:
256,192,95327,1,8,0:0:0:0:
256,192,95434,1,8,0:0:0:0:
256,192,95488,1,8,0:0:0:0:
256,192,95541,1,0,0:0:0:0:
256,192,96077,1,4,0:0:0:0:
256,192,96506,1,8,0:0:0:0:
256,192,96719,1,0,0:0:0:0:
256,192,96827,1,0,0:0:0:0:
256,192,96934,1,8,0:0:0:0:
256,192,97148,1,8,0:0:0:0:
256,192,97255,1,0,0:0:0:0:
256,192,97362,1,8,0:0:0:0:
256,192,97469,1,8,0:0:0:0:
256,192,97577,1,0,0:0:0:0:
256,192,97791,1,8,0:0:0:0:
256,192,98005,1,0,0:0:0:0:
256,192,98112,1,0,0:0:0:0:
256,192,98219,1,8,0:0:0:0:
256,192,98327,1,0,0:0:0:0:
256,192,98434,1,8,0:0:0:0:
256,192,98648,1,0,0:0:0:0:
256,192,98862,1,0,0:0:0:0:
256,192,98969,1,8,0:0:0:0:
256,192,99077,1,0,0:0:0:0:
256,192,99184,1,0,0:0:0:0:
256,192,99291,1,8,0:0:0:0:
256,192,99506,1,8,0:0:0:0:
256,192,99612,1,8,0:0:0:0:
256,192,99719,1,8,0:0:0:0:
256,192,99934,1,0,0:0:0:0:
256,192,100041,1,0,0:0:0:0:
256,192,100148,1,0,0:0:0:0:
256,192,100255,1,0,0:0:0:0:
256,192,100363,1,8,0:0:0:0:
256,192,100577,1,8,0:0:0:0:
256,192,100684,1,8,0:0:0:0:
256,192,100791,1,0,0:0:0:0:
256,192,100898,1,8,0:0:0:0:
256,192,101006,1,0,0:0:0:0:
256,192,101220,1,8,0:0:0:0:
256,192,101434,1,0,0:0:0:0:
256,192,101541,1,0,0:0:0:0:
256,192,101648,1,8,0:0:0:0:
256,192,101756,1,8,0:0:0:0:
256,192,101863,1,0,0:0:0:0:
256,192,102077,1,8,0:0:0:0:
256,192,102291,1,0,0:0:0:0:
256,192,102398,1,8,0:0:0:0:
256,192,102506,1,0,0:0:0:0:
256,192,102613,1,0,0:0:0:0:
256,192,102720,1,8,0:0:0:0:
256,192,102934,1,12,0:0:0:0:
256,192,103362,1,12,0:0:0:0:
256,192,103791,1,12,0:0:0:0:
256,192,104005,1,0,0:0:0:0:
256,192,104113,1,0,0:0:0:0:
256,192,104220,1,0,0:0:0:0:
256,192,104327,1,8,0:0:0:0:
256,192,104434,1,0,0:0:0:0:
256,192,104541,1,0,0:0:0:0:
256,192,104648,1,8,0:0:0:0:
256,192,104863,1,8,0:0:0:0:
256,192,104969,1,8,0:0:0:0:
256,192,105077,1,0,0:0:0:0:
256,192,105184,1,0,0:0:0:0:
256,192,105291,1,8,0:0:0:0:
256,192,105505,1,8,0:0:0:0:
256,192,105720,1,0,0:0:0:0:
256,192,105827,1,0,0:0:0:0:
256,192,105934,1,0,0:0:0:0:
256,192,106041,1,8,0:0:0:0:
256,192,106148,1,8,0:0:0:0:
256,192,106362,1,4,0:0:0:0:
256,192,106790,1,8,0:0:0:0:
256,192,106896,1,0,0:0:0:0:
256,192,107003,1,0,0:0:0:0:
256,192,107110,1,0,0:0:0:0:
256,192,107217,1,8,0:0:0:0:
256,192,107325,1,0,0:0:0:0:
256,192,107432,1,8,0:0:0:0:
256,192,107539,1,8,0:0:0:0:
256,192,107646,1,0,0:0:0:0:
256,192,107860,1,0,0:0:0:0:
256,192,107967,1,0,0:0:0:0:
256,192,108075,1,8,0:0:0:0:
256,192,108289,1,0,0:0:0:0:
256,192,108396,1,8,0:0:0:0:
256,192,108503,1,0,0:0:0:0:
256,192,108610,1,0,0:0:0:0:
256,192,108717,1,8,0:0:0:0:
256,192,108932,1,8,0:0:0:0:
256,192,109146,1,8,0:0:0:0:
256,192,109253,1,8,0:0:0:0:
256,192,109360,1,0,0:0:0:0:
256,192,109467,1,0,0:0:0:0:
256,192,109575,1,8,0:0:0:0:
256,192,109790,12,0,110218,0:0:0:0:
256,192,110647,5,8,0:0:0:0:
256,192,110754,1,8,0:0:0:0:
256,192,110861,1,0,0:0:0:0:
256,192,110968,1,8,0:0:0:0:
256,192,111076,1,0,0:0:0:0:
256,192,111183,1,0,0:0:0:0:
256,192,111290,1,0,0:0:0:0:
256,192,111397,1,0,0:0:0:0:
256,192,111504,1,8,0:0:0:0:
256,192,111611,1,8,0:0:0:0:
256,192,111718,1,0,0:0:0:0:
256,192,111826,1,0,0:0:0:0:
256,192,111933,1,0,0:0:0:0:
256,192,112040,1,8,0:0:0:0:
256,192,112147,1,8,0:0:0:0:
256,192,112254,1,0,0:0:0:0:
256,192,112361,1,8,0:0:0:0:
256,192,112468,1,0,0:0:0:0:
256,192,112576,1,0,0:0:0:0:
256,192,112683,1,0,0:0:0:0:
256,192,112790,1,8,0:0:0:0:
256,192,112897,1,8,0:0:0:0:
256,192,113004,1,8,0:0:0:0:
256,192,113111,1,0,0:0:0:0:
256,192,113647,1,0,0:0:0:0:
256,192,113754,1,8,0:0:0:0:
256,192,113861,1,0,0:0:0:0:
256,192,113968,1,0,0:0:0:0:
256,192,114076,1,8,0:0:0:0:
256,192,114183,1,0,0:0:0:0:
256,192,114290,1,0,0:0:0:0:
256,192,114397,1,0,0:0:0:0:
256,192,114504,1,0,0:0:0:0:
256,192,114611,1,0,0:0:0:0:
256,192,114718,1,8,0:0:0:0:
256,192,114826,1,0,0:0:0:0:
256,192,114933,1,8,0:0:0:0:
256,192,115040,1,8,0:0:0:0:
256,192,115147,1,0,0:0:0:0:
256,192,115254,1,0,0:0:0:0:
256,192,115361,1,0,0:0:0:0:
256,192,115468,1,0,0:0:0:0:
256,192,115576,1,8,0:0:0:0:
256,192,115683,1,0,0:0:0:0:
256,192,115790,1,8,0:0:0:0:
256,192,115897,1,0,0:0:0:0:
256,192,116004,1,0,0:0:0:0:
256,192,116111,1,8,0:0:0:0:
256,192,116218,1,0,0:0:0:0:
256,192,116326,1,0,0:0:0:0:
256,192,116433,1,8,0:0:0:0:
256,192,116647,1,0,0:0:0:0:
256,192,116861,1,8,0:0:0:0:
256,192,117076,1,0,0:0:0:0:
256,192,117504,1,8,0:0:0:0:
256,192,117611,1,0,0:0:0:0:
256,192,117718,1,0,0:0:0:0:
256,192,117826,1,0,0:0:0:0:
256,192,117933,1,8,0:0:0:0:
256,192,118040,1,8,0:0:0:0:
256,192,118147,1,0,0:0:0:0:
256,192,118254,1,0,0:0:0:0:
256,192,118361,1,8,0:0:0:0:
256,192,118468,1,8,0:0:0:0:
256,192,118576,1,0,0:0:0:0:
256,192,118683,1,0,0:0:0:0:
256,192,118790,1,0,0:0:0:0:
256,192,118897,1,0,0:0:0:0:
256,192,119004,1,8,0:0:0:0:
256,192,119111,1,0,0:0:0:0:
256,192,119218,1,8,0:0:0:0:
256,192,119326,1,0,0:0:0:0:
256,192,119433,1,0,0:0:0:0:
256,192,119540,1,8,0:0:0:0:
256,192,119647,1,8,0:0:0:0:
256,192,119754,1,0,0:0:0:0:
256,192,119861,1,8,0:0:0:0:
256,192,119968,1,0,0:0:0:0:
256,192,120076,12,0,122433,0:0:0:0:
256,192,122646,5,4,0:0:0:0:
256,192,123080,1,8,0:0:0:0:
256,192,123508,1,0,0:0:0:0:
256,192,123722,1,8,0:0:0:0:
256,192,123936,1,8,0:0:0:0:
256,192,124043,1,0,0:0:0:0:
256,192,124258,1,0,0:0:0:0:
256,192,124365,1,8,0:0:0:0:
256,192,124579,1,0,0:0:0:0:
256,192,124686,1,8,0:0:0:0:
256,192,124793,1,0,0:0:0:0:
256,192,124901,1,0,0:0:0:0:
256,192,125008,1,8,0:0:0:0:
256,192,125222,1,8,0:0:0:0:
256,192,125329,1,0,0:0:0:0:
256,192,125436,1,8,0:0:0:0:
256,192,125543,1,8,0:0:0:0:
256,192,125758,1,0,0:0:0:0:
256,192,125972,1,8,0:0:0:0:
256,192,126079,1,0,0:0:0:0:
256,192,126293,1,0,0:0:0:0:
256,192,126401,1,8,0:0:0:0:
256,192,126508,1,0,0:0:0:0:
256,192,126615,1,8,0:0:0:0:
256,192,126722,1,8,0:0:0:0:
256,192,126936,1,0,0:0:0:0:
256,192,127150,1,8,0:0:0:0:
256,192,127364,1,0,0:0:0:0:
256,192,127471,1,0,0:0:0:0:
256,192,127686,1,0,0:0:0:0:
256,192,127793,1,8,0:0:0:0:
256,192,128007,1,8,0:0:0:0:
256,192,128114,1,0,0:0:0:0:
256,192,128221,1,8,0:0:0:0:
256,192,128329,1,8,0:0:0:0:
256,192,128436,1,0,0:0:0:0:
256,192,128650,1,0,0:0:0:0:
256,192,128757,1,0,0:0:0:0:
256,192,128864,1,0,0:0:0:0:
256,192,128971,1,8,0:0:0:0:
256,192,129079,1,0,0:0:0:0:
256,192,129186,1,8,0:0:0:0:
256,192,129401,1,0,0:0:0:0:
256,192,129508,1,8,0:0:0:0:
256,192,129616,1,8,0:0:0:0:
256,192,129723,1,0,0:0:0:0:
256,192,129830,1,8,0:0:0:0:
256,192,130044,1,8,0:0:0:0:
256,192,130151,1,8,0:0:0:0:
256,192,130258,1,8,0:0:0:0:
256,192,130365,1,0,0:0:0:0:
256,192,130579,1,0,0:0:0:0:
256,192,130793,1,8,0:0:0:0:
256,192,130901,1,8,0:0:0:0:
256,192,131008,1,0,0:0:0:0:
256,192,131115,1,0,0:0:0:0:
256,192,131222,1,8,0:0:0:0:
256,192,131436,1,0,0:0:0:0:
256,192,131543,1,0,0:0:0:0:
256,192,131758,1,0,0:0:0:0:
256,192,131865,1,8,0:0:0:0:
256,192,132079,1,0,0:0:0:0:
256,192,132186,1,0,0:0:0:0:
256,192,132293,1,8,0:0:0:0:
256,192,132401,1,0,0:0:0:0:
256,192,132508,1,8,0:0:0:0:
256,192,132615,1,8,0:0:0:0:
256,192,132829,1,8,0:0:0:0:
256,192,132936,1,0,0:0:0:0:
256,192,133151,1,0,0:0:0:0:
256,192,133258,1,0,0:0:0:0:
256,192,133365,1,8,0:0:0:0:
256,192,133579,1,0,0:0:0:0:
256,192,133793,1,12,0:0:0:0:
