osu file format v14

[General]
AudioFilename: audio.mp3
AudioLeadIn: 0
PreviewTime: 54508
Countdown: 1
SampleSet: None
StackLeniency: 0.7
Mode: 1
LetterboxInBreaks: 0
WidescreenStoryboard: 1

[Editor]
DistanceSpacing: 0.8
BeatDivisor: 4
GridSize: 32
TimelineZoom: 2.3

[Metadata]
Title:NRG (Masayoshi Iimori Remix)
TitleUnicode:NRG (Masayoshi Iimori Remix)
Artist:KAN TAKAHIKO
ArtistUnicode:KAN TAKAHIKO
Creator:Eiuh
Version:NRG [No SV]
Source:
Tags:
BeatmapID:1322022
BeatmapSetID:627359

[Difficulty]
HPDrainRate:7
CircleSize:5
OverallDifficulty:5.5
ApproachRate:10
SliderMultiplier:1.40000000596046
SliderTickRate:1

[Events]
//Background and Video events
0,0,"10.jpg",0,0
//Break Periods
//Storyboard Layer 0 (Background)
//Storyboard Layer 1 (Fail)
//Storyboard Layer 2 (Pass)
//Storyboard Layer 3 (Foreground)
//Storyboard Sound Samples

[TimingPoints]
80,428.571428571429,4,1,0,100,1,0

[HitObjects]
256,192,80,5,0,0:0:0:0:
256,192,294,1,0,0:0:0:0:
256,192,615,1,0,0:0:0:0:
256,192,937,1,8,0:0:0:0:
256,192,1151,1,0,0:0:0:0:
256,192,1258,1,0,0:0:0:0:
256,192,1472,1,0,0:0:0:0:
256,192,1580,1,8,0:0:0:0:
256,192,1794,1,0,0:0:0:0:
256,192,2008,1,0,0:0:0:0:
256,192,2330,1,0,0:0:0:0:
256,192,2651,1,8,0:0:0:0:
256,192,2758,1,0,0:0:0:0:
256,192,2972,1,0,0:0:0:0:
256,192,3187,1,0,0:0:0:0:
256,192,3294,1,0,0:0:0:0:
256,192,3401,1,8,0:0:0:0:
256,192,3508,1,0,0:0:0:0:
256,192,3722,1,0,0:0:0:0:
256,192,4044,1,0,0:0:0:0:
256,192,4365,1,8,0:0:0:0:
256,192,4472,1,0,0:0:0:0:
256,192,4686,1,0,0:0:0:0:
256,192,4901,1,0,0:0:0:0:
256,192,5008,1,0,0:0:0:0:
256,192,5115,1,0,0:0:0:0:
256,192,5222,1,8,0:0:0:0:
256,192,5436,1,0,0:0:0:0:
256,192,5543,1,8,0:0:0:0:
256,192,5758,1,0,0:0:0:0:
256,192,6079,1,8,0:0:0:0:
256,192,6186,1,0,0:0:0:0:
256,192,6400,1,0,0:0:0:0:
256,192,6615,1,0,0:0:0:0:
256,192,6722,1,0,0:0:0:0:
256,192,6829,1,8,0:0:0:0:
256,192,6936,1,0,0:0:0:0:
256,192,7150,1,0,0:0:0:0:
256,192,7257,1,8,0:0:0:0:
256,192,7472,1,0,0:0:0:0:
256,192,7793,1,8,0:0:0:0:
256,192,7900,1,0,0:0:0:0:
256,192,8114,1,0,0:0:0:0:
256,192,8330,1,0,0:0:0:0:
256,192,8437,1,0,0:0:0:0:
256,192,8544,1,0,0:0:0:0:
256,192,8651,1,8,0:0:0:0:
256,192,8865,1,0,0:0:0:0:
256,192,8972,1,8,0:0:0:0:
256,192,9187,1,0,0:0:0:0:
256,192,9508,1,8,0:0:0:0:
256,192,9615,1,0,0:0:0:0:
256,192,9829,1,0,0:0:0:0:
256,192,10044,1,0,0:0:0:0:
256,192,10151,1,0,0:0:0:0:
256,192,10258,1,8,0:0:0:0:
256,192,10365,1,0,0:0:0:0:
256,192,10579,1,0,0:0:0:0:
256,192,10686,1,8,0:0:0:0:
256,192,10901,1,0,0:0:0:0:
256,192,11222,1,8,0:0:0:0:
256,192,11329,1,0,0:0:0:0:
256,192,11543,1,0,0:0:0:0:
256,192,11758,1,0,0:0:0:0:
256,192,11865,1,0,0:0:0:0:
256,192,11972,1,0,0:0:0:0:
256,192,12080,1,8,0:0:0:0:
256,192,12294,1,0,0:0:0:0:
256,192,12401,1,8,0:0:0:0:
256,192,12615,1,8,0:0:0:0:
256,192,12722,1,8,0:0:0:0:
256,192,12829,1,0,0:0:0:0:
256,192,12936,1,8,0:0:0:0:
256,192,13044,1,0,0:0:0:0:
256,192,13151,1,0,0:0:0:0:
256,192,13258,1,0,0:0:0:0:
256,192,13365,1,0,0:0:0:0:
256,192,13472,1,8,0:0:0:0:
256,192,13580,1,0,0:0:0:0:
256,192,13687,1,0,0:0:0:0:
256,192,13794,1,8,0:0:0:0:
256,192,14008,1,0,0:0:0:0:
256,192,14115,1,0,0:0:0:0:
256,192,14222,1,8,0:0:0:0:
256,192,14330,1,0,0:0:0:0:
256,192,14437,1,0,0:0:0:0:
256,192,14544,1,0,0:0:0:0:
256,192,14651,1,8,0:0:0:0:
256,192,14865,1,0,0:0:0:0:
256,192,14972,1,8,0:0:0:0:
256,192,15187,1,0,0:0:0:0:
256,192,15294,1,8,0:0:0:0:
256,192,15401,1,0,0:0:0:0:
256,192,15508,1,0,0:0:0:0:
256,192,15722,1,0,0:0:0:0:
256,192,15830,1,8,0:0:0:0:
256,192,15937,1,8,0:0:0:0:
256,192,16044,1,8,0:0:0:0:
256,192,16151,1,0,0:0:0:0:
256,192,16365,1,8,0:0:0:0:
256,192,16472,1,0,0:0:0:0:
256,192,16580,1,0,0:0:0:0:
256,192,16687,1,8,0:0:0:0:
256,192,16794,1,0,0:0:0:0:
256,192,16901,1,0,0:0:0:0:
256,192,17008,1,0,0:0:0:0:
256,192,17222,1,0,0:0:0:0:
256,192,17330,1,0,0:0:0:0:
256,192,17437,1,8,0:0:0:0:
256,192,17544,1,0,0:0:0:0:
256,192,17758,1,8,0:0:0:0:
256,192,17865,1,0,0:0:0:0:
256,192,18080,1,8,0:0:0:0:
256,192,18187,1,0,0:0:0:0:
256,192,18294,1,0,0:0:0:0:
256,192,18401,1,8,0:0:0:0:
256,192,18508,1,0,0:0:0:0:
256,192,18615,1,8,0:0:0:0:
256,192,18722,1,0,0:0:0:0:
256,192,18937,1,8,0:0:0:0:
256,192,19044,1,8,0:0:0:0:
256,192,19151,1,0,0:0:0:0:
256,192,19258,1,8,0:0:0:0:
256,192,19472,1,0,0:0:0:0:
256,192,19580,1,8,0:0:0:0:
256,192,19794,1,8,0:0:0:0:
256,192,19901,1,0,0:0:0:0:
256,192,20008,1,0,0:0:0:0:
256,192,20115,1,0,0:0:0:0:
256,192,20222,1,0,0:0:0:0:
256,192,20330,1,8,0:0:0:0:
256,192,20437,1,8,0:0:0:0:
256,192,20544,1,0,0:0:0:0:
256,192,20651,1,8,0:0:0:0:
256,192,20758,1,0,0:0:0:0:
256,192,20865,1,8,0:0:0:0:
256,192,21080,1,8,0:0:0:0:
256,192,21294,1,0,0:0:0:0:
256,192,21508,1,8,0:0:0:0:
256,192,21722,1,0,0:0:0:0:
256,192,21937,1,0,0:0:0:0:
256,192,22151,1,0,0:0:0:0:
256,192,22365,1,8,0:0:0:0:
256,192,22472,1,0,0:0:0:0:
256,192,22580,1,8,0:0:0:0:
256,192,22794,1,8,0:0:0:0:
256,192,22901,1,8,0:0:0:0:
256,192,23008,1,0,0:0:0:0:
256,192,23222,1,8,0:0:0:0:
256,192,23437,1,0,0:0:0:0:
256,192,23651,1,0,0:0:0:0:
256,192,23865,1,0,0:0:0:0:
256,192,24080,1,8,0:0:0:0:
256,192,24187,1,8,0:0:0:0:
256,192,24294,1,8,0:0:0:0:
256,192,24401,1,8,0:0:0:0:
256,192,24508,1,0,0:0:0:0:
256,192,24722,1,0,0:0:0:0:
256,192,24937,1,8,0:0:0:0:
256,192,25151,1,0,0:0:0:0:
256,192,25258,1,0,0:0:0:0:
256,192,25365,1,0,0:0:0:0:
256,192,25580,1,0,0:0:0:0:
256,192,25794,1,8,0:0:0:0:
256,192,25901,1,8,0:0:0:0:
256,192,26008,1,8,0:0:0:0:
256,192,26115,1,8,0:0:0:0:
256,192,26222,1,0,0:0:0:0:
256,192,26330,1,0,0:0:0:0:
256,192,26437,1,0,0:0:0:0:
256,192,26544,1,0,0:0:0:0:
256,192,26651,1,8,0:0:0:0:
256,192,26705,1,8,0:0:0:0:
256,192,26758,1,8,0:0:0:0:
256,192,26865,1,8,0:0:0:0:
256,192,26919,1,8,0:0:0:0:
256,192,26972,1,0,0:0:0:0:
256,192,27508,1,0,0:0:0:0:
256,192,28151,1,8,0:0:0:0:
256,192,28794,1,0,0:0:0:0:
256,192,30080,1,0,0:0:0:0:
256,192,30937,1,8,0:0:0:0:
256,192,31580,1,8,0:0:0:0:
256,192,32222,1,0,0:0:0:0:
256,192,33508,1,8,0:0:0:0:
256,192,34365,1,0,0:0:0:0:
256,192,35008,1,8,0:0:0:0:
256,192,35651,1,0,0:0:0:0:
256,192,36937,1,8,0:0:0:0:
256,192,37794,1,8,0:0:0:0:
256,192,38437,1,0,0:0:0:0:
256,192,39080,1,0,0:0:0:0:
256,192,39937,1,8,0:0:0:0:
256,192,40580,1,0,0:0:0:0:
256,192,41222,1,8,0:0:0:0:
256,192,41865,1,8,0:0:0:0:
256,192,42508,1,0,0:0:0:0:
256,192,42615,12,0,44437,0:0:0:0:
256,192,44651,5,0,0:0:0:0:
256,192,45294,1,8,0:0:0:0:
256,192,45937,1,0,0:0:0:0:
256,192,47222,1,8,0:0:0:0:
256,192,48080,1,0,0:0:0:0:
256,192,48722,1,8,0:0:0:0:
256,192,49365,1,8,0:0:0:0:
256,192,50008,1,0,0:0:0:0:
256,192,50651,1,0,0:0:0:0:
256,192,51508,12,0,54294,0:0:0:0:
256,192,54508,5,8,0:0:0:0:
256,192,54937,1,0,0:0:0:0:
256,192,55151,1,8,0:0:0:0:
256,192,55365,1,8,0:0:0:0:
256,192,55472,1,0,0:0:0:0:
256,192,55687,1,0,0:0:0:0:
256,192,55794,1,8,0:0:0:0:
256,192,56008,1,0,0:0:0:0:
256,192,56115,1,8,0:0:0:0:
256,192,56222,1,0,0:0:0:0:
256,192,56329,1,0,0:0:0:0:
256,192,56437,1,8,0:0:0:0:
256,192,56651,1,8,0:0:0:0:
256,192,56758,1,0,0:0:0:0:
256,192,56865,1,8,0:0:0:0:
256,192,56972,1,8,0:0:0:0:
256,192,57187,1,0,0:0:0:0:
256,192,57401,1,8,0:0:0:0:
256,192,57508,1,0,0:0:0:0:
256,192,57722,1,0,0:0:0:0:
256,192,57829,1,8,0:0:0:0:
256,192,57937,1,0,0:0:0:0:
256,192,58044,1,8,0:0:0:0:
256,192,58151,1,8,0:0:0:0:
256,192,58365,1,0,0:0:0:0:
256,192,58579,1,8,0:0:0:0:
256,192,58793,1,0,0:0:0:0:
256,192,58900,1,0,0:0:0:0:
256,192,59115,1,0,0:0:0:0:
256,192,59222,1,8,0:0:0:0:
256,192,59436,1,8,0:0:0:0:
256,192,59543,1,0,0:0:0:0:
256,192,59650,1,8,0:0:0:0:
256,192,59758,1,8,0:0:0:0:
256,192,59865,1,0,0:0:0:0:
256,192,60079,1,0,0:0:0:0:
256,192,60186,1,0,0:0:0:0:
256,192,60293,1,0,0:0:0:0:
256,192,60400,1,8,0:0:0:0:
256,192,60508,1,0,0:0:0:0:
256,192,60615,1,8,0:0:0:0:
256,192,60830,1,0,0:0:0:0:
256,192,60937,1,8,0:0:0:0:
256,192,61045,1,8,0:0:0:0:
256,192,61152,1,0,0:0:0:0:
256,192,61259,1,8,0:0:0:0:
256,192,61473,1,8,0:0:0:0:
256,192,61580,1,8,0:0:0:0:
256,192,61687,1,8,0:0:0:0:
256,192,61794,1,0,0:0:0:0:
256,192,62008,1,0,0:0:0:0:
256,192,62222,1,8,0:0:0:0:
256,192,62330,1,8,0:0:0:0:
256,192,62437,1,0,0:0:0:0:
256,192,62544,1,0,0:0:0:0:
256,192,62651,1,8,0:0:0:0:
256,192,62865,1,0,0:0:0:0:
256,192,62972,1,0,0:0:0:0:
256,192,63187,1,0,0:0:0:0:
256,192,63294,1,8,0:0:0:0:
256,192,63508,1,0,0:0:0:0:
256,192,63615,1,0,0:0:0:0:
256,192,63722,1,8,0:0:0:0:
256,192,63830,1,0,0:0:0:0:
256,192,63937,1,8,0:0:0:0:
256,192,64044,1,8,0:0:0:0:
256,192,64258,1,8,0:0:0:0:
256,192,64365,1,0,0:0:0:0:
256,192,64580,1,0,0:0:0:0:
256,192,64687,1,0,0:0:0:0:
256,192,64794,1,8,0:0:0:0:
256,192,65008,1,0,0:0:0:0:
256,192,65222,1,12,0:0:0:0:
256,192,65865,1,12,0:0:0:0:
256,192,66508,1,4,0:0:0:0:
256,192,67151,1,12,0:0:0:0:
256,192,67794,1,4,0:0:0:0:
256,192,68651,1,8,0:0:0:0:
256,192,68758,1,8,0:0:0:0:
256,192,68865,1,0,0:0:0:0:
256,192,68972,1,8,0:0:0:0:
256,192,69186,1,8,0:0:0:0:
256,192,69401,1,0,0:0:0:0:
256,192,69615,1,8,0:0:0:0:
256,192,69722,1,0,0:0:0:0:
256,192,69937,1,8,0:0:0:0:
256,192,70044,1,8,0:0:0:0:
256,192,70151,1,8,0:0:0:0:
256,192,70258,1,8,0:0:0:0:
256,192,70365,1,0,0:0:0:0:
256,192,70472,1,0,0:0:0:0:
256,192,70687,1,0,0:0:0:0:
256,192,70901,1,0,0:0:0:0:
256,192,71115,1,0,0:0:0:0:
256,192,71330,1,8,0:0:0:0:
256,192,71437,1,0,0:0:0:0:
256,192,71651,1,0,0:0:0:0:
256,192,71758,1,8,0:0:0:0:
256,192,71865,1,0,0:0:0:0:
256,192,71972,1,0,0:0:0:0:
256,192,72080,1,8,0:0:0:0:
256,192,72187,1,8,0:0:0:0:
256,192,72294,1,0,0:0:0:0:
256,192,72401,1,8,0:0:0:0:
256,192,72615,1,8,0:0:0:0:
256,192,72830,1,0,0:0:0:0:
256,192,73044,1,8,0:0:0:0:
256,192,73151,1,0,0:0:0:0:
256,192,73366,1,8,0:0:0:0:
256,192,73473,1,8,0:0:0:0:
256,192,73580,1,8,0:0:0:0:
256,192,73687,1,8,0:0:0:0:
256,192,73794,1,0,0:0:0:0:
256,192,73901,1,0,0:0:0:0:
256,192,74008,1,8,0:0:0:0:
256,192,74116,1,8,0:0:0:0:
256,192,74222,1,8,0:0:0:0:
256,192,74330,1,8,0:0:0:0:
256,192,74437,1,0,0:0:0:0:
256,192,74651,1,0,0:0:0:0:
256,192,74758,1,8,0:0:0:0:
256,192,74865,1,0,0:0:0:0:
256,192,74972,1,0,0:0:0:0:
256,192,75080,1,8,0:0:0:0:
256,192,75187,1,8,0:0:0:0:
256,192,75294,1,0,0:0:0:0:
256,192,75401,1,0,0:0:0:0:
256,192,75508,1,8,0:0:0:0:
256,192,75722,1,0,0:0:0:0:
256,192,75830,1,8,0:0:0:0:
256,192,75937,1,0,0:0:0:0:
256,192,76151,1,0,0:0:0:0:
256,192,76365,1,8,0:0:0:0:
256,192,76472,1,8,0:0:0:0:
256,192,76580,1,0,0:0:0:0:
256,192,76794,1,0,0:0:0:0:
256,192,77008,1,8,0:0:0:0:
256,192,77222,1,0,0:0:0:0:
256,192,77437,1,0,0:0:0:0:
256,192,77544,1,0,0:0:0:0:
256,192,77651,1,8,0:0:0:0:
256,192,77865,1,0,0:0:0:0:
256,192,78080,1,8,0:0:0:0:
256,192,78187,1,0,0:0:0:0:
256,192,78294,1,8,0:0:0:0:
256,192,78508,1,0,0:0:0:0:
256,192,78722,1,8,0:0:0:0:
256,192,78937,1,0,0:0:0:0:
256,192,79044,1,8,0:0:0:0:
256,192,79151,1,8,0:0:0:0:
256,192,79258,1,0,0:0:0:0:
256,192,79365,1,8,0:0:0:0:
256,192,79472,1,8,0:0:0:0:
256,192,79580,1,8,0:0:0:0:
256,192,79687,1,0,0:0:0:0:
256,192,79794,1,0,0:0:0:0:
256,192,79901,1,8,0:0:0:0:
256,192,80008,1,8,0:0:0:0:
256,192,80115,1,0,0:0:0:0:
256,192,80222,1,8,0:0:0:0:
256,192,80330,1,8,0:0:0:0:
256,192,80437,1,0,0:0:0:0:
256,192,80544,1,8,0:0:0:0:
256,192,80651,1,0,0:0:0:0:
256,192,80865,1,0,0:0:0:0:
256,192,81080,1,8,0:0:0:0:
256,192,81133,1,8,0:0:0:0:
256,192,81187,1,8,0:0:0:0:
256,192,81294,1,8,0:0:0:0:
256,192,81347,1,8,0:0:0:0:
256,192,81401,1,0,0:0:0:0:
256,192,82365,1,4,0:0:0:0:
256,192,82794,1,4,0:0:0:0:
256,192,83222,1,8,0:0:0:0:
256,192,83330,1,0,0:0:0:0:
256,192,83437,1,8,0:0:0:0:
256,192,83544,1,8,0:0:0:0:
256,192,83651,1,0,0:0:0:0:
256,192,83758,1,8,0:0:0:0:
256,192,83865,1,0,0:0:0:0:
256,192,83972,1,0,0:0:0:0:
256,192,84080,1,8,0:0:0:0:
256,192,84187,1,0,0:0:0:0:
256,192,84294,1,8,0:0:0:0:
256,192,84401,1,8,0:0:0:0:
256,192,84508,1,0,0:0:0:0:
256,192,84615,1,8,0:0:0:0:
256,192,84722,1,0,0:0:0:0:
256,192,84830,1,0,0:0:0:0:
256,192,84937,1,8,0:0:0:0:
256,192,85044,1,0,0:0:0:0:
256,192,85151,1,8,0:0:0:0:
256,192,85258,1,8,0:0:0:0:
256,192,85365,1,0,0:0:0:0:
256,192,85472,1,8,0:0:0:0:
256,192,85580,1,0,0:0:0:0:
256,192,85687,1,0,0:0:0:0:
256,192,85794,1,8,0:0:0:0:
256,192,86115,1,0,0:0:0:0:
256,192,86222,1,8,0:0:0:0:
256,192,86330,1,0,0:0:0:0:
256,192,86437,1,0,0:0:0:0:
256,192,86544,1,8,0:0:0:0:
256,192,86651,1,8,0:0:0:0:
256,192,86758,1,0,0:0:0:0:
256,192,86865,1,0,0:0:0:0:
256,192,86972,1,8,0:0:0:0:
256,192,87080,1,8,0:0:0:0:
256,192,87187,1,0,0:0:0:0:
256,192,87294,1,0,0:0:0:0:
256,192,87401,1,8,0:0:0:0:
256,192,87508,1,8,0:0:0:0:
256,192,87615,1,0,0:0:0:0:
256,192,87722,1,0,0:0:0:0:
256,192,87830,1,8,0:0:0:0:
256,192,87937,1,0,0:0:0:0:
256,192,88044,1,0,0:0:0:0:
256,192,88151,1,0,0:0:0:0:
256,192,88258,1,8,0:0:0:0:
256,192,88365,1,0,0:0:0:0:
256,192,88472,1,8,0:0:0:0:
256,192,88580,1,8,0:0:0:0:
256,192,88687,1,0,0:0:0:0:
256,192,88794,1,0,0:0:0:0:
256,192,88901,1,8,0:0:0:0:
256,192,89008,1,8,0:0:0:0:
256,192,89115,1,0,0:0:0:0:
256,192,89222,1,8,0:0:0:0:
256,192,89437,1,0,0:0:0:0:
256,192,89544,1,8,0:0:0:0:
256,192,89651,1,8,0:0:0:0:
256,192,89865,1,0,0:0:0:0:
256,192,90080,1,0,0:0:0:0:
256,192,90187,1,8,0:0:0:0:
256,192,90294,1,0,0:0:0:0:
256,192,90401,1,0,0:0:0:0:
256,192,90508,1,8,0:0:0:0:
256,192,90615,1,8,0:0:0:0:
256,192,90722,1,0,0:0:0:0:
256,192,90830,1,0,0:0:0:0:
256,192,90937,1,8,0:0:0:0:
256,192,91044,1,8,0:0:0:0:
256,192,91151,1,0,0:0:0:0:
256,192,91258,1,0,0:0:0:0:
256,192,91365,1,8,0:0:0:0:
256,192,91472,1,8,0:0:0:0:
256,192,91580,1,0,0:0:0:0:
256,192,91687,1,0,0:0:0:0:
256,192,91794,1,8,0:0:0:0:
256,192,91901,1,8,0:0:0:0:
256,192,92008,1,0,0:0:0:0:
256,192,92115,1,0,0:0:0:0:
256,192,92222,1,8,0:0:0:0:
256,192,92330,1,8,0:0:0:0:
256,192,92437,1,0,0:0:0:0:
256,192,92544,1,0,0:0:0:0:
256,192,92651,1,8,0:0:0:0:
256,192,92758,1,8,0:0:0:0:
256,192,92865,1,8,0:0:0:0:
256,192,92972,1,8,0:0:0:0:
256,192,93080,1,0,0:0:0:0:
256,192,93187,1,0,0:0:0:0:
256,192,93294,1,0,0:0:0:0:
256,192,93401,1,0,0:0:0:0:
256,192,93508,1,8,0:0:0:0:
256,192,93615,1,8,0:0:0:0:
256,192,93722,1,8,0:0:0:0:
256,192,93830,1,8,0:0:0:0:
256,192,93937,1,8,0:0:0:0:
256,192,94044,1,8,0:0:0:0:
256,192,94151,1,0,0:0:0:0:
256,192,94258,1,0,0:0:0:0:
256,192,94365,1,8,0:0:0:0:
256,192,94472,1,0,0:0:0:0:
256,192,94580,1,8,0:0:0:0:
256,192,94687,1,8,0:0:0:0:
256,192,94794,1,0,0:0:0:0:
256,192,94901,1,0,0:0:0:0:
256,192,95008,1,0,0:0:0:0:
256,192,95115,1,0,0:0:0:0:
256,192,95222,1,8,0:0:0:0:
256,192,95276,1,8,0:0:0:0:
256,192,95330,1,8,0:0:0:0:
256,192,95437,1,8,0:0:0:0:
256,192,95491,1,8,0:0:0:0:
256,192,95544,1,0,0:0:0:0:
256,192,96080,1,4,0:0:0:0:
256,192,96509,1,8,0:0:0:0:
256,192,96722,1,0,0:0:0:0:
256,192,96830,1,0,0:0:0:0:
256,192,96937,1,8,0:0:0:0:
256,192,97151,1,8,0:0:0:0:
256,192,97258,1,0,0:0:0:0:
256,192,97365,1,8,0:0:0:0:
256,192,97472,1,8,0:0:0:0:
256,192,97580,1,0,0:0:0:0:
256,192,97794,1,8,0:0:0:0:
256,192,98008,1,0,0:0:0:0:
256,192,98115,1,0,0:0:0:0:
256,192,98222,1,8,0:0:0:0:
256,192,98330,1,0,0:0:0:0:
256,192,98437,1,8,0:0:0:0:
256,192,98651,1,0,0:0:0:0:
256,192,98865,1,0,0:0:0:0:
256,192,98972,1,8,0:0:0:0:
256,192,99080,1,0,0:0:0:0:
256,192,99187,1,0,0:0:0:0:
256,192,99294,1,8,0:0:0:0:
256,192,99509,1,8,0:0:0:0:
256,192,99615,1,8,0:0:0:0:
256,192,99722,1,8,0:0:0:0:
256,192,99937,1,0,0:0:0:0:
256,192,100044,1,0,0:0:0:0:
256,192,100151,1,0,0:0:0:0:
256,192,100258,1,0,0:0:0:0:
256,192,100366,1,8,0:0:0:0:
256,192,100580,1,8,0:0:0:0:
256,192,100687,1,8,0:0:0:0:
256,192,100794,1,0,0:0:0:0:
256,192,100901,1,8,0:0:0:0:
256,192,101009,1,0,0:0:0:0:
256,192,101223,1,8,0:0:0:0:
256,192,101437,1,0,0:0:0:0:
256,192,101544,1,0,0:0:0:0:
256,192,101651,1,8,0:0:0:0:
256,192,101759,1,8,0:0:0:0:
256,192,101866,1,0,0:0:0:0:
256,192,102080,1,8,0:0:0:0:
256,192,102294,1,0,0:0:0:0:
256,192,102401,1,8,0:0:0:0:
256,192,102509,1,0,0:0:0:0:
256,192,102616,1,0,0:0:0:0:
256,192,102723,1,8,0:0:0:0:
256,192,102937,1,12,0:0:0:0:
256,192,103365,1,12,0:0:0:0:
256,192,103794,1,12,0:0:0:0:
256,192,104008,1,0,0:0:0:0:
256,192,104116,1,0,0:0:0:0:
256,192,104223,1,0,0:0:0:0:
256,192,104330,1,8,0:0:0:0:
256,192,104437,1,0,0:0:0:0:
256,192,104544,1,0,0:0:0:0:
256,192,104651,1,8,0:0:0:0:
256,192,104866,1,8,0:0:0:0:
256,192,104972,1,8,0:0:0:0:
256,192,105080,1,0,0:0:0:0:
256,192,105187,1,0,0:0:0:0:
256,192,105294,1,8,0:0:0:0:
256,192,105508,1,8,0:0:0:0:
256,192,105723,1,0,0:0:0:0:
256,192,105830,1,0,0:0:0:0:
256,192,105937,1,0,0:0:0:0:
256,192,106044,1,8,0:0:0:0:
256,192,106151,1,8,0:0:0:0:
256,192,106365,1,4,0:0:0:0:
256,192,106795,1,8,0:0:0:0:
256,192,106901,1,0,0:0:0:0:
256,192,107008,1,0,0:0:0:0:
256,192,107115,1,0,0:0:0:0:
256,192,107222,1,8,0:0:0:0:
256,192,107330,1,0,0:0:0:0:
256,192,107437,1,8,0:0:0:0:
256,192,107544,1,8,0:0:0:0:
256,192,107651,1,0,0:0:0:0:
256,192,107865,1,0,0:0:0:0:
256,192,107972,1,0,0:0:0:0:
256,192,108080,1,8,0:0:0:0:
256,192,108294,1,0,0:0:0:0:
256,192,108401,1,8,0:0:0:0:
256,192,108508,1,0,0:0:0:0:
256,192,108615,1,0,0:0:0:0:
256,192,108722,1,8,0:0:0:0:
256,192,108937,1,8,0:0:0:0:
256,192,109151,1,8,0:0:0:0:
256,192,109258,1,8,0:0:0:0:
256,192,109365,1,0,0:0:0:0:
256,192,109472,1,0,0:0:0:0:
256,192,109580,1,8,0:0:0:0:
256,192,109794,12,0,110222,0:0:0:0:
256,192,110651,5,8,0:0:0:0:
256,192,110758,1,8,0:0:0:0:
256,192,110865,1,0,0:0:0:0:
256,192,110972,1,8,0:0:0:0:
256,192,111080,1,0,0:0:0:0:
256,192,111187,1,0,0:0:0:0:
256,192,111294,1,0,0:0:0:0:
256,192,111401,1,0,0:0:0:0:
256,192,111508,1,8,0:0:0:0:
256,192,111615,1,8,0:0:0:0:
256,192,111722,1,0,0:0:0:0:
256,192,111830,1,0,0:0:0:0:
256,192,111937,1,0,0:0:0:0:
256,192,112044,1,8,0:0:0:0:
256,192,112151,1,8,0:0:0:0:
256,192,112258,1,0,0:0:0:0:
256,192,112365,1,8,0:0:0:0:
256,192,112472,1,0,0:0:0:0:
256,192,112580,1,0,0:0:0:0:
256,192,112687,1,0,0:0:0:0:
256,192,112794,1,8,0:0:0:0:
256,192,112901,1,8,0:0:0:0:
256,192,113008,1,8,0:0:0:0:
256,192,113115,1,0,0:0:0:0:
256,192,113651,1,0,0:0:0:0:
256,192,113758,1,8,0:0:0:0:
256,192,113865,1,0,0:0:0:0:
256,192,113972,1,0,0:0:0:0:
256,192,114080,1,8,0:0:0:0:
256,192,114187,1,0,0:0:0:0:
256,192,114294,1,0,0:0:0:0:
256,192,114401,1,0,0:0:0:0:
256,192,114508,1,0,0:0:0:0:
256,192,114615,1,0,0:0:0:0:
256,192,114722,1,8,0:0:0:0:
256,192,114830,1,0,0:0:0:0:
256,192,114937,1,8,0:0:0:0:
256,192,115044,1,8,0:0:0:0:
256,192,115151,1,0,0:0:0:0:
256,192,115258,1,0,0:0:0:0:
256,192,115365,1,0,0:0:0:0:
256,192,115472,1,0,0:0:0:0:
256,192,115580,1,8,0:0:0:0:
256,192,115687,1,0,0:0:0:0:
256,192,115794,1,8,0:0:0:0:
256,192,115901,1,0,0:0:0:0:
256,192,116008,1,0,0:0:0:0:
256,192,116115,1,8,0:0:0:0:
256,192,116222,1,0,0:0:0:0:
256,192,116330,1,0,0:0:0:0:
256,192,116437,1,8,0:0:0:0:
256,192,116651,1,0,0:0:0:0:
256,192,116865,1,8,0:0:0:0:
256,192,117080,1,0,0:0:0:0:
256,192,117508,1,8,0:0:0:0:
256,192,117615,1,0,0:0:0:0:
256,192,117722,1,0,0:0:0:0:
256,192,117830,1,0,0:0:0:0:
256,192,117937,1,8,0:0:0:0:
256,192,118044,1,8,0:0:0:0:
256,192,118151,1,0,0:0:0:0:
256,192,118258,1,0,0:0:0:0:
256,192,118365,1,8,0:0:0:0:
256,192,118472,1,8,0:0:0:0:
256,192,118580,1,0,0:0:0:0:
256,192,118687,1,0,0:0:0:0:
256,192,118794,1,0,0:0:0:0:
256,192,118901,1,0,0:0:0:0:
256,192,119008,1,8,0:0:0:0:
256,192,119115,1,0,0:0:0:0:
256,192,119222,1,8,0:0:0:0:
256,192,119330,1,0,0:0:0:0:
256,192,119437,1,0,0:0:0:0:
256,192,119544,1,8,0:0:0:0:
256,192,119651,1,8,0:0:0:0:
256,192,119758,1,0,0:0:0:0:
256,192,119865,1,8,0:0:0:0:
256,192,119972,1,0,0:0:0:0:
256,192,120080,12,0,122437,0:0:0:0:
256,192,122651,5,4,0:0:0:0:
256,192,123080,1,8,0:0:0:0:
256,192,123508,1,0,0:0:0:0:
256,192,123722,1,8,0:0:0:0:
256,192,123936,1,8,0:0:0:0:
256,192,124043,1,0,0:0:0:0:
256,192,124258,1,0,0:0:0:0:
256,192,124365,1,8,0:0:0:0:
256,192,124579,1,0,0:0:0:0:
256,192,124686,1,8,0:0:0:0:
256,192,124793,1,0,0:0:0:0:
256,192,124901,1,0,0:0:0:0:
256,192,125008,1,8,0:0:0:0:
256,192,125222,1,8,0:0:0:0:
256,192,125329,1,0,0:0:0:0:
256,192,125436,1,8,0:0:0:0:
256,192,125543,1,8,0:0:0:0:
256,192,125758,1,0,0:0:0:0:
256,192,125972,1,8,0:0:0:0:
256,192,126079,1,0,0:0:0:0:
256,192,126293,1,0,0:0:0:0:
256,192,126401,1,8,0:0:0:0:
256,192,126508,1,0,0:0:0:0:
256,192,126615,1,8,0:0:0:0:
256,192,126722,1,8,0:0:0:0:
256,192,126936,1,0,0:0:0:0:
256,192,127150,1,8,0:0:0:0:
256,192,127364,1,0,0:0:0:0:
256,192,127471,1,0,0:0:0:0:
256,192,127686,1,0,0:0:0:0:
256,192,127793,1,8,0:0:0:0:
256,192,128007,1,8,0:0:0:0:
256,192,128114,1,0,0:0:0:0:
256,192,128221,1,8,0:0:0:0:
256,192,128329,1,8,0:0:0:0:
256,192,128436,1,0,0:0:0:0:
256,192,128650,1,0,0:0:0:0:
256,192,128757,1,0,0:0:0:0:
256,192,128864,1,0,0:0:0:0:
256,192,128971,1,8,0:0:0:0:
256,192,129079,1,0,0:0:0:0:
256,192,129186,1,8,0:0:0:0:
256,192,129401,1,0,0:0:0:0:
256,192,129508,1,8,0:0:0:0:
256,192,129616,1,8,0:0:0:0:
256,192,129723,1,0,0:0:0:0:
256,192,129830,1,8,0:0:0:0:
256,192,130044,1,8,0:0:0:0:
256,192,130151,1,8,0:0:0:0:
256,192,130258,1,8,0:0:0:0:
256,192,130365,1,0,0:0:0:0:
256,192,130579,1,0,0:0:0:0:
256,192,130793,1,8,0:0:0:0:
256,192,130901,1,8,0:0:0:0:
256,192,131008,1,0,0:0:0:0:
256,192,131115,1,0,0:0:0:0:
256,192,131222,1,8,0:0:0:0:
256,192,131436,1,0,0:0:0:0:
256,192,131543,1,0,0:0:0:0:
256,192,131758,1,0,0:0:0:0:
256,192,131865,1,8,0:0:0:0:
256,192,132079,1,0,0:0:0:0:
256,192,132186,1,0,0:0:0:0:
256,192,132293,1,8,0:0:0:0:
256,192,132401,1,0,0:0:0:0:
256,192,132508,1,8,0:0:0:0:
256,192,132615,1,8,0:0:0:0:
256,192,132829,1,8,0:0:0:0:
256,192,132936,1,0,0:0:0:0:
256,192,133151,1,0,0:0:0:0:
256,192,133258,1,0,0:0:0:0:
256,192,133365,1,8,0:0:0:0:
256,192,133579,1,0,0:0:0:0:
256,192,133793,1,12,0:0:0:0:
