osu file format v14

[General]
AudioFilename: audio.mp3
AudioLeadIn: 0
PreviewTime: 82305
Countdown: 0
SampleSet: Soft
StackLeniency: 1
Mode: 0
LetterboxInBreaks: 0
WidescreenStoryboard: 0

[Editor]
Bookmarks: 5149,17149,29149,41149,44149,56149,71149,83149,95149,107149,123649,135649,147649,159649,171649,183649,195649,210649,222649,234649
DistanceSpacing: 2
BeatDivisor: 16
GridSize: 32
TimelineZoom: 2.5

[Metadata]
Title:Hatsukoi
TitleUnicode:初恋
Artist:KAMI WA SAIKORO WO FURANAI x AYUNi D(BiSH/PEDRO) x n-buna from Yorushika
ArtistUnicode:神はサイコロを振らない × アユニ・D(BiSH/PEDRO) × n-buna from ヨルシカ
Creator:Mujina
Version:The two of us, under the horizon.
Source:
Tags:Airiesu midorijeon first love kamisai 柳田周作 Shusaku Yanagida 伊藤亜佑子 Ito Ayuko nabuna ナブナ male female vocal duo japanese pop j-pop jpop rock j-rock jrock
BeatmapID:3125547
BeatmapSetID:1527868

[Difficulty]
HPDrainRate:5
CircleSize:4.4
OverallDifficulty:8
ApproachRate:8.8
SliderMultiplier:3.2
SliderTickRate:1

[Events]
//Background and Video events
0,0,"Erw48ExVgAIfKB5.jpg",0,0
//Break Periods
2,41349,43426
2,95349,100520
2,159849,167879
//Storyboard Layer 0 (Background)
//Storyboard Layer 1 (Fail)
//Storyboard Layer 2 (Pass)
//Storyboard Layer 3 (Foreground)
//Storyboard Layer 4 (Overlay)
//Storyboard Sound Samples

[TimingPoints]
682,731.707317073171,4,2,1,45,1,0
1048,606.060606060606,4,2,1,45,1,0
1656,800.000000000001,4,2,1,45,1,0
2029,1318.68131868132,4,2,1,45,1,0
2695,1285.48473486877,4,2,1,45,1,0
3980,1176.47058823529,4,2,1,45,1,0
5149,750,4,2,1,70,1,0
17149,-111.111111111111,4,2,1,60,0,0
28774,-133.333333333333,4,2,1,60,0,0
29055,-133.333333333333,4,2,1,5,0,0
29149,-111.111111111111,4,2,1,60,0,0
44149,750,4,2,1,80,1,1
44149,-90.9090909090909,4,2,1,80,0,1
51930,-90.9090909090909,4,2,1,5,0,1
52024,-90.9090909090909,4,2,1,80,0,1
53430,-90.9090909090909,4,2,1,5,0,1
53524,-90.9090909090909,4,2,1,80,0,1
60930,-90.9090909090909,4,2,1,5,0,1
61024,-90.9090909090909,4,2,1,80,0,1
68149,-133.333333333333,4,2,1,60,0,0
71149,750,4,2,1,70,1,0
71149,-100,4,2,1,70,0,0
91305,-100,4,2,1,5,0,0
91399,-100,4,2,1,70,0,0
95149,-100,4,2,1,60,0,0
101149,-200,4,2,1,60,0,0
107149,-111.111111111111,4,2,1,65,0,0
119149,-133.333333333333,4,2,1,65,0,0
121399,-400,4,2,1,65,0,0
122149,-400,4,2,1,5,0,0
122899,-400,4,2,1,65,0,0
123461,-400,4,2,1,5,0,0
123555,-400,4,2,1,65,0,0
123649,750,4,2,1,80,1,1
123649,-90.9090909090909,4,2,1,80,0,1
129836,-90.9090909090909,4,2,1,5,0,1
129930,-90.9090909090909,4,2,1,80,0,1
130304,-90.9090909090909,4,2,1,5,0,1
130399,-90.9090909090909,4,2,1,80,0,1
146805,-90.9090909090909,4,2,1,5,0,1
146899,-90.9090909090909,4,2,1,80,0,1
158242,-90.9090909090909,4,2,1,5,0,1
158336,-90.9090909090909,4,2,1,80,0,1
159649,-90.9090909090909,4,2,1,60,0,0
168508,-100,4,2,1,60,0,0
169961,-90.9090909090909,4,2,1,65,0,0
171649,-90.9090909090909,4,2,1,80,0,1
192930,-90.9090909090909,4,2,1,5,0,1
193024,-90.9090909090909,4,2,1,80,0,1
200430,-90.9090909090909,4,2,1,5,0,1
200524,-90.9090909090909,4,2,1,80,0,1
207649,-133.333333333333,4,2,1,60,0,0
210649,750,4,2,1,70,1,0
210649,-100,4,2,1,70,0,0
230805,-100,4,2,1,5,0,0
230899,-100,4,2,1,70,0,0

[Colours]
Combo1 : 145,167,216
Combo2 : 227,136,53
Combo3 : 194,80,54
Combo4 : 129,96,175

[HitObjects]
120,197,682,5,2,2:0:0:0:
206,149,1048,5,2,2:0:0:0:
262,223,1351,5,2,2:0:0:0:
101,198,1656,5,2,2:0:0:0:
208,138,2029,5,2,2:0:0:0:
278,231,2695,5,2,2:0:0:0:
170,304,3980,5,2,2:0:0:0:
138,146,5149,22,0,P|134:106|134:66,1,80,6|2,3:2|2:0,2:0:0:0:
138,146,5524,2,0,P|98:145|58:149,1,80,2|0,2:0|2:0,2:0:0:0:
82,244,5899,1,10,2:0:0:0:
58,148,6086,1,0,3:2:0:0:
204,79,6274,1,2,3:2:0:0:
204,79,6461,6,0,P|255:81|376:95,1,160,2|2,2:0|2:0,2:0:0:0:
363,92,7024,2,0,P|361:36|358:7,1,80,2|2,3:2|2:0,2:0:0:0:
462,172,7399,2,0,P|459:115|456:86,1,80,10|2,2:0|2:0,2:0:0:0:
382,176,7774,2,0,P|421:172|461:171,1,80,2|2,2:0|3:2,2:0:0:0:
351,288,8149,6,0,P|306:245|212:256,1,160,2|2,3:2|2:0,2:0:0:0:
214,254,8711,1,2,2:0:0:0:
131,346,8899,2,0,P|128:306|117:267,1,80,10|0,2:0|3:2,2:0:0:0:
36,181,9274,1,2,3:2:0:0:
36,181,9461,6,0,P|109:167|208:164,1,160,2|2,2:0|2:0,2:0:0:0:
142,85,10024,2,0,P|102:88|62:96,1,80,2|2,3:2|2:0,2:0:0:0:
62,95,10399,2,0,P|79:58|91:20,1,80,10|2,2:0|3:2,2:0:0:0:
194,163,10774,2,0,P|181:200|164:237,1,80,2|2,2:0|2:0,2:0:0:0:
221,75,11149,6,0,P|276:64|388:51,1,160,2|2,3:2|2:0,2:0:0:0:
379,51,11711,1,2,2:0:0:0:
451,189,11899,2,0,P|461:138|468:96,1,80,10|0,2:0|3:2,2:0:0:0:
425,279,12274,1,2,3:2:0:0:
425,279,12461,6,0,P|346:265|267:251,1,160,2|2,2:0|2:0,2:0:0:0:
267,251,13024,1,2,3:2:0:0:
241,347,13211,1,2,2:0:0:0:
105,280,13399,2,0,P|153:283|206:299,1,80,10|2,2:0|2:0,2:0:0:0:
105,280,13774,2,0,P|102:328|86:381,1,80,2|2,2:0|3:2,2:0:0:0:
109,199,14149,6,0,P|116:122|113:29,1,160,2|2,3:2|2:0,2:0:0:0:
113,39,14711,1,2,2:0:0:0:
197,127,14899,2,0,P|245:124|284:125,1,80,10|0,2:0|3:2,2:0:0:0:
439,90,15274,1,2,3:2:0:0:
387,16,15461,6,0,P|363:65|367:172,1,160,2|2,2:0|2:0,2:0:0:0:
365,168,16024,1,2,3:2:0:0:
442,216,16211,1,2,2:0:0:0:
313,234,16399,1,10,2:0:0:0:
365,168,16586,1,2,3:2:0:0:
421,294,16774,1,2,2:0:0:0:
295,349,16961,1,2,2:0:0:0:
240,223,17149,6,0,P|141:207|81:199,1,144,6|0,3:2|2:0,2:0:0:0:
313,234,17899,1,8,2:0:0:0:
295,349,18086,1,0,3:2:0:0:
421,293,18274,2,0,P|426:258|428:222,1,72.0000000000001,0|2,3:2|2:0,2:0:0:0:
472,145,18649,6,0,P|436:142|400:137,1,72.0000000000001,2|2,2:0|2:0,2:0:0:0:
322,173,19024,2,0,P|324:137|329:101,1,72.0000000000001,2|2,3:2|2:0,2:0:0:0:
301,15,19399,2,0,P|336:17|372:22,2,72.0000000000001,10|2|2,2:0|3:2|3:2,2:0:0:0:
244,81,19961,1,2,3:2:0:0:
244,81,20149,6,0,P|213:61|178:53,1,72.0000000000001,0|2,3:2|2:0,2:0:0:0:
91,92,20524,1,2,2:0:0:0:
91,92,20899,1,8,2:0:0:0:
138,158,21086,1,0,3:2:0:0:
13,73,21274,2,0,P|78:66|186:53,2,144,0|0|0,3:2|2:0|3:2,2:0:0:0:
97,240,22399,5,10,2:0:0:0:
138,158,22586,1,2,3:2:0:0:
188,229,22774,1,2,2:0:0:0:
50,170,22961,1,2,2:0:0:0:
188,229,23149,6,0,P|235:215|277:205,1,72.0000000000001,0|2,3:2|2:0,2:0:0:0:
348,311,23524,2,0,P|338:276|328:241,1,72.0000000000001,2|0,2:0|2:0,2:0:0:0:
321,162,23899,1,8,2:0:0:0:
267,285,24086,1,0,3:2:0:0:
321,162,24274,2,0,P|330:100|304:2,2,144,0|0|0,3:2|2:0|3:2,2:0:0:0:
400,363,25399,6,0,P|448:353|491:352,1,72.0000000000001,8|0,2:0|3:2,2:0:0:0:
470,351,25774,1,0,3:2:0:0:
460,258,25961,1,2,3:2:0:0:
370,208,26149,2,0,P|377:257|380:290,1,72.0000000000001,2|2,3:2|2:0,2:0:0:0:
311,367,26524,2,0,P|304:318|301:285,1,72.0000000000001,2|2,2:0|2:0,2:0:0:0:
178,236,26899,2,0,P|227:229|260:226,2,72.0000000000001,8|2|2,2:0|3:2|3:2,2:0:0:0:
28,352,27461,6,0,P|53:314|151:341,1,144,2|2,2:0|2:0,2:0:0:0:
178,236,28024,2,0,P|181:186|180:150,1,72.0000000000001,0|0,3:2|2:0,2:0:0:0:
252,95,28399,1,8,2:0:0:0:
180,164,28586,1,0,3:2:0:0:
255,234,28774,2,0,P|292:210|354:220,1,90.0000000000002,0|0,3:2|2:0,2:0:0:0:
354,219,29149,6,0,P|346:296|343:391,1,144,6|0,3:2|2:0,2:0:0:0:
436,276,29899,1,8,2:0:0:0:
354,219,30086,1,0,3:2:0:0:
436,276,30274,2,0,P|433:229|428:182,1,72.0000000000001,0|2,3:2|2:0,2:0:0:0:
347,130,30649,2,0,P|382:126|418:124,1,72.0000000000001,2|2,2:0|2:0,2:0:0:0:
256,49,31024,2,0,P|259:84|261:120,1,72.0000000000001,2|2,3:2|2:0,2:0:0:0:
256,49,31399,2,0,P|291:45|327:43,1,72.0000000000001,10|2,2:0|3:2,2:0:0:0:
327,42,31774,1,2,3:2:0:0:
235,147,31961,1,2,3:2:0:0:
235,147,32149,6,0,P|197:133|137:119,1,72.0000000000001,0|2,3:2|2:0,2:0:0:0:
65,239,32524,1,2,2:0:0:0:
65,239,32899,1,8,2:0:0:0:
129,194,33086,1,0,3:2:0:0:
124,348,33274,2,0,P|183:326|279:304,2,144,0|0|0,3:2|2:0|3:2,2:0:0:0:
124,348,34211,5,2,2:0:0:0:
175,253,34399,1,10,2:0:0:0:
287,326,34586,1,2,3:2:0:0:
204,330,34774,1,2,2:0:0:0:
258,247,34961,1,2,2:0:0:0:
359,364,35149,2,0,P|413:347|446:342,1,72.0000000000001,0|2,3:2|2:0,2:0:0:0:
460,199,35524,2,0,P|477:253|482:286,1,72.0000000000001,2|0,2:0|2:0,2:0:0:0:
501,351,35899,1,8,2:0:0:0:
391,278,36086,1,0,3:2:0:0:
391,278,36274,6,0,P|383:242|371:208,1,72.0000000000001,0|2,3:2|2:0,2:0:0:0:
384,122,36649,2,0,P|350:134|314:141,1,72.0000000000001,2|2,2:0|2:0,2:0:0:0:
246,293,37024,2,0,P|258:259|265:223,1,72.0000000000001,2|2,3:2|2:0,2:0:0:0:
165,131,37399,2,0,P|198:143|234:150,1,72.0000000000001,10|2,2:0|3:2,2:0:0:0:
234,150,37774,1,2,3:2:0:0:
258,60,37961,1,2,3:2:0:0:
92,187,38149,6,0,P|78:142|108:47,2,144,0|0|8,3:2|2:0|2:0,2:0:0:0:
92,187,39086,1,0,3:2:0:0:
151,302,39274,2,0,P|92:288|5:279,2,144,0|0|0,3:2|2:0|3:2,2:0:0:0:
151,302,40399,1,8,2:0:0:0:
231,339,40586,1,0,3:2:0:0:
303,303,40774,1,2,2:0:0:0:
303,303,41149,5,2,2:0:0:0:
479,40,44055,5,2,2:0:0:0:
479,40,44149,6,0,P|385:25|291:12,2,176,6|0|10,3:2|2:0|2:0,2:0:0:0:
479,40,45086,1,0,3:2:0:0:
332,99,45274,2,0,P|375:105|418:112,1,88,0|0,3:2|2:0,2:0:0:0:
193,194,45649,6,0,P|203:106|225:21,1,176,2|2,2:0|3:2,2:0:0:0:
224,21,46211,1,0,2:0:0:0:
104,153,46399,2,0,P|109:109|120:66,1,88,10|0,2:0|2:0,2:0:0:0:
284,180,46774,2,0,P|290:136|301:93,1,88,2|0,2:0|3:2,2:0:0:0:
270,297,47149,6,0,P|173:272|77:271,2,176,2|2|10,3:2|2:0|2:0,2:0:0:0:
270,297,48086,1,0,3:2:0:0:
423,363,48274,1,2,3:2:0:0:
368,163,48461,2,0,P|367:206|349:337,1,176,2|0,2:0|2:0,2:0:0:0:
279,205,49024,6,0,P|242:186|178:190,1,88,2|0,3:2|2:0,2:0:0:0:
25,14,49399,2,0,P|27:55|62:108,1,88,10|0,2:0|3:2,2:0:0:0:
72,182,49774,2,0,P|106:159|135:102,1,88,2|0,2:0|2:0,2:0:0:0:
179,363,50149,6,0,P|119:338|7:333,2,176,2|2|10,3:2|2:0|2:0,2:0:0:0:
237,220,51086,1,0,3:2:0:0:
123,252,51274,1,2,3:2:0:0:
163,179,51461,1,0,2:0:0:0:
253,322,51649,6,0,P|313:294|378:284,1,132,2|0,2:0|2:0,2:0:0:0:
437,245,52024,2,0,P|440:192|445:153,1,88,2|0,3:2|2:0,2:0:0:0:
290,28,52399,2,0,P|284:71|281:115,1,88,10|0,2:0|2:0,2:0:0:0:
98,210,52774,1,2,2:0:0:0:
116,93,52961,1,0,3:2:0:0:
38,312,53149,6,0,P|95:295|206:285,1,132,2|0,3:2|2:0,2:0:0:0:
240,297,53524,2,0,P|232:355|230:389,1,88,2|0,2:0|2:0,2:0:0:0:
368,255,53899,2,0,P|364:211|358:167,1,88,10|0,2:0|3:2,2:0:0:0:
257,168,54274,1,2,3:2:0:0:
447,133,54461,1,8,2:0:0:0:
360,77,54649,1,2,2:0:0:0:
282,249,54836,5,8,2:0:0:0:
358,167,55024,1,10,2:3:0:0:
440,243,55211,1,4,2:3:0:0:
257,168,55399,5,10,2:0:0:0:
442,65,55586,1,8,2:0:0:0:
442,65,55680,1,8,2:0:0:0:
442,65,55774,1,8,2:0:0:0:
440,243,55961,1,8,2:0:0:0:
270,81,56149,6,0,P|198:67|80:65,2,176,6|0|10,3:2|2:0|2:0,2:0:0:0:
270,81,57086,1,0,3:2:0:0:
151,227,57274,2,0,P|153:178|169:118,1,88,2|0,3:2|2:0,2:0:0:0:
378,134,57649,6,0,P|374:216|347:320,1,176,2|2,2:0|3:2,2:0:0:0:
351,306,58211,1,0,2:0:0:0:
161,140,58399,2,0,P|204:131|247:126,1,88,10|0,2:0|2:0,2:0:0:0:
351,306,58774,2,0,P|305:301|258:291,1,88,2|0,2:0|3:2,2:0:0:0:
287,41,59149,6,0,P|324:118|302:201,2,176,2|2|10,3:2|2:0|2:0,2:0:0:0:
287,41,60086,1,0,3:2:0:0:
247,126,60274,1,2,3:2:0:0:
398,50,60461,1,2,2:0:0:0:
247,126,60649,2,0,P|170:99|90:88,1,132,2|0,2:0|2:0,2:0:0:0:
52,125,61024,6,0,P|45:70|57:38,1,88,2|0,3:2|2:0,2:0:0:0:
195,209,61399,2,0,P|144:191|91:183,1,88,10|0,2:0|3:2,2:0:0:0:
56,343,61774,2,0,P|99:351|140:366,1,88,2|0,2:0|2:0,2:0:0:0:
304,217,62149,6,0,P|278:278|256:392,2,176,6|0|10,3:2|2:0|2:0,2:0:0:0:
402,168,63086,1,0,3:2:0:0:
461,303,63274,2,0,P|411:291|371:288,1,88,2|0,3:2|2:0,2:0:0:0:
233,127,63649,2,0,P|283:115|323:112,1,88,2|2,2:0|2:0,2:0:0:0:
478,59,64024,5,2,3:2:0:0:
390,27,64211,1,2,2:0:0:0:
446,204,64399,5,10,2:0:0:0:
337,112,64586,1,2,2:0:0:0:
357,346,64774,5,2,2:0:0:0:
252,164,64961,1,2,3:2:0:0:
184,360,65149,6,0,P|98:342|10:337,2,176,2|0|10,3:2|2:0|2:0,2:0:0:0:
184,360,66086,1,2,3:2:0:0:
96,169,66274,2,0,P|82:234|90:270,1,88,2|0,3:2|2:0,2:0:0:0:
179,220,66649,5,2,2:0:0:0:
0,154,66836,1,2,2:0:0:0:
217,152,67024,5,2,3:2:0:0:
107,59,67211,1,2,2:0:0:0:
276,109,67399,5,10,2:0:0:0:
223,15,67586,1,2,3:2:0:0:
303,33,67774,5,2,2:0:0:0:
190,89,67961,1,0,2:0:0:0:
307,183,68149,6,0,P|293:236|283:377,1,180,2|0,2:0|2:0,2:0:0:0:
282,360,68899,2,0,P|328:358|370:352,1,60.0000000000001,2|0,2:0|2:0,2:0:0:0:
267,255,69274,2,0,P|237:257|207:258,1,60.0000000000001,2|0,2:0|2:0,2:0:0:0:
91,384,69649,2,0,P|41:315|143:327,1,240.000000000001,0|2,2:0|2:0,2:0:0:0:
329,209,71149,6,0,P|291:197|248:185,1,80,6|2,3:2|2:0,2:0:0:0:
329,209,71524,2,0,P|318:247|306:285,1,80,2|0,2:0|2:0,2:0:0:0:
372,354,71899,1,10,2:0:0:0:
305,285,72086,1,0,3:2:0:0:
415,177,72274,1,2,3:2:0:0:
415,177,72461,6,0,P|434:93|456:18,1,160,2|2,2:0|2:0,2:0:0:0:
454,22,73024,2,0,P|392:29|353:32,1,80,2|2,3:2|2:0,2:0:0:0:
259,119,73399,2,0,P|298:115|338:110,1,80,10|2,2:0|2:0,2:0:0:0:
250,39,73774,2,0,P|253:78|258:118,1,80,2|2,2:0|3:2,2:0:0:0:
237,303,74149,6,0,P|174:272|75:278,1,160,2|2,3:2|2:0,2:0:0:0:
85,274,74711,1,2,2:0:0:0:
163,114,74899,2,0,P|157:172|152:211,1,80,10|0,2:0|3:2,2:0:0:0:
78,88,75274,1,2,3:2:0:0:
78,88,75461,6,0,P|150:81|260:65,1,160,2|2,2:0|2:0,2:0:0:0:
327,92,76024,2,0,P|313:40|303:-2,1,80,2|2,3:2|2:0,2:0:0:0:
404,72,76399,2,0,P|365:81|326:92,1,80,10|2,2:0|3:2,2:0:0:0:
424,149,76774,2,0,P|414:110|403:71,1,80,2|2,2:0|2:0,2:0:0:0:
509,240,77149,6,0,P|429:248|351:265,1,160,2|2,3:2|2:0,2:0:0:0:
351,264,77711,1,2,2:0:0:0:
403,332,77899,2,0,P|442:324|482:320,1,80,10|0,2:0|3:2,2:0:0:0:
427,163,78274,1,2,3:2:0:0:
427,163,78461,6,0,P|380:127|269:145,1,160,2|2,2:0|2:0,2:0:0:0:
275,213,79024,2,0,P|284:160|281:116,1,80,2|2,3:2|2:0,2:0:0:0:
127,257,79399,2,0,P|118:310|121:354,1,80,10|2,2:0|2:0,2:0:0:0:
48,249,79774,2,0,P|87:249|127:257,1,80,2|2,2:0|3:2,2:0:0:0:
36,7,80149,6,0,P|64:85|61:180,1,160,2|2,3:2|2:0,2:0:0:0:
64,161,80711,1,2,2:0:0:0:
164,51,80899,2,0,P|215:43|263:37,1,80,10|0,2:0|3:2,2:0:0:0:
382,120,81274,1,2,3:2:0:0:
339,21,81461,6,0,P|319:56|318:204,1,160,2|2,2:0|2:0,2:0:0:0:
308,173,82024,1,2,3:2:0:0:
407,214,82211,1,2,2:0:0:0:
297,299,82399,2,0,P|246:288|200:289,1,80,10|0,2:0|3:2,2:0:0:0:
121,144,82774,2,0,P|172:133|218:134,1,80,2|0,2:0|2:0,2:0:0:0:
169,359,83149,6,0,P|140:287|168:214,1,160,6|0,3:2|2:0,2:0:0:0:
168,213,83711,1,0,2:0:0:0:
50,329,83899,2,0,P|53:274|57:240,1,80,10|0,2:0|3:2,2:0:0:0:
205,135,84274,6,0,P|125:131|47:112,1,160,2|0,3:2|2:0,2:0:0:0:
47,112,84836,1,2,2:0:0:0:
205,135,85024,2,0,P|205:95|209:55,1,80,0|0,3:2|2:0,2:0:0:0:
363,4,85399,2,0,P|291:10|255:7,1,80,10|0,2:0|3:2,2:0:0:0:
363,4,85774,2,0,P|369:76|366:112,1,80,2|0,3:2|3:2,2:0:0:0:
284,286,86149,6,0,P|334:259|465:259,1,160,2|0,3:2|2:0,2:0:0:0:
435,250,86711,1,2,2:0:0:0:
302,189,86899,2,0,P|344:175|387:169,1,80,10|0,2:0|3:2,2:0:0:0:
238,358,87274,6,0,P|155:330|71:318,1,160,2|0,3:2|2:0,2:0:0:0:
83,318,87836,1,2,2:0:0:0:
23,162,88024,2,0,P|29:208|33:260,1,80,0|0,3:2|2:0,2:0:0:0:
151,210,88399,1,10,2:0:0:0:
131,128,88586,1,0,3:2:0:0:
32,82,88774,2,0,P|26:121|23:161,1,80,2|0,2:0|2:0,2:0:0:0:
229,104,89149,6,0,P|298:88|422:66,1,160,2|0,3:2|2:0,2:0:0:0:
385,71,89711,1,0,2:0:0:0:
487,196,89899,2,0,P|487:156|498:117,1,80,10|0,2:0|3:2,2:0:0:0:
322,172,90274,6,0,P|347:244|348:348,1,160,2|0,3:2|2:0,2:0:0:0:
350,327,90836,1,2,2:0:0:0:
228,214,91024,2,0,P|246:268|247:346,1,120,2|0,3:2|2:0,2:0:0:0:
178,321,91399,2,0,P|175:281|162:243,1,80,10|0,2:0|2:0,2:0:0:0:
162,243,91774,1,2,2:0:0:0:
88,347,91961,1,0,3:2:0:0:
159,132,92149,6,0,P|238:128|309:162,1,160,2|0,3:2|2:0,2:0:0:0:
309,162,92711,1,2,2:0:0:0:
320,282,92899,2,0,P|326:321|332:361,1,80,8|0,2:0|3:2,2:0:0:0:
499,228,93274,1,2,3:2:0:0:
423,337,93461,6,0,P|410:258|423:180,1,160,0|0,2:0|2:0,2:0:0:0:
422,180,94024,1,0,3:2:0:0:
499,228,94211,1,0,2:0:0:0:
388,274,94399,1,8,2:0:0:0:
422,180,94586,1,0,3:2:0:0:
478,306,94774,1,2,2:0:0:0:
352,360,94961,1,2,2:0:0:0:
296,234,95149,1,6,3:2:0:0:
480,150,101149,6,0,P|440:151|400:158,1,80,0|2,3:2|2:0,2:0:0:0:
366,95,101711,1,2,2:0:0:0:
366,95,101899,2,0,P|326:96|286:103,1,80,2|0,2:0|2:0,2:0:0:0:
252,40,102461,2,0,P|212:41|172:48,1,80,2|0,2:0|2:0,2:0:0:0:
95,75,103024,2,0,P|152:76|177:127,1,120,2|0,2:0|2:0,2:0:0:0:
33,284,103961,1,2,2:0:0:0:
33,284,104149,6,0,P|20:224|16:190,1,80,2|2,2:0|2:0,2:0:0:0:
113,296,104711,2,0,P|105:260|102:239,1,40,2|0,2:0|2:0,2:0:0:0:
92,180,105086,1,2,3:2:0:0:
185,254,105274,2,0,P|177:218|174:197,1,40,2|2,3:2|2:0,2:0:0:0:
294,375,105836,1,2,2:0:0:0:
219,344,106024,1,10,2:3:0:0:
285,293,106211,1,6,2:3:0:0:
411,358,106399,5,8,2:0:0:0:
302,207,106586,1,8,2:3:0:0:
302,207,106680,1,8,2:3:0:0:
302,207,106774,1,4,2:3:0:0:
219,344,106961,1,4,2:3:0:0:
390,237,107149,6,0,P|433:213|416:125,2,144,6|0|8,3:2|2:0|2:0,2:0:0:0:
390,237,108086,1,0,3:2:0:0:
310,124,108274,2,0,P|260:121|224:118,1,72.0000000000001,0|2,3:2|2:0,2:0:0:0:
233,191,108649,6,0,P|236:141|239:105,1,72.0000000000001,2|2,2:0|2:0,2:0:0:0:
161,186,109024,2,0,P|211:189|247:192,1,72.0000000000001,2|2,3:2|2:0,2:0:0:0:
107,321,109399,2,0,P|110:271|113:235,2,72.0000000000001,10|2|2,2:0|3:2|3:2,2:0:0:0:
173,367,109961,1,2,3:2:0:0:
27,362,110149,6,0,P|21:299|22:273,1,72.0000000000001,0|2,3:2|2:0,2:0:0:0:
75,208,110524,2,0,P|73:172|69:136,1,72.0000000000001,2|0,2:0|2:0,2:0:0:0:
69,136,110899,1,8,2:0:0:0:
26,69,111086,1,0,3:2:0:0:
145,26,111274,2,0,P|73:37|3:50,2,144,0|0|0,3:2|2:0|3:2,2:0:0:0:
233,74,112211,5,2,2:0:0:0:
172,140,112399,1,10,2:0:0:0:
233,74,112586,2,0,P|278:64|316:65,1,72.0000000000001,2|0,3:2|2:0,2:0:0:0:
355,3,112961,1,2,2:0:0:0:
411,87,113149,6,0,P|406:137|405:177,1,72.0000000000001,0|2,3:2|2:0,2:0:0:0:
483,192,113524,2,0,P|487:227|488:263,1,72.0000000000001,2|0,2:0|2:0,2:0:0:0:
488,263,113899,1,8,2:0:0:0:
466,363,114086,1,0,3:2:0:0:
362,331,114274,6,0,P|291:318|219:311,1,144,0|0,3:2|2:0,2:0:0:0:
140,342,114836,1,2,2:0:0:0:
140,342,115024,2,0,P|134:295|131:266,1,72.0000000000001,0|2,3:2|2:0,2:0:0:0:
10,215,115399,2,0,P|57:209|86:206,1,72.0000000000001,10|2,2:0|3:2,2:0:0:0:
81,206,115774,1,2,3:2:0:0:
134,132,115961,1,2,3:2:0:0:
33,66,116149,6,0,P|36:118|38:146,1,72.0000000000001,0|2,3:2|2:0,2:0:0:0:
134,132,116524,2,0,P|131:96|129:60,1,72.0000000000001,2|0,2:0|2:0,2:0:0:0:
279,85,116899,2,0,P|238:88|205:91,1,72.0000000000001,8|0,2:0|3:2,2:0:0:0:
363,152,117274,5,0,3:2:0:0:
363,152,117461,2,0,P|360:116|358:80,1,72.0000000000001,2|0,2:0|2:0,2:0:0:0:
434,30,117836,1,2,2:0:0:0:
434,30,118024,2,0,P|469:26|505:24,1,72.0000000000001,0|0,3:2|2:0,2:0:0:0:
363,152,118399,1,8,2:0:0:0:
439,115,118586,1,0,3:2:0:0:
489,187,118774,1,2,2:0:0:0:
489,187,119149,6,0,P|466:230|470:301,2,120,2|2|10,3:2|2:0|2:0,2:0:0:0:
489,187,120086,1,0,3:2:0:0:
383,242,120274,2,0,P|349:233|318:232,1,60.0000000000001,2|0,3:2|2:0,2:0:0:0:
239,227,120649,2,0,P|254:276|256:372,1,120,2|2,2:0|3:2,2:0:0:0:
258,344,121211,1,0,2:0:0:0:
178,299,121399,6,0,P|166:293|154:293,1,20,2|2,2:0|2:0,2:0:0:0:
239,227,121774,2,0,P|254:225|283:221,1,40,2|0,2:0|2:0,2:0:0:0:
27,15,122899,6,0,P|40:47|46:78,1,60,2|0,2:0|2:0,2:0:0:0:
45,93,123555,1,2,2:0:0:0:
45,93,123649,6,0,B|107:66|237:56,2,176,6|0|8,3:2|2:0|2:0,2:0:0:0:
21,206,124586,1,0,3:2:0:0:
92,257,124774,1,0,3:2:0:0:
163,308,124961,2,0,P|181:187|176:134,1,176,0|0,2:0|2:0,2:0:0:0:
176,134,125524,1,0,3:2:0:0:
92,257,125711,1,0,2:0:0:0:
252,277,125899,5,10,2:0:0:0:
256,189,126086,1,2,2:0:0:0:
91,75,126274,1,2,2:0:0:0:
87,163,126461,1,2,3:2:0:0:
286,87,126649,6,0,P|352:68|488:54,1,176,2|0,3:2|2:0,2:0:0:0:
458,54,127211,1,2,2:0:0:0:
399,243,127399,2,0,P|384:201|376:158,1,88,10|2,2:0|3:2,2:0:0:0:
491,217,127774,1,2,3:2:0:0:
464,319,127961,1,2,2:0:0:0:
324,261,128149,5,2,2:0:0:0:
399,243,128336,1,2,2:0:0:0:
301,336,128524,5,2,3:2:0:0:
228,296,128711,1,2,2:0:0:0:
245,216,128899,5,10,2:0:0:0:
150,331,129086,1,0,3:2:0:0:
164,247,129274,5,2,2:0:0:0:
218,377,129461,1,0,2:0:0:0:
66,286,129649,6,0,P|54:243|57:199,1,88,2|0,3:2|2:0,2:0:0:0:
75,175,129930,1,2,2:0:0:0:
256,127,130117,2,0,P|213:115|170:117,1,88,2|0,2:0|2:0,2:0:0:0:
145,136,130399,1,8,2:0:0:0:
264,215,130586,1,0,3:2:0:0:
369,67,130774,1,2,3:2:0:0:
222,48,130961,1,2,2:0:0:0:
303,135,131149,5,2,2:0:0:0:
458,60,131336,1,2,2:0:0:0:
458,60,131430,1,2,2:0:0:0:
458,60,131524,1,2,3:2:0:0:
298,11,131711,1,2,2:0:0:0:
445,154,131899,2,0,P|452:215|452:255,1,88,8|2,2:0|2:0,2:0:0:0:
243,257,132274,2,0,P|236:196|236:156,1,88,2|2,2:0|3:2,2:0:0:0:
331,340,132649,6,0,P|242:347|157:368,1,176,2|0,3:2|2:0,2:0:0:0:
25,37,133399,1,10,2:0:0:0:
77,95,133586,1,2,3:2:0:0:
151,33,133774,5,2,3:2:0:0:
79,182,133961,2,0,P|67:230|61:268,1,88,10|0,2:0|2:0,2:0:0:0:
77,95,134336,5,10,2:0:0:0:
188,164,134524,1,10,2:3:0:0:
299,95,134711,1,10,2:3:0:0:
186,62,134899,5,10,2:0:0:0:
283,227,135086,1,10,2:0:0:0:
283,227,135180,1,8,2:0:0:0:
283,227,135274,1,10,2:0:0:0:
448,130,135461,1,10,2:0:0:0:
186,62,135649,6,0,P|98:47|3:43,1,176,6|0,3:2|2:0,2:0:0:0:
11,42,136211,1,2,2:0:0:0:
155,233,136399,2,0,P|164:175|166:128,1,88,8|0,2:0|3:2,2:0:0:0:
335,188,136774,2,0,P|378:191|473:208,1,132,2|2,3:2|2:0,2:0:0:0:
479,131,137149,2,0,P|414:118|348:112,1,132,0|2,2:0|2:0,2:0:0:0:
327,109,137524,1,0,3:2:0:0:
202,80,137711,6,0,P|158:81|116:95,1,88,2|8,2:0|2:0,2:0:0:0:
186,247,138086,2,0,P|229:249|271:263,1,88,2|0,2:0|2:0,2:0:0:0:
271,263,138461,1,2,3:2:0:0:
201,339,138649,5,2,3:2:0:0:
242,181,138836,1,2,2:0:0:0:
323,197,139024,5,2,2:0:0:0:
165,156,139211,1,2,2:0:0:0:
140,233,139399,6,0,P|81:212|-1:205,1,132,10|2,2:0|2:0,2:0:0:0:
0,279,139774,2,0,P|65:285|127:307,1,132,0|2,3:2|2:0,2:0:0:0:
171,365,140149,2,0,P|239:353|264:282,1,132,0|2,2:0|2:0,2:0:0:0:
297,226,140524,2,0,P|280:273|284:323,1,88,0|0,3:2|2:0,2:0:0:0:
420,275,140899,1,8,2:0:0:0:
297,226,141086,1,0,3:2:0:0:
460,188,141274,1,2,2:0:0:0:
12,103,141649,6,0,P|97:88|201:73,2,176,6|0|8,3:2|2:0|2:0,2:0:0:0:
12,103,142586,1,0,3:2:0:0:
128,157,142774,1,2,3:2:0:0:
128,7,142961,2,0,P|84:13|41:21,1,88,2|0,2:0|2:0,2:0:0:0:
128,157,143336,2,0,P|171:163|214:171,1,88,2|0,2:0|3:2,2:0:0:0:
214,171,143711,1,2,2:0:0:0:
331,100,143899,2,0,P|345:46|355:9,1,88,8|2,2:0|2:0,2:0:0:0:
331,100,144274,1,2,2:0:0:0:
235,80,144461,1,2,3:2:0:0:
416,53,144649,5,2,3:2:0:0:
384,207,144836,1,2,2:0:0:0:
307,191,145024,5,2,2:0:0:0:
461,223,145211,1,2,2:0:0:0:
477,146,145399,5,10,2:0:0:0:
445,300,145586,1,0,3:2:0:0:
291,268,145774,1,2,3:2:0:0:
323,114,145961,6,0,P|334:61|353:25,1,88,10|0,2:0|2:0,2:0:0:0:
384,207,146336,1,8,2:0:0:0:
229,173,146524,6,0,P|144:153|75:145,1,132,8|0,2:3|2:0,2:0:0:0:
75,154,146899,1,8,2:0:0:0:
131,275,147086,1,10,2:0:0:0:
131,275,147180,1,8,2:0:0:0:
131,275,147274,1,8,2:0:0:0:
77,69,147461,1,8,2:0:0:0:
58,57,147555,1,8,2:0:0:0:
36,52,147649,6,0,P|44:148|49:249,1,176,6|0,3:2|2:0,2:0:0:0:
48,227,148211,1,2,2:0:0:0:
141,130,148399,2,0,P|201:118|246:114,1,88,8|0,2:0|3:2,2:0:0:0:
219,208,148774,1,2,3:2:0:0:
304,7,148961,6,0,P|320:93|323:181,1,176,2|2,2:0|2:0,2:0:0:0:
323,181,149524,1,0,3:2:0:0:
481,65,149711,2,0,P|421:53|376:49,1,88,2|8,2:0|2:0,2:0:0:0:
323,181,150086,2,0,P|383:169|428:165,1,88,2|0,2:0|2:0,2:0:0:0:
479,256,150461,1,0,3:2:0:0:
374,330,150649,5,2,3:2:0:0:
409,166,150836,1,2,2:0:0:0:
456,347,151024,5,2,2:0:0:0:
292,313,151211,2,0,P|223:299|178:291,1,88,2|8,2:0|2:0,2:0:0:0:
234,166,151586,2,0,P|277:174|320:183,1,88,2|0,3:2|3:2,2:0:0:0:
136,207,151961,2,0,P|93:216|50:225,1,88,2|0,2:0|2:0,2:0:0:0:
21,95,152336,2,0,P|64:86|108:78,1,88,2|0,2:0|3:2,2:0:0:0:
214,46,152711,1,2,2:0:0:0:
234,166,152899,1,8,2:0:0:0:
214,46,153086,2,0,P|268:25|306:29,2,88,2|0|2,3:2|2:0|2:0,2:0:0:0:
142,190,153649,6,0,P|152:267|157:396,1,176,0|0,3:2|2:0,2:0:0:0:
157,365,154211,1,2,2:0:0:0:
240,247,154399,2,0,P|283:253|327:259,1,88,8|0,2:0|3:2,2:0:0:0:
142,190,154774,1,0,3:2:0:0:
142,190,154961,2,0,P|74:200|95:104,1,176,2|0,2:0|2:0,2:0:0:0:
168,21,155524,2,0,P|154:81|155:116,1,88,0|0,3:2|2:0,2:0:0:0:
279,162,155899,2,0,P|321:150|365:148,1,88,8|0,2:0|2:0,2:0:0:0:
465,206,156274,1,2,2:0:0:0:
509,33,156461,1,8,2:0:0:0:
509,33,156555,1,8,2:0:0:0:
509,33,156649,5,0,3:2:0:0:
378,62,156836,2,0,P|366:104|364:148,1,88,8|0,2:0|2:0,2:0:0:0:
364,148,157211,1,0,3:2:0:0:
407,293,157399,1,8,2:0:0:0:
441,206,157586,1,8,2:0:0:0:
473,357,157774,1,2,2:0:0:0:
318,318,157961,6,0,P|264:300|175:289,1,132,8|0,2:0|2:0,2:0:0:0:
167,299,158336,1,8,2:0:0:0:
41,363,158524,1,0,3:2:0:0:
90,227,158711,1,8,2:0:0:0:
90,227,158805,1,8,2:0:0:0:
90,227,158899,5,8,2:0:0:0:
253,274,159086,1,8,2:0:0:0:
84,124,159274,5,8,2:0:0:0:
327,94,159461,1,8,2:0:0:0:
256,192,159649,5,2,2:0:0:0:
193,154,168508,6,0,L|184:124,2,20,0|0|0,2:0|2:0|2:0,2:0:0:0:
187,178,168649,6,0,P|206:255|211:335,1,160,2|2,3:2|2:0,2:0:0:0:
348,268,169211,1,0,3:2:0:0:
348,268,169305,1,0,3:2:0:0:
348,268,169399,2,0,P|404:259|431:257,1,80,10|0,2:0|2:0,2:0:0:0:
474,339,169774,1,10,2:0:0:0:
293,192,169961,6,0,P|282:119|282:5,1,176,4|8,3:2|2:0,2:0:0:0:
355,75,170524,1,10,2:3:0:0:
206,166,170711,1,4,2:3:0:0:
348,268,170899,5,10,2:0:0:0:
257,95,171086,1,8,2:0:0:0:
257,95,171180,1,8,2:0:0:0:
257,95,171274,1,8,2:0:0:0:
84,186,171461,1,8,2:0:0:0:
175,359,171649,6,0,P|182:278|200:172,2,176,6|0|10,3:2|2:0|2:0,2:0:0:0:
175,359,172586,1,0,3:2:0:0:
113,219,172774,2,0,P|107:262|103:306,1,88,0|0,3:2|2:0,2:0:0:0:
341,121,173149,6,0,P|258:101|165:93,1,176,2|2,2:0|3:2,2:0:0:0:
167,93,173711,1,2,2:0:0:0:
315,28,173899,2,0,P|274:17|228:14,1,88,10|0,2:0|2:0,2:0:0:0:
198,184,174274,2,0,P|242:187|285:197,1,88,2|0,2:0|3:2,2:0:0:0:
140,88,174649,6,0,P|115:143|133:262,2,176,2|2|10,3:2|2:0|2:0,2:0:0:0:
140,88,175586,1,0,3:2:0:0:
301,23,175774,1,2,3:2:0:0:
250,196,175961,2,0,P|237:153|227:111,1,88,0|0,2:0|2:0,2:0:0:0:
227,111,176336,1,2,2:0:0:0:
384,60,176524,1,0,3:2:0:0:
424,150,176711,1,2,2:0:0:0:
323,132,176899,5,8,2:0:0:0:
489,72,177086,1,0,3:2:0:0:
293,49,177274,5,0,2:0:0:0:
449,222,177461,1,0,2:0:0:0:
225,265,177649,6,0,P|161:227|50:219,2,176,2|0|10,3:2|2:0|2:0,2:0:0:0:
225,265,178586,1,0,3:2:0:0:
318,370,178774,1,0,3:2:0:0:
150,384,178961,2,0,P|134:342|135:284,1,88,2|0,2:0|2:0,2:0:0:0:
132,299,179336,1,2,2:0:0:0:
44,227,179524,5,0,3:2:0:0:
129,216,179711,1,2,2:0:0:0:
57,316,179899,5,10,2:0:0:0:
7,162,180086,1,2,2:0:0:0:
161,112,180274,1,2,2:0:0:0:
211,266,180461,1,0,3:2:0:0:
78,100,180649,6,0,P|162:79|265:65,1,176,6|0,3:2|2:0,2:0:0:0:
317,16,181211,1,2,2:0:0:0:
355,125,181399,2,0,P|412:139|452:144,1,88,8|2,2:0|3:2,2:0:0:0:
440,142,181774,1,0,3:2:0:0:
289,81,181961,5,10,2:0:0:0:
229,233,182149,1,8,2:0:0:0:
329,175,182336,1,0,3:2:0:0:
169,126,182524,1,8,2:0:0:0:
121,286,182711,1,8,2:0:0:0:
245,161,182899,5,0,3:2:0:0:
281,335,183086,1,8,2:0:0:0:
281,335,183180,1,8,2:0:0:0:
281,335,183274,1,8,2:0:0:0:
459,378,183461,1,8,2:0:0:0:
473,346,183555,1,8,2:0:0:0:
466,311,183649,6,0,P|454:225|459:138,2,176,6|0|10,3:2|2:0|2:0,2:0:0:0:
466,311,184586,1,0,3:2:0:0:
347,212,184774,2,0,P|304:219|262:231,1,88,0|0,3:2|2:0,2:0:0:0:
127,219,185149,5,2,2:0:0:0:
127,219,185336,2,0,P|152:285|152:339,1,88,2|0,2:0|3:2,2:0:0:0:
153,301,185711,1,2,2:0:0:0:
189,124,185899,2,0,P|233:131|275:143,1,88,10|0,2:0|2:0,2:0:0:0:
376,323,186274,2,0,P|333:330|291:342,1,88,2|0,2:0|3:2,2:0:0:0:
321,71,186649,6,0,P|356:150|332:233,2,176,2|2|10,3:2|2:0|2:0,2:0:0:0:
321,71,187586,1,0,3:2:0:0:
248,206,187774,1,2,3:2:0:0:
187,34,187961,2,0,P|99:16|13:14,1,176,2|0,2:0|2:0,2:0:0:0:
125,188,188524,6,0,P|138:134|136:78,1,88,2|0,3:2|2:0,2:0:0:0:
23,181,188899,2,0,P|36:127|34:71,1,88,10|0,2:0|3:2,2:0:0:0:
160,354,189274,1,2,2:0:0:0:
160,354,189649,6,0,B|248:315|248:383|355:334,1,176,2|2,3:2|2:0,2:0:0:0:
331,343,190211,1,2,2:0:0:0:
454,270,190399,2,0,P|463:323|458:373,1,88,10|0,2:0|3:2,2:0:0:0:
281,259,190774,2,0,P|272:206|277:156,1,88,2|0,3:2|2:0,2:0:0:0:
392,105,191149,1,2,2:0:0:0:
384,191,191336,1,2,2:0:0:0:
197,44,191524,6,0,P|282:34|316:31,1,88,2|0,3:2|2:0,2:0:0:0:
274,172,191899,2,0,P|231:176|187:182,1,88,10|0,2:0|2:0,2:0:0:0:
83,190,192274,1,2,2:0:0:0:
61,33,192461,1,0,3:2:0:0:
186,182,192649,6,0,B|203:259|164:243|186:322,1,132,0|0,3:2|2:0,2:0:0:0:
242,356,193024,2,0,P|293:362|339:373,1,88,2|0,2:0|2:0,2:0:0:0:
385,153,193399,2,0,P|343:162|299:167,1,88,10|0,2:0|3:2,2:0:0:0:
357,241,193774,1,2,3:2:0:0:
268,52,193961,1,8,2:0:0:0:
356,83,194149,1,2,2:0:0:0:
256,243,194336,5,8,2:0:0:0:
217,146,194524,1,10,2:3:0:0:
120,185,194711,1,4,2:3:0:0:
304,157,194899,5,10,2:0:0:0:
141,70,195086,1,8,2:0:0:0:
141,70,195180,1,8,2:0:0:0:
141,70,195274,1,8,2:0:0:0:
159,282,195461,1,8,2:0:0:0:
371,264,195649,6,0,P|370:180|339:55,2,176,6|0|10,3:2|2:0|2:0,2:0:0:0:
371,264,196586,1,0,3:2:0:0:
271,166,196774,2,0,P|212:152|176:149,1,88,0|0,3:2|2:0,2:0:0:0:
322,63,197149,6,0,P|408:44|496:43,1,176,2|0,2:0|3:2,2:0:0:0:
495,42,197711,1,2,2:0:0:0:
421,218,197899,2,0,P|404:153|391:100,1,88,10|0,2:0|2:0,2:0:0:0:
209,127,198274,2,0,P|197:84|186:42,1,88,2|0,2:0|3:2,2:0:0:0:
119,269,198649,6,0,P|200:244|298:248,2,176,2|2|10,3:2|2:0|2:0,2:0:0:0:
119,269,199586,1,0,3:2:0:0:
209,333,199774,1,2,3:2:0:0:
195,166,199961,1,0,2:0:0:0:
362,152,200149,2,0,P|380:213|382:318,1,132,2|0,2:0|2:0,2:0:0:0:
389,299,200524,6,0,P|431:308|491:306,1,88,2|0,3:2|2:0,2:0:0:0:
414,81,200899,2,0,P|386:112|357:165,1,88,10|0,2:0|3:2,2:0:0:0:
296,324,201274,2,0,P|283:283|252:232,1,88,2|0,2:0|2:0,2:0:0:0:
66,124,201649,6,0,P|151:98|237:80,2,176,6|0|10,3:2|2:0|2:0,2:0:0:0:
21,46,202586,1,0,3:2:0:0:
131,187,202774,2,0,P|182:171|234:160,1,88,2|0,3:2|2:0,2:0:0:0:
330,27,203149,2,0,P|280:11|228:0,1,88,2|2,2:0|2:0,2:0:0:0:
88,17,203524,5,2,3:2:0:0:
175,42,203711,1,2,2:0:0:0:
42,132,203899,5,10,2:0:0:0:
178,122,204086,1,2,2:0:0:0:
21,281,204274,5,2,2:0:0:0:
208,197,204461,1,2,3:2:0:0:
292,384,204649,6,0,P|365:358|478:351,1,176,2|0,3:2|2:0,2:0:0:0:
462,349,205211,1,2,2:0:0:0:
387,186,205399,2,0,P|384:231|394:293,1,88,10|2,2:0|3:2,2:0:0:0:
301,258,205774,5,2,3:2:0:0:
498,240,205961,1,0,2:0:0:0:
279,180,206149,5,2,2:0:0:0:
422,113,206336,1,2,2:0:0:0:
222,130,206524,5,2,3:2:0:0:
306,46,206711,1,2,2:0:0:0:
147,107,206899,5,10,2:0:0:0:
185,26,207086,1,2,3:2:0:0:
107,36,207274,5,2,2:0:0:0:
222,130,207461,1,2,2:0:0:0:
222,130,207555,1,2,2:0:0:0:
222,130,207649,6,0,P|230:219|230:309,1,180,2|0,2:0|2:0,2:0:0:0:
229,309,208399,2,0,P|265:307|297:306,1,60.0000000000002,2|0,2:0|2:0,2:0:0:0:
194,215,208774,2,0,P|165:216|135:218,1,60.0000000000001,2|0,2:0|2:0,2:0:0:0:
110,218,209055,1,2,2:0:0:0:
110,218,209149,2,0,P|41:143|137:109,1,240.000000000001,2|2,2:0|2:0,2:0:0:0:
478,211,210649,6,0,P|471:166|460:125,1,80,6|2,3:2|2:0,2:0:0:0:
399,226,211024,2,0,P|438:216|478:210,1,80,2|0,2:0|2:0,2:0:0:0:
453,88,211399,1,10,2:0:0:0:
333,115,211586,1,0,3:2:0:0:
280,228,211774,1,2,3:2:0:0:
280,228,211961,6,0,P|192:201|94:208,1,160,2|2,2:0|2:0,2:0:0:0:
124,201,212524,2,0,P|107:149|95:115,1,80,2|2,3:2|2:0,2:0:0:0:
179,23,212899,2,0,P|141:34|103:47,1,80,10|2,2:0|2:0,2:0:0:0:
202,99,213274,2,0,P|190:61|178:22,1,80,2|2,2:0|3:2,2:0:0:0:
286,140,213649,6,0,P|343:121|339:25,1,160,2|2,3:2|2:0,2:0:0:0:
345,32,214211,1,2,2:0:0:0:
453,116,214399,2,0,P|442:158|444:215,1,80,10|0,2:0|3:2,2:0:0:0:
494,310,214774,1,2,3:2:0:0:
494,310,214961,6,0,P|428:288|325:286,1,160,2|2,2:0|2:0,2:0:0:0:
338,284,215524,2,0,P|343:343|349:378,1,80,2|2,3:2|2:0,2:0:0:0:
236,266,215899,2,0,P|242:324|248:359,1,80,10|2,2:0|3:2,2:0:0:0:
189,188,216274,2,0,P|248:182|283:176,1,80,2|2,2:0|2:0,2:0:0:0:
109,258,216649,6,0,P|103:177|82:89,1,160,2|2,3:2|2:0,2:0:0:0:
85,100,217211,1,2,2:0:0:0:
44,18,217399,2,0,P|84:10|135:2,1,80,10|0,2:0|3:2,2:0:0:0:
218,138,217774,1,2,3:2:0:0:
218,138,217961,6,0,P|290:123|382:109,1,160,2|2,2:0|2:0,2:0:0:0:
375,109,218524,2,0,P|376:59|358:30,1,80,2|2,3:2|2:0,2:0:0:0:
309,205,218899,2,0,P|352:231|386:230,1,80,10|2,2:0|2:0,2:0:0:0:
415,336,219274,2,0,P|371:359|355:389,1,80,2|2,2:0|3:2,2:0:0:0:
240,376,219649,6,0,P|239:296|222:218,1,160,2|2,3:2|2:0,2:0:0:0:
222,218,220211,1,2,2:0:0:0:
84,294,220399,2,0,P|118:256|150:247,1,80,10|0,2:0|3:2,2:0:0:0:
299,212,220774,1,2,3:2:0:0:
124,90,220961,6,0,P|137:158|145:280,1,160,2|2,2:0|2:0,2:0:0:0:
144,248,221524,1,2,3:2:0:0:
61,176,221711,1,0,2:0:0:0:
222,80,221899,2,0,P|258:63|311:55,1,80,10|0,2:0|3:2,2:0:0:0:
387,251,222274,2,0,P|351:234|298:226,1,80,2|0,2:0|2:0,2:0:0:0:
367,0,222649,6,0,P|378:82|338:149,1,160,6|0,3:2|2:0,2:0:0:0:
340,146,223211,1,2,2:0:0:0:
216,72,223399,2,0,P|252:55|305:47,1,80,10|0,2:0|3:2,2:0:0:0:
414,286,223774,6,0,P|348:254|249:239,1,160,2|0,3:2|2:0,2:0:0:0:
263,239,224336,1,2,2:0:0:0:
155,348,224524,2,0,P|96:355|58:362,1,80,0|0,3:2|2:0,2:0:0:0:
25,223,224899,2,0,P|65:216|105:212,1,80,10|0,2:0|2:0,2:0:0:0:
93,132,225274,2,0,P|100:171|104:211,1,80,2|0,2:0|3:2,2:0:0:0:
2,65,225649,6,0,P|80:46|160:36,1,160,2|0,3:2|2:0,2:0:0:0:
159,36,226211,1,2,2:0:0:0:
270,114,226399,2,0,P|289:148|287:188,1,80,10|0,2:0|3:2,2:0:0:0:
266,28,226774,6,0,P|346:37|424:56,1,160,2|0,3:2|2:0,2:0:0:0:
423,55,227336,1,2,2:0:0:0:
487,148,227524,2,0,P|469:182|470:222,1,80,0|0,3:2|2:0,2:0:0:0:
366,273,227899,1,10,2:0:0:0:
433,351,228086,1,0,3:2:0:0:
310,208,228274,2,0,P|345:189|385:190,1,80,2|0,2:0|2:0,2:0:0:0:
232,330,228649,6,0,P|219:251|181:173,1,160,2|0,3:2|2:0,2:0:0:0:
185,179,229211,1,2,2:0:0:0:
64,314,229399,2,0,P|96:289|135:282,1,80,10|0,2:0|3:2,2:0:0:0:
262,119,229774,6,0,P|231:94|116:113,1,160,2|0,3:2|2:0,2:0:0:0:
119,109,230336,1,2,2:0:0:0:
212,340,230524,2,0,P|218:280|234:222,1,120,2|0,3:2|2:0,2:0:0:0:
299,259,230899,2,0,P|290:297|286:337,1,80,10|0,2:0|2:0,2:0:0:0:
286,337,231274,1,2,2:0:0:0:
437,303,231461,1,0,3:2:0:0:
379,163,231649,6,0,P|297:118|199:126,1,160,2|0,3:2|2:0,2:0:0:0:
232,116,232211,1,2,2:0:0:0:
315,41,232399,2,0,P|354:45|394:51,1,80,8|0,2:0|3:2,2:0:0:0:
282,210,232774,1,2,3:2:0:0:
282,210,232961,6,0,P|202:204|134:164,1,160,0|0,2:0|2:0,2:0:0:0:
134,164,233524,1,0,3:2:0:0:
49,133,233711,1,0,2:0:0:0:
83,251,233899,1,8,2:0:0:0:
134,164,234086,1,2,3:2:0:0:
0,198,234274,1,2,2:0:0:0:
35,331,234461,1,2,2:0:0:0:
