osu file format v14

[General]
AudioFilename: audio.mp3
AudioLeadIn: 0
PreviewTime: 82305
Countdown: 0
SampleSet: Soft
StackLeniency: 1
Mode: 0
LetterboxInBreaks: 0
WidescreenStoryboard: 1

[Editor]
Bookmarks: 5149,17149,29149,41149,44149,56149,71149,83149,95149,107149,123649,135649,147649,159649,171649,183649,195649,210649,222649,234649
DistanceSpacing: 2
BeatDivisor: 16
GridSize: 32
TimelineZoom: 2.5

[Metadata]
Title:Hatsukoi
TitleUnicode:初恋
Artist:KAMI WA SAIKORO WO FURANAI x AYUNi D(BiSH/PEDRO) x n-buna from Yorushika
ArtistUnicode:神はサイコロを振らない × アユニ・D(BiSH/PEDRO) × n-buna from ヨルシカ
Creator:Mujina
Version:Hard
Source:
Tags:Airiesu midorijeon first love kamisai 柳田周作 Shusaku Yanagida 伊藤亜佑子 Ito Ayuko nabuna ナブナ male female vocal duo japanese pop j-pop jpop rock j-rock jrock
BeatmapID:3141426
BeatmapSetID:1527868

[Difficulty]
HPDrainRate:4
CircleSize:4
OverallDifficulty:6.5
ApproachRate:7.8
SliderMultiplier:2.8
SliderTickRate:1

[Events]
//Background and Video events
0,0,"Erw48ExVgAIfKB5.jpg",0,0
//Break Periods
2,41349,43370
2,95349,100370
2,159849,167870
//Storyboard Layer 0 (Background)
//Storyboard Layer 1 (Fail)
//Storyboard Layer 2 (Pass)
//Storyboard Layer 3 (Foreground)
//Storyboard Layer 4 (Overlay)
//Storyboard Sound Samples

[TimingPoints]
682,731.707317073171,4,2,1,45,1,0
1048,606.060606060606,4,2,1,45,1,0
1656,800.000000000001,4,2,1,45,1,0
2029,1318.68131868132,4,2,1,45,1,0
2695,1285.48473486877,4,2,1,45,1,0
3980,1176.47058823529,4,2,1,45,1,0
5149,750,4,2,1,70,1,0
17149,-111.111111111111,4,2,1,60,0,0
44149,750,4,2,1,80,1,1
44149,-90.9090909090909,4,2,1,80,0,1
53430,-90.9090909090909,4,2,1,5,0,1
53524,-90.9090909090909,4,2,1,80,0,1
68055,-90.9090909090909,4,2,1,5,0,1
68149,-133.333333333333,4,2,1,60,0,0
71149,750,4,2,1,70,1,0
71149,-100,4,2,1,70,0,0
95149,-100,4,2,1,60,0,0
101149,-200,4,2,1,60,0,0
106024,-111.111111111111,4,2,1,60,0,0
107149,-111.111111111111,4,2,1,65,0,0
119149,-133.333333333333,4,2,1,65,0,0
121399,-400,4,2,1,65,0,0
122149,-400,4,2,1,5,0,0
123649,750,4,2,1,80,1,1
123649,-90.9090909090909,4,2,1,80,0,1
159649,-90.9090909090909,4,2,1,60,0,0
168649,-100,4,2,1,60,0,0
169961,-90.9090909090909,4,2,1,65,0,1
171649,-90.9090909090909,4,2,1,80,0,1
192930,-90.9090909090909,4,2,1,5,0,1
193024,-90.9090909090909,4,2,1,80,0,1
207555,-90.9090909090909,4,2,1,5,0,1
207649,-133.333333333333,4,2,1,60,0,0
210649,750,4,2,1,70,1,0
210649,-100,4,2,1,70,0,0

[Colours]
Combo1 : 145,167,216
Combo2 : 227,136,53
Combo3 : 194,80,54
Combo4 : 129,96,175

[HitObjects]
141,60,5149,6,0,P|210:45|280:47,1,140,6|2,3:2|2:0,2:0:0:0:
279,46,5711,1,0,2:0:0:0:
366,98,5899,2,0,P|374:139|372:175,1,70,10|0,2:0|3:2,2:0:0:0:
315,243,6274,1,2,3:2:0:0:
364,323,6461,6,0,P|419:365|494:346,1,140,2|2,2:0|2:0,2:0:0:0:
476,263,7024,2,0,L|480:178,1,70,2|2,3:2|2:0,2:0:0:0:
446,104,7399,2,0,L|450:19,1,70,10|2,2:0|2:0,2:0:0:0:
366,158,7774,2,0,L|362:227,1,70,2|2,2:0|3:2,2:0:0:0:
289,99,8149,6,0,B|214:78|224:133|135:104,1,140,2|2,3:2|2:0,2:0:0:0:
152,108,8711,1,2,2:0:0:0:
80,58,8899,2,0,P|34:48|1:47,1,70,10|0,2:0|3:2,2:0:0:0:
2,140,9274,1,2,3:2:0:0:
73,202,9461,6,0,P|136:219|143:304,1,140,2|2,2:0|2:0,2:0:0:0:
152,285,10024,2,0,L|162:362,1,70,2|2,3:2|2:0,2:0:0:0:
246,284,10399,2,0,L|255:214,1,70,10|2,2:0|3:2,2:0:0:0:
335,285,10774,2,0,L|345:355,1,70,2|2,2:0|2:0,2:0:0:0:
437,357,11149,6,0,P|478:341|477:251,1,140,2|2,3:2|2:0,2:0:0:0:
481,255,11711,1,2,2:0:0:0:
425,186,11899,2,0,P|462:173|498:173,1,70,10|0,2:0|3:2,2:0:0:0:
498,71,12274,1,2,3:2:0:0:
424,15,12461,6,0,P|346:23|299:71,1,140,2|2,2:0|2:0,2:0:0:0:
303,63,13024,2,0,P|268:49|244:22,1,70,2|2,3:2|2:0,2:0:0:0:
201,98,13399,2,0,P|172:71|159:38,1,70,10|2,2:0|2:0,2:0:0:0:
100,104,13774,2,0,P|82:69|81:33,1,70,2|2,2:0|3:2,2:0:0:0:
3,129,14149,6,0,P|38:197|36:274,1,140,2|2,3:2|2:0,2:0:0:0:
39,259,14711,1,2,2:0:0:0:
56,356,14899,2,0,P|99:351|132:346,1,70,10|0,2:0|3:2,2:0:0:0:
212,373,15274,1,2,3:2:0:0:
221,277,15461,6,0,P|251:229|344:255,1,140,2|2,2:0|2:0,2:0:0:0:
327,233,16024,2,0,P|363:232|399:233,1,70,2|2,3:2|2:0,2:0:0:0:
365,329,16399,2,0,P|399:328|434:329,1,70,10|2,2:0|3:2,2:0:0:0:
492,258,16774,1,2,2:0:0:0:
492,258,16961,1,2,2:0:0:0:
421,170,17149,6,0,P|407:113|446:46,1,126,6|0,3:2|2:0,2:0:0:0:
322,190,17899,1,8,2:0:0:0:
322,190,18086,1,0,3:2:0:0:
250,140,18274,2,0,P|202:131|169:130,1,63.0000000000001,0|2,3:2|2:0,2:0:0:0:
117,108,18649,2,0,P|113:139|107:170,1,63.0000000000001,2|2,2:0|2:0,2:0:0:0:
106,170,19024,2,0,P|109:201|115:232,1,63.0000000000001,2|2,3:2|2:0,2:0:0:0:
115,232,19399,2,0,P|111:263|105:294,2,63.0000000000001,10|2|2,2:0|3:2|3:2,2:0:0:0:
33,246,19961,1,2,3:2:0:0:
33,246,20149,6,0,P|22:163|36:100,1,126,0|2,3:2|2:0,2:0:0:0:
213,13,20899,1,8,2:0:0:0:
213,13,21086,1,0,3:2:0:0:
289,66,21274,2,0,L|434:43,2,126,0|0|0,3:2|2:0|3:2,2:0:0:0:
188,198,22399,6,0,P|179:235|189:272,1,63.0000000000001,10|2,2:0|3:2,2:0:0:0:
234,320,22774,2,0,P|237:351|229:381,1,63.0000000000001,2|2,2:0|2:0,2:0:0:0:
288,252,23149,2,0,P|355:240|429:234,1,126,0|2,3:2|2:0,2:0:0:0:
465,98,23899,1,8,2:0:0:0:
465,98,24086,1,0,3:2:0:0:
381,128,24274,2,0,P|390:56|399:-9,2,126,0|0|0,3:2|2:0|3:2,2:0:0:0:
219,196,25399,5,8,2:0:0:0:
219,196,25586,2,0,P|205:230|212:265,1,63.0000000000001,0|0,3:2|3:2,2:0:0:0:
194,344,25961,1,2,3:2:0:0:
194,344,26149,2,0,P|225:339|256:335,1,63.0000000000001,2|2,3:2|2:0,2:0:0:0:
256,334,26524,2,0,P|287:338|318:342,1,63.0000000000001,2|2,2:0|2:0,2:0:0:0:
318,342,26899,2,0,P|349:337|380:333,2,63.0000000000001,8|2|2,2:0|3:2|3:2,2:0:0:0:
357,258,27461,6,0,P|369:198|353:129,1,126,2|2,2:0|2:0,2:0:0:0:
300,82,28024,1,0,3:2:0:0:
159,13,28399,1,8,2:0:0:0:
159,13,28586,1,0,3:2:0:0:
130,94,28774,1,0,3:2:0:0:
51,252,29149,6,0,P|0:203|38:148,1,126,6|0,3:2|2:0,2:0:0:0:
135,297,29899,1,8,2:0:0:0:
135,297,30086,1,0,3:2:0:0:
211,343,30274,2,0,P|213:311|222:281,1,63.0000000000001,0|2,3:2|2:0,2:0:0:0:
259,217,30649,2,0,P|261:187|265:150,1,63.0000000000001,2|2,2:0|2:0,2:0:0:0:
264,154,31024,2,0,P|261:124|257:87,1,63.0000000000001,2|2,3:2|2:0,2:0:0:0:
257,91,31399,2,0,P|259:61|263:24,2,63.0000000000001,10|2|2,2:0|3:2|3:2,2:0:0:0:
332,135,31961,1,2,3:2:0:0:
332,135,32149,6,0,P|401:118|475:125,1,126,0|2,3:2|2:0,2:0:0:0:
494,299,32899,1,8,2:0:0:0:
494,299,33086,1,0,3:2:0:0:
412,335,33274,2,0,P|413:269|419:206,2,126,0|0|0,3:2|2:0|3:2,2:0:0:0:
335,369,34211,5,2,2:0:0:0:
335,369,34399,2,0,P|296:336|276:333,1,63.0000000000001,10|2,2:0|3:2,2:0:0:0:
208,329,34774,2,0,P|169:362|149:365,1,63.0000000000001,2|2,2:0|2:0,2:0:0:0:
76,377,35149,2,0,P|70:314|61:238,1,126,0|2,3:2|2:0,2:0:0:0:
4,90,35899,1,8,2:0:0:0:
4,90,36086,1,0,3:2:0:0:
89,66,36274,2,0,P|123:57|157:50,1,63.0000000000001,0|2,3:2|2:0,2:0:0:0:
231,10,36649,6,0,P|239:40|245:71,1,63.0000000000001,2|2,2:0|2:0,2:0:0:0:
245,71,37024,2,0,P|236:101|230:132,1,63.0000000000001,2|2,3:2|2:0,2:0:0:0:
229,132,37399,2,0,P|237:162|243:193,2,63.0000000000001,10|2|2,2:0|3:2|3:2,2:0:0:0:
308,124,37961,1,2,3:2:0:0:
308,124,38149,6,0,P|356:83|438:81,1,126,0|0,3:2|2:0,2:0:0:0:
394,253,38899,1,8,2:0:0:0:
394,253,39086,1,0,3:2:0:0:
306,259,39274,2,0,P|311:318|324:391,2,126,0|0|0,3:2|2:0|3:2,2:0:0:0:
155,176,40399,1,8,2:0:0:0:
155,176,40586,1,0,3:2:0:0:
74,214,40774,1,2,2:0:0:0:
29,43,41149,5,2,2:0:0:0:
39,98,44149,6,0,P|123:68|202:49,2,154,6|0|10,3:2|2:0|2:0,2:0:0:0:
39,98,45086,1,0,3:2:0:0:
100,193,45274,2,0,P|97:245|90:277,1,77,0|0,3:2|2:0,2:0:0:0:
55,369,45649,2,0,P|131:352|233:351,1,154,2|2,2:0|3:2,2:0:0:0:
206,348,46211,1,0,2:0:0:0:
312,378,46399,2,0,P|312:335|318:289,1,77,10|0,2:0|2:0,2:0:0:0:
400,238,46774,2,0,P|400:195|394:149,1,77,2|0,2:0|3:2,2:0:0:0:
314,100,47149,6,0,P|370:68|480:67,2,154,2|2|10,3:2|2:0|2:0,2:0:0:0:
314,100,48086,1,0,3:2:0:0:
228,158,48274,1,2,3:2:0:0:
228,158,48461,6,0,P|172:126|62:125,1,154,2|0,2:0|2:0,2:0:0:0:
84,119,49024,2,0,P|81:77|87:38,1,77,2|0,3:2|2:0,2:0:0:0:
145,192,49399,2,0,P|148:234|142:273,1,77,10|0,2:0|3:2,2:0:0:0:
111,370,49774,1,2,2:0:0:0:
289,248,50149,6,0,B|380:227|352:276|440:255,1,154,2|2,3:2|2:0,2:0:0:0:
439,255,50711,1,0,2:0:0:0:
448,157,50899,2,0,P|410:150|371:149,1,77,10|0,2:0|3:2,2:0:0:0:
279,166,51274,2,0,P|221:142|111:132,1,154,2|2,3:2|2:0,2:0:0:0:
25,347,52024,6,0,P|29:308|40:272,1,77,2|0,3:2|2:0,2:0:0:0:
116,218,52399,2,0,P|146:241|172:269,1,77,10|0,2:0|2:0,2:0:0:0:
182,361,52774,2,0,P|146:376|109:384,1,77,2|0,2:0|3:2,2:0:0:0:
172,269,53149,6,0,P|232:260|296:256,1,115.5,2|0,3:2|2:0,2:0:0:0:
315,258,53524,2,0,P|314:296|308:334,1,77,2|0,2:0|2:0,2:0:0:0:
411,350,53899,2,0,P|458:343|494:344,1,77,10|0,2:0|3:2,2:0:0:0:
481,243,54274,1,2,3:2:0:0:
481,243,54461,2,0,P|473:188|476:158,1,77,8|2,2:0|2:0,2:0:0:0:
494,65,54836,5,8,2:0:0:0:
494,65,55024,2,0,P|452:39|405:37,1,77,10|4,2:3|2:3,2:0:0:0:
341,102,55399,1,10,2:0:0:0:
312,195,55586,1,8,2:0:0:0:
312,195,55680,1,8,2:0:0:0:
312,195,55774,1,8,2:0:0:0:
232,125,55961,1,8,2:0:0:0:
190,225,56149,6,0,P|115:237|29:254,2,154,6|0|10,3:2|2:0|2:0,2:0:0:0:
190,225,57086,1,0,3:2:0:0:
278,292,57274,2,0,P|278:332|285:371,1,77,2|0,3:2|2:0,2:0:0:0:
393,369,57649,2,0,P|399:301|363:204,1,154,2|2,2:0|3:2,2:0:0:0:
373,220,58211,1,0,2:0:0:0:
276,178,58399,2,0,P|237:172|199:168,1,77,10|0,2:0|2:0,2:0:0:0:
131,249,58774,2,0,P|92:252|54:258,1,77,2|0,2:0|3:2,2:0:0:0:
4,165,59149,6,0,P|1:79|29:10,2,154,2|2|10,3:2|2:0|2:0,2:0:0:0:
4,165,60086,1,0,3:2:0:0:
99,115,60274,1,2,3:2:0:0:
99,115,60461,6,0,P|171:89|267:84,1,154,2|0,2:0|2:0,2:0:0:0:
247,82,61024,2,0,P|254:24|250:-10,1,77,2|0,3:2|2:0,2:0:0:0:
334,124,61399,2,0,P|333:162|339:200,1,77,10|0,2:0|3:2,2:0:0:0:
367,306,61774,1,2,2:0:0:0:
158,361,62149,6,0,P|99:304|23:318,2,154,6|0|10,3:2|2:0|2:0,2:0:0:0:
158,361,63086,1,0,3:2:0:0:
264,380,63274,2,0,P|268:323|258:292,1,77,2|0,3:2|2:0,2:0:0:0:
199,217,63649,2,0,P|151:248|119:253,1,77,2|2,2:0|2:0,2:0:0:0:
33,242,64024,5,2,3:2:0:0:
33,242,64211,1,2,2:0:0:0:
90,164,64399,1,10,2:0:0:0:
90,164,64586,1,2,2:0:0:0:
175,210,64774,1,2,2:0:0:0:
175,210,64961,1,2,3:2:0:0:
226,128,65149,6,0,B|310:109|292:156|385:133,2,154,2|0|10,3:2|2:0|2:0,2:0:0:0:
226,128,66086,1,2,3:2:0:0:
169,40,66274,2,0,P|213:18|255:17,1,77,2|0,3:2|2:0,2:0:0:0:
338,59,66649,5,2,2:0:0:0:
338,59,66836,1,2,2:0:0:0:
414,128,67024,1,2,3:2:0:0:
414,128,67211,1,2,2:0:0:0:
331,181,67399,1,10,2:0:0:0:
331,181,67586,1,2,3:2:0:0:
262,112,67774,2,0,P|204:132|140:96,1,115.5,2|0,2:0|2:0,2:0:0:0:
116,87,68149,6,0,P|101:149|107:255,1,157.5,2|0,2:0|2:0,2:0:0:0:
104,242,68899,2,0,P|62:237|41:235,1,52.5000000000001,2|0,2:0|2:0,2:0:0:0:
33,317,69274,2,0,P|59:319|85:323,1,52.5000000000001,2|0,2:0|2:0,2:0:0:0:
171,357,69649,2,0,P|225:287|269:364,1,210.000000000001,0|2,2:0|2:0,2:0:0:0:
463,287,71149,6,0,P|396:254|323:240,1,140,6|2,3:2|2:0,2:0:0:0:
257,314,71711,1,0,2:0:0:0:
257,314,71899,2,0,P|253:279|247:244,1,70,10|0,2:0|3:2,2:0:0:0:
167,205,72274,1,2,3:2:0:0:
119,280,72461,6,0,P|63:274|39:192,1,140,2|2,2:0|2:0,2:0:0:0:
35,202,73024,2,0,P|16:152|19:117,1,70,2|2,3:2|2:0,2:0:0:0:
101,97,73399,2,0,P|122:47|149:25,1,70,10|2,2:0|2:0,2:0:0:0:
223,53,73774,2,0,P|273:33|308:36,1,70,2|2,2:0|3:2,2:0:0:0:
341,137,74149,6,0,P|280:120|261:180,1,140,2|2,3:2|2:0,2:0:0:0:
261,180,74711,1,2,2:0:0:0:
331,243,74899,2,0,P|316:289|315:313,1,70,10|0,2:0|3:2,2:0:0:0:
228,360,75274,1,2,3:2:0:0:
133,374,75461,6,0,P|112:300|112:229,1,140,2|2,2:0|2:0,2:0:0:0:
111,237,76024,2,0,P|153:225|189:226,1,70,2|2,3:2|2:0,2:0:0:0:
254,173,76399,2,0,P|267:215|266:251,1,70,10|2,2:0|3:2,2:0:0:0:
320,315,76774,2,0,P|278:327|242:326,1,70,2|2,2:0|2:0,2:0:0:0:
267,240,77149,6,0,P|347:222|432:212,1,140,2|2,3:2|2:0,2:0:0:0:
404,214,77711,1,2,2:0:0:0:
471,147,77899,2,0,P|477:102|480:64,1,70,10|0,2:0|3:2,2:0:0:0:
410,22,78274,1,2,3:2:0:0:
350,89,78461,6,0,P|294:109|219:62,1,140,2|2,2:0|2:0,2:0:0:0:
226,73,79024,2,0,P|219:135|219:165,1,70,2|2,3:2|2:0,2:0:0:0:
144,189,79399,2,0,P|149:223|151:258,1,70,10|2,2:0|2:0,2:0:0:0:
75,127,79774,2,0,P|77:92|82:57,1,70,2|2,2:0|3:2,2:0:0:0:
0,203,80149,6,0,P|44:226|52:316,1,140,2|2,3:2|2:0,2:0:0:0:
55,309,80711,1,2,2:0:0:0:
130,369,80899,2,0,P|161:354|191:335,1,70,10|0,2:0|3:2,2:0:0:0:
254,271,81274,1,2,3:2:0:0:
303,352,81461,6,0,P|381:334|448:311,1,140,2|2,2:0|2:0,2:0:0:0:
437,314,82024,2,0,P|450:351|463:385,1,70,2|2,3:2|2:0,2:0:0:0:
406,229,82399,2,0,P|438:216|471:205,1,70,10|0,2:0|3:2,2:0:0:0:
324,271,82774,2,0,P|311:238|300:205,1,70,2|0,2:0|2:0,2:0:0:0:
215,150,83149,6,0,P|279:123|348:109,1,140,6|0,3:2|2:0,2:0:0:0:
347,109,83711,1,0,2:0:0:0:
404,34,83899,2,0,P|456:36|500:48,1,70,10|0,2:0|3:2,2:0:0:0:
486,134,84274,6,0,P|474:181|482:279,1,140,2|0,3:2|2:0,2:0:0:0:
479,271,84836,1,2,2:0:0:0:
415,340,85024,2,0,P|375:327|336:319,1,70,0|0,3:2|2:0,2:0:0:0:
268,284,85399,2,0,P|259:334|249:364,1,70,10|0,2:0|3:2,2:0:0:0:
160,327,85774,2,0,P|169:277|179:247,1,70,2|0,3:2|3:2,2:0:0:0:
230,178,86149,6,0,P|165:151|95:146,1,140,2|0,3:2|2:0,2:0:0:0:
96,145,86711,1,2,2:0:0:0:
26,91,86899,2,0,P|18:57|26:23,1,70,10|0,2:0|3:2,2:0:0:0:
111,58,87274,6,0,P|176:31|246:26,1,140,2|0,3:2|2:0,2:0:0:0:
244,25,87836,1,2,2:0:0:0:
327,83,88024,2,0,P|361:78|399:76,1,70,0|0,3:2|2:0,2:0:0:0:
473,140,88399,1,10,2:0:0:0:
473,140,88586,1,0,3:2:0:0:
470,229,88774,2,0,P|436:224|398:222,1,70,2|0,2:0|2:0,2:0:0:0:
310,203,89149,6,0,P|307:239|315:346,1,140,2|0,3:2|2:0,2:0:0:0:
314,342,89711,1,0,2:0:0:0:
227,314,89899,2,0,P|179:305|147:303,1,70,10|0,2:0|3:2,2:0:0:0:
79,356,90274,6,0,P|65:302|75:220,1,140,2|0,3:2|2:0,2:0:0:0:
75,219,90836,1,2,2:0:0:0:
162,182,91024,2,0,P|196:174|231:171,1,70,2|0,3:2|2:0,2:0:0:0:
312,127,91399,2,0,P|319:161|322:196,1,70,10|0,2:0|2:0,2:0:0:0:
410,143,91774,2,0,P|444:135|479:132,1,70,2|0,2:0|3:2,2:0:0:0:
477,35,92149,6,0,P|444:12|341:50,1,140,2|0,3:2|2:0,2:0:0:0:
352,33,92711,1,2,2:0:0:0:
268,76,92899,2,0,P|261:36|254:5,1,70,8|0,2:0|3:2,2:0:0:0:
178,62,93274,1,2,3:2:0:0:
114,129,93461,6,0,P|134:197|137:289,1,140,0|0,2:0|2:0,2:0:0:0:
138,265,94024,2,0,P|88:270|62:282,1,70,0|0,3:2|2:0,2:0:0:0:
170,346,94399,2,0,P|204:346|238:357,1,70,8|0,2:0|3:2,2:0:0:0:
331,381,94774,1,2,2:0:0:0:
331,381,94961,1,2,2:0:0:0:
400,318,95149,1,6,3:2:0:0:
18,78,101149,6,0,P|69:67|123:55,1,105,0|2,3:2|2:0,2:0:0:0:
180,110,101899,1,2,2:0:0:0:
61,216,102274,1,0,2:0:0:0:
61,216,102461,6,0,P|112:205|166:193,1,105,2|2,2:0|2:0,2:0:0:0:
212,360,103586,1,2,2:0:0:0:
301,287,103961,1,2,2:0:0:0:
301,287,104149,2,0,P|341:290|386:298,1,70,2|2,2:0|2:0,2:0:0:0:
387,214,104711,2,0,P|352:208|317:206,1,70,2|2,2:0|3:2,2:0:0:0:
241,205,105274,1,2,3:2:0:0:
241,205,105461,2,0,P|246:170|248:135,1,70,2|2,2:0|2:0,2:0:0:0:
188,72,106024,6,0,P|152:62|115:61,1,63.0000000000001,10|6,2:3|2:3,2:0:0:0:
53,125,106399,1,8,2:0:0:0:
134,192,106586,1,8,2:3:0:0:
134,192,106680,1,8,2:3:0:0:
134,192,106774,1,4,2:3:0:0:
59,254,106961,1,4,2:3:0:0:
145,313,107149,6,0,P|219:292|288:295,2,126,6|0|8,3:2|2:0|2:0,2:0:0:0:
145,313,108086,1,0,3:2:0:0:
71,350,108274,2,0,P|64:311|66:276,1,63.0000000000001,0|2,3:2|2:0,2:0:0:0:
67,204,108649,2,0,P|97:210|129:210,1,63.0000000000001,2|2,2:0|2:0,2:0:0:0:
129,209,109024,2,0,P|159:202|191:202,1,63.0000000000001,2|2,3:2|2:0,2:0:0:0:
191,202,109399,2,0,P|221:208|253:208,2,63.0000000000001,10|2|2,2:0|3:2|3:2,2:0:0:0:
176,123,109961,1,2,3:2:0:0:
176,123,110149,6,0,P|176:70|215:5,1,126,0|2,3:2|2:0,2:0:0:0:
211,8,110711,1,0,2:0:0:0:
285,55,110899,2,0,P|335:45|359:43,1,63.0000000000001,8|0,2:0|3:2,2:0:0:0:
412,92,111274,2,0,P|403:131|402:221,2,126,0|0|0,3:2|2:0|3:2,2:0:0:0:
478,48,112211,5,2,2:0:0:0:
486,136,112399,1,10,2:0:0:0:
486,136,112586,2,0,P|481:155|481:200,1,63.0000000000001,2|0,3:2|2:0,2:0:0:0:
489,280,112961,1,2,2:0:0:0:
489,280,113149,6,0,P|414:298|356:349,1,126,0|2,3:2|2:0,2:0:0:0:
375,326,113711,1,0,2:0:0:0:
305,375,113899,2,0,P|289:329|286:297,1,63.0000000000001,8|0,2:0|3:2,2:0:0:0:
276,230,114274,6,0,P|193:242|140:264,2,126,0|0|0,3:2|2:0|3:2,2:0:0:0:
276,230,115211,1,2,2:0:0:0:
329,163,115399,2,0,P|368:160|395:157,1,63.0000000000001,10|2,2:0|3:2,2:0:0:0:
382,77,115774,2,0,P|350:80|319:82,1,63.0000000000001,2|2,3:2|3:2,2:0:0:0:
249,41,116149,6,0,P|232:79|142:90,1,126,0|2,3:2|2:0,2:0:0:0:
155,97,116711,1,0,2:0:0:0:
85,145,116899,2,0,P|33:137|11:137,1,63.0000000000001,8|0,2:0|3:2,2:0:0:0:
6,213,117274,2,0,P|9:255|31:343,1,126,0|0,3:2|2:0,2:0:0:0:
28,336,117836,1,2,2:0:0:0:
109,301,118024,2,0,P|153:311|186:321,1,63.0000000000001,0|0,3:2|2:0,2:0:0:0:
257,283,118399,1,8,2:0:0:0:
257,283,118586,1,0,3:2:0:0:
333,350,118774,1,2,2:0:0:0:
384,210,119149,6,0,P|455:200|488:196,2,105,2|2|10,3:2|2:0|2:0,2:0:0:0:
324,160,120086,1,0,3:2:0:0:
324,160,120274,2,0,P|310:123|316:102,1,52.5000000000001,2|0,3:2|2:0,2:0:0:0:
253,43,120649,2,0,L|366:25,1,105,2|2,2:0|3:2,2:0:0:0:
202,119,121399,6,0,L|179:113,1,17.5,2|2,2:0|2:0,2:0:0:0:
118,149,121774,2,0,P|111:130|111:112,1,35,2|0,2:0|2:0,2:0:0:0:
420,165,123649,6,0,P|441:215|449:337,2,154,6|0|8,3:2|2:0|2:0,2:0:0:0:
420,165,124586,1,0,3:2:0:0:
329,213,124774,1,0,3:2:0:0:
329,213,124961,2,0,P|263:199|168:191,1,154,0|0,2:0|2:0,2:0:0:0:
80,229,125524,2,0,P|69:273|76:309,1,77,0|0,3:2|2:0,2:0:0:0:
151,375,125899,1,10,2:0:0:0:
151,375,126086,2,0,B|252:366|184:328|300:315,1,154,2|2,2:0|3:2,2:0:0:0:
378,368,126649,6,0,P|438:362|436:275,1,154,2|0,3:2|2:0,2:0:0:0:
373,226,127211,1,2,2:0:0:0:
373,226,127399,2,0,P|364:177|380:142,1,77,10|2,2:0|3:2,2:0:0:0:
474,128,127774,2,0,P|483:177|467:212,1,77,2|2,3:2|2:0,2:0:0:0:
372,152,128149,6,0,P|324:139|287:134,1,77,2|2,2:0|2:0,2:0:0:0:
255,52,128524,2,0,P|217:58|180:69,1,77,2|2,3:2|2:0,2:0:0:0:
89,103,128899,2,0,P|115:148|113:193,1,77,10|0,2:0|3:2,2:0:0:0:
202,208,129274,2,0,P|176:253|178:298,1,77,2|0,2:0|2:0,2:0:0:0:
124,372,129649,2,0,P|88:337|14:343,2,115.5,2|2|0,3:2|2:0|2:0,2:0:0:0:
226,340,130399,6,0,P|274:333|312:332,1,77,8|0,2:0|3:2,2:0:0:0:
407,362,130774,1,2,3:2:0:0:
407,362,130961,2,0,P|398:293|383:195,1,154,2|2,2:0|2:0,2:0:0:0:
381,188,131430,1,2,2:0:0:0:
381,188,131524,1,2,3:2:0:0:
431,101,131711,1,2,2:0:0:0:
383,15,131899,2,0,P|345:22|307:29,1,77,8|2,2:0|2:0,2:0:0:0:
232,88,132274,2,0,P|214:42|216:4,1,77,2|2,2:0|3:2,2:0:0:0:
105,29,132649,6,0,P|131:81|127:185,1,154,2|0,3:2|2:0,2:0:0:0:
16,324,133399,1,10,2:0:0:0:
91,289,133586,1,2,3:2:0:0:
166,324,133774,1,2,3:2:0:0:
236,370,133961,6,0,P|262:318|258:214,1,154,10|10,2:0|2:0,2:0:0:0:
216,151,134524,2,0,P|242:128|303:111,1,77,10|10,2:3|2:3,2:0:0:0:
369,135,134899,1,10,2:0:0:0:
444,191,135086,2,0,L|489:183,2,38.5,10|8|10,2:0|2:0|2:0,2:0:0:0:
368,248,135461,1,10,2:0:0:0:
292,305,135649,6,0,P|226:288|122:288,2,154,6|0|8,3:2|2:0|2:0,2:0:0:0:
292,305,136586,1,0,3:2:0:0:
386,360,136774,2,0,P|444:344|536:344,2,115.5,2|2|2,3:2|2:0|2:0,2:0:0:0:
386,360,137524,1,0,3:2:0:0:
376,258,137711,2,0,P|373:197|381:172,1,77,2|8,2:0|2:0,2:0:0:0:
459,143,138086,2,0,P|462:82|454:57,1,77,2|0,2:0|2:0,2:0:0:0:
375,15,138461,1,2,3:2:0:0:
308,90,138649,6,0,P|268:88|219:78,1,77,2|2,3:2|2:0,2:0:0:0:
189,170,139024,2,0,P|229:172|278:182,1,77,2|2,2:0|2:0,2:0:0:0:
277,274,139399,2,0,P|220:262|162:260,1,115.5,10|2,2:0|2:0,2:0:0:0:
143,251,139774,2,0,P|141:317|88:360,1,115.5,0|2,3:2|2:0,2:0:0:0:
72,356,140149,2,0,P|36:312|38:255,1,115.5,0|2,2:0|2:0,2:0:0:0:
51,236,140524,2,0,P|41:190|41:150,1,77,0|0,3:2|2:0,2:0:0:0:
76,67,140899,1,8,2:0:0:0:
76,67,141086,1,0,3:2:0:0:
161,100,141274,1,2,2:0:0:0:
362,30,141649,6,0,P|361:87|376:184,2,154,6|0|8,3:2|2:0|2:0,2:0:0:0:
362,30,142586,1,0,3:2:0:0:
456,72,142774,1,2,3:2:0:0:
456,72,142961,2,0,P|455:100|462:148,1,77,2|0,2:0|2:0,2:0:0:0:
375,182,143336,2,0,P|375:210|345:341,1,154,2|2,2:0|2:0,2:0:0:0:
267,370,143899,2,0,P|249:322|249:285,1,77,8|2,2:0|2:0,2:0:0:0:
184,241,144274,1,2,2:0:0:0:
184,241,144461,1,2,3:2:0:0:
103,293,144649,6,0,P|90:247|97:214,1,77,2|2,3:2|2:0,2:0:0:0:
27,151,145024,2,0,P|50:109|78:90,1,77,2|2,2:0|2:0,2:0:0:0:
175,37,145399,2,0,L|167:131,1,77,10|0,2:0|3:2,2:0:0:0:
225,189,145774,1,2,3:2:0:0:
313,153,145961,6,0,B|390:140|378:183|466:163,1,154,10|8,2:0|2:0,2:0:0:0:
503,250,146524,2,0,L|491:334,1,77,8|8,2:3|2:3,2:0:0:0:
394,370,146899,1,8,2:0:0:0:
407,281,147086,2,0,L|412:242,2,38.5,10|8|8,2:0|2:0|2:0,2:0:0:0:
319,312,147461,1,8,2:0:0:0:
319,312,147555,1,8,2:0:0:0:
319,312,147649,6,0,P|243:327|169:347,2,154,6|0|8,3:2|2:0|2:0,2:0:0:0:
319,312,148586,1,0,3:2:0:0:
297,223,148774,1,2,3:2:0:0:
297,223,148961,2,0,P|308:181|299:147,1,77,2|0,2:0|2:0,2:0:0:0:
340,69,149336,2,0,P|298:58|264:67,1,77,2|0,2:0|3:2,2:0:0:0:
195,122,149711,6,0,P|147:132|109:142,1,77,2|8,2:0|2:0,2:0:0:0:
95,227,150086,2,0,P|143:237|181:247,1,77,2|0,2:0|2:0,2:0:0:0:
240,315,150461,1,0,3:2:0:0:
240,315,150649,6,0,P|250:267|260:229,1,77,2|2,3:2|2:0,2:0:0:0:
283,153,151024,1,2,2:0:0:0:
283,153,151211,2,0,P|343:131|379:135,1,77,2|8,2:0|2:0,2:0:0:0:
427,190,151586,2,0,P|487:212|523:208,1,77,2|0,3:2|3:2,2:0:0:0:
489,120,151961,2,0,L|499:35,1,77,2|0,2:0|2:0,2:0:0:0:
410,17,152336,2,0,L|401:93,1,77,2|0,2:0|3:2,2:0:0:0:
316,142,152711,2,0,P|280:147|242:132,1,77,2|8,2:0|2:0,2:0:0:0:
172,75,153086,2,0,P|136:70|98:85,1,77,2|0,3:2|2:0,2:0:0:0:
36,152,153461,1,2,2:0:0:0:
102,220,153649,6,0,P|70:314|59:375,2,154,0|0|8,3:2|2:0|2:0,2:0:0:0:
102,220,154586,1,0,3:2:0:0:
194,184,154774,1,0,3:2:0:0:
194,184,154961,2,0,P|237:172|273:178,1,77,2|0,2:0|2:0,2:0:0:0:
336,236,155336,1,0,2:0:0:0:
336,236,155524,2,0,P|386:233|423:234,1,77,0|0,3:2|2:0,2:0:0:0:
482,295,155899,6,0,P|497:226|453:153,1,154,8|2,2:0|2:0,2:0:0:0:
382,128,156461,2,0,L|332:140,2,38.5,8|8|0,2:0|2:0|3:2,2:0:0:0:
427,45,156836,2,0,P|385:9|284:41,1,154,8|0,2:0|3:2,2:0:0:0:
237,105,157399,1,8,2:0:0:0:
237,105,157586,2,0,P|194:109|154:97,1,77,8|0,2:0|2:0,2:0:0:0:
90,156,157961,2,0,P|73:201|59:243,1,77,8|0,2:0|2:0,2:0:0:0:
17,297,158336,6,0,P|53:309|89:323,1,77,8|0,2:0|3:2,2:0:0:0:
182,334,158711,2,0,L|172:384,2,38.5,8|8|8,2:0|2:0|2:0,2:0:0:0:
264,289,159086,1,8,2:0:0:0:
187,234,159274,1,8,2:0:0:0:
300,186,159461,1,8,2:0:0:0:
238,138,159649,5,2,2:0:0:0:
81,47,168649,6,0,P|112:103|125:198,1,140,2|2,3:2|2:0,2:0:0:0:
104,271,169211,1,0,3:2:0:0:
104,271,169305,1,0,3:2:0:0:
104,271,169399,1,10,2:0:0:0:
283,349,169774,1,10,2:0:0:0:
338,275,169961,6,0,B|417:247|417:307|499:280,1,154,4|8,3:2|2:0,2:0:0:0:
488,188,170524,1,10,2:3:0:0:
488,188,170711,1,4,2:3:0:0:
414,114,170899,1,10,2:0:0:0:
453,29,171086,2,0,L|501:23,2,38.5,8|8|8,2:0|2:0|2:0,2:0:0:0:
335,46,171461,1,8,2:0:0:0:
273,145,171649,6,0,P|196:133|120:121,2,154,6|0|10,3:2|2:0|2:0,2:0:0:0:
273,145,172586,1,0,3:2:0:0:
341,238,172774,2,0,P|334:285|329:329,1,77,0|0,3:2|2:0,2:0:0:0:
421,358,173149,2,0,P|429:281|441:205,1,154,2|2,2:0|3:2,2:0:0:0:
440,205,173711,1,2,2:0:0:0:
499,113,173899,2,0,P|460:103|414:93,1,77,10|0,2:0|2:0,2:0:0:0:
355,20,174274,2,0,P|317:28|280:37,1,77,2|0,2:0|3:2,2:0:0:0:
162,35,174649,6,0,P|203:81|218:192,2,154,2|2|10,3:2|2:0|2:0,2:0:0:0:
162,35,175586,1,0,3:2:0:0:
76,99,175774,1,2,3:2:0:0:
76,99,175961,6,0,P|55:156|58:261,1,154,0|2,2:0|2:0,2:0:0:0:
54,248,176524,2,0,P|108:238|133:240,1,77,0|2,3:2|2:0,2:0:0:0:
194,325,176899,2,0,P|232:325|269:316,1,77,8|0,2:0|3:2,2:0:0:0:
353,275,177274,2,0,P|362:312|361:350,1,77,0|0,2:0|2:0,2:0:0:0:
295,192,177649,6,0,P|371:193|446:212,2,154,2|0|10,3:2|2:0|2:0,2:0:0:0:
295,192,178586,1,0,3:2:0:0:
217,268,178774,1,0,3:2:0:0:
217,268,178961,2,0,P|163:244|55:237,1,154,2|2,2:0|2:0,2:0:0:0:
15,161,179524,2,0,P|17:109|31:73,1,77,0|2,3:2|2:0,2:0:0:0:
116,56,179899,2,0,P|114:108|100:144,1,77,10|2,2:0|2:0,2:0:0:0:
157,212,180274,1,2,2:0:0:0:
157,212,180461,1,0,3:2:0:0:
244,146,180649,6,0,P|302:135|410:132,1,154,6|0,3:2|2:0,2:0:0:0:
396,131,181211,2,0,P|405:76|406:41,1,77,2|8,2:0|2:0,2:0:0:0:
486,164,181586,2,0,P|483:202|476:240,1,77,2|0,3:2|3:2,2:0:0:0:
477,332,181961,5,10,2:0:0:0:
390,302,182149,2,0,P|331:283|295:277,1,77,8|0,2:0|3:2,2:0:0:0:
245,219,182524,1,8,2:0:0:0:
226,311,182711,2,0,P|188:319|152:332,1,77,8|0,2:0|3:2,2:0:0:0:
60,317,183086,2,0,L|11:322,2,38.5,8|8|8,2:0|2:0|2:0,2:0:0:0:
120,241,183461,1,8,2:0:0:0:
120,241,183555,1,8,2:0:0:0:
120,241,183649,6,0,P|104:149|71:58,2,154,6|0|10,3:2|2:0|2:0,2:0:0:0:
120,241,184586,1,0,3:2:0:0:
210,175,184774,2,0,P|264:164|374:193,1,154,0|2,3:2|2:0,2:0:0:0:
387,200,185242,1,2,2:0:0:0:
387,200,185336,2,0,P|361:251|374:353,1,154,2|2,2:0|2:0,2:0:0:0:
284,361,185899,2,0,P|245:350|206:345,1,77,10|0,2:0|2:0,2:0:0:0:
120,357,186274,2,0,P|131:318|136:279,1,77,2|0,2:0|3:2,2:0:0:0:
150,189,186649,6,0,P|73:196|0:220,2,154,2|2|10,3:2|2:0|2:0,2:0:0:0:
150,189,187586,1,0,3:2:0:0:
236,124,187774,1,2,3:2:0:0:
236,124,187961,6,0,P|312:131|386:155,1,154,2|0,2:0|2:0,2:0:0:0:
385,154,188524,2,0,P|381:110|383:77,1,77,2|0,3:2|2:0,2:0:0:0:
490,187,188899,2,0,P|491:225|487:263,1,77,10|0,2:0|3:2,2:0:0:0:
459,364,189274,1,2,2:0:0:0:
323,222,189649,6,0,B|240:196|252:247|165:221,1,154,2|2,3:2|2:0,2:0:0:0:
172,223,190211,1,2,2:0:0:0:
72,258,190399,2,0,P|75:215|80:177,1,77,10|0,2:0|3:2,2:0:0:0:
44,81,190774,2,0,P|87:84|125:89,1,77,2|0,3:2|2:0,2:0:0:0:
221,60,191149,2,0,P|218:103|213:141,1,77,2|2,2:0|2:0,2:0:0:0:
120,88,191524,6,0,P|127:48|108:-5,1,77,2|0,3:2|2:0,2:0:0:0:
44,153,191899,2,0,P|37:193|56:246,1,77,10|0,2:0|2:0,2:0:0:0:
109,294,192274,2,0,P|104:341|97:376,1,77,2|0,2:0|3:2,2:0:0:0:
195,346,192649,6,0,P|259:319|329:321,1,115.5,0|0,3:2|2:0,2:0:0:0:
341,320,193024,2,0,P|352:265|357:240,1,77,2|0,2:0|2:0,2:0:0:0:
451,269,193399,2,0,P|462:214|467:189,1,77,10|0,2:0|3:2,2:0:0:0:
512,114,193774,1,2,3:2:0:0:
444,57,193961,2,0,P|411:30|370:27,1,77,8|2,2:0|2:0,2:0:0:0:
345,117,194336,5,8,2:0:0:0:
345,117,194524,2,0,P|286:132|245:141,1,77,10|4,2:3|2:3,2:0:0:0:
189,90,194899,1,10,2:0:0:0:
143,180,195086,1,8,2:0:0:0:
143,180,195180,1,8,2:0:0:0:
143,180,195274,1,8,2:0:0:0:
61,112,195461,1,8,2:0:0:0:
22,213,195649,6,0,P|38:302|44:369,2,154,6|0|10,3:2|2:0|2:0,2:0:0:0:
22,213,196586,1,0,3:2:0:0:
124,262,196774,2,0,P|177:255|213:252,1,77,0|0,3:2|2:0,2:0:0:0:
292,301,197149,2,0,P|287:227|268:127,1,154,2|0,2:0|3:2,2:0:0:0:
273,148,197711,1,2,2:0:0:0:
360,80,197899,2,0,P|408:81|450:87,1,77,10|0,2:0|2:0,2:0:0:0:
478,179,198274,2,0,P|430:180|388:186,1,77,2|0,2:0|3:2,2:0:0:0:
352,277,198649,6,0,P|449:279|534:291,2,154,2|2|10,3:2|2:0|2:0,2:0:0:0:
352,277,199586,1,0,3:2:0:0:
273,355,199774,1,2,3:2:0:0:
273,355,199961,6,0,P|200:332|116:335,1,154,0|0,2:0|2:0,2:0:0:0:
123,333,200524,2,0,P|113:280|114:249,1,77,2|0,3:2|2:0,2:0:0:0:
31,214,200899,2,0,P|61:168|84:147,1,77,10|0,2:0|3:2,2:0:0:0:
50,64,201274,2,0,P|103:53|134:54,1,77,2|0,2:0|2:0,2:0:0:0:
234,25,201649,6,0,P|221:76|225:200,2,154,6|0|10,3:2|2:0|2:0,2:0:0:0:
234,25,202586,1,0,3:2:0:0:
328,80,202774,2,0,P|382:71|420:67,1,77,2|0,3:2|2:0,2:0:0:0:
426,172,203149,2,0,P|387:176|349:183,1,77,2|2,2:0|2:0,2:0:0:0:
264,242,203524,5,2,3:2:0:0:
264,242,203711,1,2,2:0:0:0:
323,319,203899,1,10,2:0:0:0:
323,319,204086,1,2,2:0:0:0:
232,336,204274,1,2,2:0:0:0:
232,336,204461,1,2,3:2:0:0:
137,365,204649,6,0,P|117:284|111:186,1,154,2|0,3:2|2:0,2:0:0:0:
110,213,205211,1,2,2:0:0:0:
45,145,205399,2,0,P|41:89|59:51,1,77,10|2,2:0|3:2,2:0:0:0:
134,26,205774,5,2,3:2:0:0:
134,26,205961,1,0,2:0:0:0:
212,84,206149,1,2,2:0:0:0:
212,84,206336,1,2,2:0:0:0:
191,180,206524,1,2,3:2:0:0:
191,180,206711,1,2,2:0:0:0:
281,147,206899,2,0,P|323:142|373:162,1,77,10|2,2:0|3:2,2:0:0:0:
409,238,207274,2,0,P|372:283|360:356,1,115.5,0|0,2:0|2:0,2:0:0:0:
352,381,207649,6,0,P|271:353|185:340,1,157.5,2|0,2:0|2:0,2:0:0:0:
200,341,208399,2,0,P|203:314|205:288,1,52.5000000000001,2|0,2:0|2:0,2:0:0:0:
117,318,208774,2,0,P|114:344|111:370,1,52.5000000000001,2|0,2:0|2:0,2:0:0:0:
31,366,209149,2,0,P|44:261|54:157,1,210.000000000001,2|2,2:0|2:0,2:0:0:0:
78,48,210649,6,0,P|126:57|228:54,1,140,6|2,3:2|2:0,2:0:0:0:
317,50,211211,1,0,2:0:0:0:
317,50,211399,2,0,P|320:84|327:119,1,70,10|0,2:0|3:2,2:0:0:0:
386,193,211774,1,2,3:2:0:0:
398,289,211961,6,0,P|333:317|334:399,1,140,2|2,2:0|2:0,2:0:0:0:
323,379,212524,2,0,P|289:369|255:366,1,70,2|2,3:2|2:0,2:0:0:0:
163,378,212899,2,0,P|167:343|176:310,1,70,10|2,2:0|2:0,2:0:0:0:
148,218,213274,2,0,P|182:228|216:231,1,70,2|2,2:0|3:2,2:0:0:0:
287,167,213649,6,0,P|274:98|249:13,1,140,2|2,3:2|2:0,2:0:0:0:
255,30,214211,1,2,2:0:0:0:
347,55,214399,2,0,P|389:45|433:44,1,70,10|0,2:0|3:2,2:0:0:0:
483,107,214774,1,2,3:2:0:0:
484,198,214961,6,0,P|465:265|452:334,1,140,2|2,2:0|2:0,2:0:0:0:
451,334,215524,2,0,P|393:319|357:317,1,70,2|2,3:2|2:0,2:0:0:0:
307,366,215899,2,0,P|248:350|212:348,1,70,10|2,2:0|3:2,2:0:0:0:
223,260,216274,2,0,P|281:244|317:242,1,70,2|2,2:0|2:0,2:0:0:0:
135,292,216649,6,0,P|116:224|87:154,1,140,2|2,3:2|2:0,2:0:0:0:
90,160,217211,1,2,2:0:0:0:
17,111,217399,2,0,P|51:79|88:73,1,70,10|0,2:0|3:2,2:0:0:0:
165,94,217774,1,2,3:2:0:0:
243,151,217961,6,0,B|325:133|298:180|402:154,1,140,2|2,2:0|2:0,2:0:0:0:
380,158,218524,2,0,P|373:113|370:87,1,70,2|2,3:2|2:0,2:0:0:0:
458,40,218899,2,0,P|462:74|468:109,1,70,10|2,2:0|2:0,2:0:0:0:
481,199,219274,2,0,P|485:234|492:268,1,70,2|2,2:0|3:2,2:0:0:0:
440,341,219649,6,0,P|392:320|383:220,1,140,2|2,3:2|2:0,2:0:0:0:
372,240,220211,1,2,2:0:0:0:
287,278,220399,2,0,P|258:263|217:254,1,70,10|0,2:0|3:2,2:0:0:0:
165,329,220774,1,2,3:2:0:0:
80,367,220961,6,0,P|53:304|69:237,1,140,2|2,2:0|2:0,2:0:0:0:
69,236,221524,2,0,P|58:197|57:163,1,70,2|0,3:2|2:0,2:0:0:0:
46,76,221899,2,0,P|85:64|119:63,1,70,10|0,2:0|3:2,2:0:0:0:
206,60,222274,2,0,P|217:99|218:133,1,70,2|0,2:0|2:0,2:0:0:0:
263,229,222649,6,0,P|332:177|319:115,1,140,6|0,3:2|2:0,2:0:0:0:
328,131,223211,1,2,2:0:0:0:
395,66,223399,2,0,P|441:57|495:54,1,70,10|0,2:0|3:2,2:0:0:0:
479,149,223774,6,0,P|494:225|499:315,1,140,2|0,3:2|2:0,2:0:0:0:
498,287,224336,1,2,2:0:0:0:
433,355,224524,2,0,P|378:345|342:337,1,70,0|0,3:2|2:0,2:0:0:0:
284,299,224899,2,0,P|277:333|271:367,1,70,10|0,2:0|2:0,2:0:0:0:
182,351,225274,2,0,P|187:316|194:282,1,70,2|0,2:0|3:2,2:0:0:0:
150,200,225649,6,0,P|99:167|10:185,1,140,2|0,3:2|2:0,2:0:0:0:
23,176,226211,1,2,2:0:0:0:
33,80,226399,2,0,P|40:34|50:5,1,70,10|0,2:0|3:2,2:0:0:0:
131,61,226774,6,0,P|196:44|283:39,1,140,2|0,3:2|2:0,2:0:0:0:
268,38,227336,1,2,2:0:0:0:
348,101,227524,2,0,P|381:95|428:89,1,70,0|0,3:2|2:0,2:0:0:0:
398,189,227899,1,10,2:0:0:0:
398,189,228086,1,0,3:2:0:0:
315,237,228274,2,0,P|282:231|235:225,1,70,2|0,2:0|2:0,2:0:0:0:
164,266,228649,6,0,P|154:209|221:151,1,140,2|0,3:2|2:0,2:0:0:0:
207,153,229211,1,2,2:0:0:0:
141,90,229399,2,0,P|95:80|56:78,1,70,10|0,2:0|3:2,2:0:0:0:
16,157,229774,6,0,P|60:210|63:278,1,140,2|0,3:2|2:0,2:0:0:0:
62,278,230336,1,2,2:0:0:0:
125,361,230524,2,0,P|166:351|196:351,1,70,2|0,3:2|2:0,2:0:0:0:
274,301,230899,2,0,P|284:342|284:372,1,70,10|0,2:0|2:0,2:0:0:0:
375,322,231274,2,0,P|416:332|446:332,1,70,2|0,2:0|3:2,2:0:0:0:
493,248,231649,6,0,P|490:178|460:98,1,140,2|0,3:2|2:0,2:0:0:0:
467,112,232211,1,2,2:0:0:0:
384,151,232399,2,0,P|345:141|297:139,1,70,8|0,2:0|3:2,2:0:0:0:
230,160,232774,1,2,3:2:0:0:
158,233,232961,6,0,P|171:291|183:386,1,140,0|0,2:0|2:0,2:0:0:0:
181,370,233524,2,0,P|230:375|255:380,1,70,0|0,3:2|2:0,2:0:0:0:
325,318,233899,2,0,P|359:324|394:327,1,70,8|2,2:0|3:2,2:0:0:0:
256,256,234274,1,2,2:0:0:0:
256,256,234461,1,2,2:0:0:0:
