osu file format v14

[General]
AudioFilename: audio.mp3
AudioLeadIn: 0
PreviewTime: 116839
Countdown: 1
SampleSet: Drum
StackLeniency: 0.7
Mode: 0
LetterboxInBreaks: 0
WidescreenStoryboard: 1

[Editor]
DistanceSpacing: 1.4
BeatDivisor: 4
GridSize: 32
TimelineZoom: 1.9

[Metadata]
Title:Vespertine (My Crimson Bride)
TitleUnicode:Vespertine (My Crimson Bride)
Artist:KAMELOT
ArtistUnicode:KAMELOT
Creator:LMT
Version:ar9.3
Source:
Tags:thomas youngblood symphonic power metal
BeatmapID:3401158
BeatmapSetID:1000057

[Difficulty]
HPDrainRate:5
CircleSize:4
OverallDifficulty:9
ApproachRate:9.3
SliderMultiplier:1.8
SliderTickRate:1

[Events]
//Background and Video events
0,0,"vespertine bg.jpg",0,0
//Break Periods
//Storyboard Layer 0 (Background)
//Storyboard Layer 1 (Fail)
//Storyboard Layer 2 (Pass)
//Storyboard Layer 3 (Foreground)
//Storyboard Layer 4 (Overlay)
//Storyboard Sound Samples

[TimingPoints]
339,285.714285714286,4,3,0,50,1,0
339,-100,4,3,0,50,0,0
59767,-200,4,3,0,50,0,0
66624,-100,4,3,0,50,0,0
68910,-83.3333333333333,4,3,0,50,0,1
87196,-83.3333333333333,4,3,0,50,0,0
91767,-100,4,3,0,50,0,0
110053,-200,4,3,0,50,0,0
116910,-100,4,3,0,50,0,0
119196,-83.3333333333333,4,3,0,50,0,1
137481,-83.3333333333333,4,3,0,50,0,0
138053,-100,4,3,0,50,0,0
192339,-83.3333333333333,4,3,0,50,0,1
210624,-76.9230769230769,4,3,0,50,0,1
228910,-83.3333333333333,4,3,0,50,0,0

[Colours]
Combo1 : 255,128,128
Combo2 : 128,64,64
Combo3 : 128,64,0
Combo4 : 255,128,64

[HitObjects]
77,106,339,6,0,P|157:113|162:217,1,180,4|0,1:0|1:0,0:0:0:0:
89,222,767,1,0,0:0:0:0:
271,150,910,2,0,L|256:255,1,90,2|4,0:0|0:0,0:0:0:0:
367,344,1196,1,0,1:0:0:0:
356,247,1339,1,0,0:0:0:0:
494,190,1481,2,0,P|439:188|382:83,1,180,4|2,0:0|0:0,0:0:0:0:
291,26,1910,1,4,0:0:0:0:
292,35,2196,5,4,0:0:0:0:
257,29,2267,1,4,0:0:0:0:
220,20,2339,2,0,B|195:113|195:113|146:139,1,135,0|0,1:0|0:0,0:0:0:0:
254,170,2624,6,0,P|206:143|133:236,1,180,4|0,1:0|1:0,0:0:0:0:
327,129,3053,1,0,0:0:0:0:
331,213,3196,2,0,L|316:318,1,90,2|4,0:0|0:0,0:0:0:0:
200,367,3482,1,0,1:0:0:0:
167,288,3625,1,0,0:0:0:0:
189,378,3767,2,0,P|134:376|77:271,1,180,4|2,0:0|0:0,0:0:0:0:
30,196,4196,1,4,0:0:0:0:
151,85,4339,1,2,0:0:0:0:
58,73,4481,1,0,0:0:0:0:
214,197,4624,5,4,0:0:0:0:
231,156,4695,1,4,0:0:0:0:
266,128,4766,1,4,0:0:0:0:
310,122,4838,1,4,0:0:0:0:
352,138,4910,6,0,P|292:145|277:18,1,180,4|0,1:0|1:0,0:0:0:0:
339,234,5339,1,2,0:0:0:0:
342,244,5624,1,2,0:0:0:0:
252,265,5767,2,0,L|139:292,1,90,0|0,1:0|0:0,0:0:0:0:
432,190,6053,2,0,B|426:320|426:320|458:381,1,180,4|0,0:0|1:0,0:0:0:0:
437,106,6481,1,4,0:0:0:0:
444,95,6767,5,4,0:0:0:0:
418,80,6839,1,4,0:0:0:0:
386,62,6910,1,0,1:0:0:0:
291,105,7053,1,4,0:0:0:0:
182,26,7196,5,4,1:0:0:0:
147,111,7339,1,4,0:0:0:0:
194,37,7481,2,0,L|167:246,1,180,0|0,1:0|0:0,0:0:0:0:
258,193,7910,1,0,0:0:0:0:
153,113,8053,1,0,1:0:0:0:
194,300,8196,1,0,0:0:0:0:
392,227,8339,6,0,L|371:332,1,90,4|0,0:0|0:0,0:0:0:0:
457,360,8624,1,0,1:0:0:0:
291,273,8767,1,0,0:0:0:0:
478,186,8910,1,2,0:0:0:0:
468,275,9053,1,4,0:0:0:0:
386,131,9196,5,4,0:0:0:0:
356,97,9267,1,4,0:0:0:0:
317,76,9338,1,4,0:0:0:0:
272,71,9410,1,4,0:0:0:0:
229,83,9481,6,0,P|323:80|350:0,1,180,4|0,1:0|1:0,0:0:0:0:
177,155,9910,1,0,0:0:0:0:
147,68,10053,2,0,P|124:42|52:27,1,90,2|0,0:0|0:0,0:0:0:0:
263,184,10339,1,0,1:0:0:0:
115,237,10481,1,4,0:0:0:0:
359,264,10624,6,0,P|283:272|244:373,1,180,4|0,0:0|1:0,0:0:0:0:
343,171,11053,1,0,0:0:0:0:
377,356,11196,1,2,0:0:0:0:
446,269,11339,1,4,0:0:0:0:
455,236,11410,1,4,0:0:0:0:
465,204,11481,1,0,1:0:0:0:
354,270,11624,1,4,0:0:0:0:
370,83,11767,6,0,B|277:59|302:134|162:91,1,180,4|0,1:0|1:0,0:0:0:0:
123,39,12196,1,0,0:0:0:0:
51,99,12339,1,0,0:0:0:0:
124,161,12481,1,4,0:0:0:0:
58,314,12624,1,0,1:0:0:0:
23,233,12767,1,0,0:0:0:0:
158,257,12910,6,0,L|178:351,1,90,4|0,0:0|0:0,0:0:0:0:
283,182,13196,2,0,L|271:297,1,90,0|0,1:0|0:0,0:0:0:0:
459,90,13481,1,0,0:0:0:0:
419,181,13624,1,0,0:0:0:0:
332,83,13767,1,0,1:0:0:0:
302,49,13838,1,4,0:0:0:0:
263,27,13909,1,4,0:0:0:0:
218,21,13981,1,4,0:0:0:0:
175,30,14053,6,0,B|216:40|216:40|357:11,1,180,4|0,1:0|1:0,0:0:0:0:
86,52,14481,1,0,0:0:0:0:
161,108,14624,2,0,B|182:134|182:134|196:222,1,90,2|0,0:0|0:0,0:0:0:0:
331,244,14910,2,0,P|280:304|240:271,1,135,0|0,1:0|0:0,0:0:0:0:
313,230,15196,2,0,B|400:269|388:191|519:258,1,180,4|0,0:0|1:0,0:0:0:0:
281,150,15624,1,4,0:0:0:0:
270,140,15910,5,4,0:0:0:0:
297,127,15982,1,4,0:0:0:0:
332,112,16053,1,0,1:0:0:0:
369,17,16196,1,4,0:0:0:0:
203,197,16339,5,4,1:0:0:0:
38,133,16481,1,4,0:0:0:0:
151,23,16624,2,0,L|174:120,1,90,0|0,1:0|0:0,0:0:0:0:
333,307,16910,5,4,0:0:0:0:
451,244,17053,1,4,0:0:0:0:
252,267,17196,2,0,L|236:362,1,90,0|0,1:0|0:0,0:0:0:0:
373,206,17481,5,4,0:0:0:0:
371,170,17552,1,4,0:0:0:0:
369,134,17623,1,4,0:0:0:0:
367,98,17695,1,4,0:0:0:0:
365,62,17767,2,0,L|356:-18,1,45,0|0,1:0|0:0,0:0:0:0:
441,129,17909,5,4,0:0:0:0:
405,131,17981,1,4,0:0:0:0:
369,134,18052,1,4,0:0:0:0:
333,136,18123,1,4,0:0:0:0:
300,138,18196,2,0,L|213:144,1,45,0|0,1:0|0:0,0:0:0:0:
451,129,18339,2,0,L|495:126,1,45,0|0,1:0|0:0,0:0:0:0:
359,54,18481,2,0,L|356:9,1,45,0|0,1:0|0:0,0:0:0:0:
304,265,18624,6,0,L|189:276,2,90,4|4|4,1:0|0:0|0:0,0:0:0:0:
140,251,19053,1,0,0:0:0:0:
385,279,19196,2,0,L|198:298,1,180,0|0,1:0|0:0,0:0:0:0:
477,280,19624,2,0,L|360:294,1,90,4|0,0:0|0:0,0:0:0:0:
503,208,19910,1,4,0:0:0:0:
211,317,20053,2,0,L|306:307,1,90,4|0,0:0|0:0,0:0:0:0:
456,105,20339,5,0,1:0:0:0:
343,148,20481,1,8,0:0:0:0:
247,102,20624,1,4,0:0:0:0:
175,129,20767,1,4,0:0:0:0:
167,223,20910,6,0,L|282:212,2,90,4|4|4,1:0|0:0|0:0,0:0:0:0:
355,232,21339,1,0,0:0:0:0:
104,268,21482,2,0,B|124:243|124:243|278:229,1,180,0|0,1:0|0:0,0:0:0:0:
18,290,21910,2,0,L|135:276,1,90,4|0,0:0|0:0,0:0:0:0:
42,201,22196,1,4,0:0:0:0:
282,248,22339,2,0,L|187:258,1,90,4|0,0:0|0:0,0:0:0:0:
92,51,22624,5,0,1:0:0:0:
180,150,22767,1,0,1:0:0:0:
34,126,22910,1,0,1:0:0:0:
251,67,23053,1,0,1:0:0:0:
374,266,23196,6,0,L|363:356,1,90,4|0,1:0|0:0,0:0:0:0:
456,238,23481,2,0,P|386:235|389:122,1,180,0|0,1:0|0:0,0:0:0:0:
360,128,24053,1,0,1:0:0:0:
480,100,24196,1,0,0:0:0:0:
412,66,24339,2,0,B|374:101|374:101|208:126,1,180,0|0,0:0|1:0,0:0:0:0:
83,94,24910,1,0,0:0:0:0:
69,168,25053,1,4,0:0:0:0:
59,78,25196,2,0,B|90:176|90:176|83:227,1,135,0|0,1:0|0:0,0:0:0:0:
76,253,25481,6,0,P|104:284|104:352,1,90,4|0,0:0|0:0,0:0:0:0:
57,261,25767,2,0,L|272:274,1,180,0|0,1:0|0:0,0:0:0:0:
313,281,26339,1,0,1:0:0:0:
313,281,26910,1,0,1:0:0:0:
288,142,27196,5,0,0:0:0:0:
351,179,27339,1,4,0:0:0:0:
215,161,27481,1,0,1:0:0:0:
215,161,27767,6,0,L|199:60,1,90,4|0,1:0|0:0,0:0:0:0:
255,224,28053,2,0,B|215:183|215:183|55:171,1,180,0|0,1:0|0:0,0:0:0:0:
18,169,28624,1,0,1:0:0:0:
18,169,29196,1,0,1:0:0:0:
185,346,29481,5,0,0:0:0:0:
248,303,29624,1,4,0:0:0:0:
110,342,29767,2,0,L|268:311,1,135,0|0,1:0|0:0,0:0:0:0:
264,336,30053,6,0,P|304:297|365:285,1,90,4|0,1:0|0:0,0:0:0:0:
287,222,30339,2,0,P|335:248|402:158,1,180,0|0,1:0|0:0,0:0:0:0:
455,109,30910,1,0,1:0:0:0:
455,109,31481,1,0,1:0:0:0:
245,39,31767,5,2,0:0:0:0:
286,160,31910,1,4,0:0:0:0:
235,251,32053,1,0,1:0:0:0:
265,325,32196,1,2,0:0:0:0:
135,242,32339,6,0,L|124:332,1,90,4|0,1:0|0:0,0:0:0:0:
18,123,32624,2,0,B|47:157|47:157|50:300,1,180,0|0,1:0|0:0,0:0:0:0:
122,19,33196,1,0,1:0:0:0:
113,29,33482,2,0,B|151:64|151:64|317:89,1,180,0|0,0:0|1:0,0:0:0:0:
397,190,34053,1,0,0:0:0:0:
407,179,34339,2,0,B|438:277|438:277|431:328,1,135,0|0,1:0|0:0,0:0:0:0:
422,314,34624,6,0,P|380:319|330:367,1,90,4|0,0:0|0:0,0:0:0:0:
241,184,34910,2,0,L|254:399,1,180,0|0,1:0|0:0,0:0:0:0:
319,216,35339,1,0,0:0:0:0:
185,131,35481,2,0,P|268:144|289:51,2,180,0|0|0,1:0|0:0|1:0,0:0:0:0:
14,185,36339,5,0,0:0:0:0:
72,313,36481,1,4,0:0:0:0:
78,229,36624,2,0,L|54:332,1,90,0|0,1:0|0:0,0:0:0:0:
223,345,36910,5,4,1:0:0:0:
175,245,37053,1,0,0:0:0:0:
218,331,37196,2,0,B|254:304|254:304|287:161,1,180,0|0,1:0|0:0,0:0:0:0:
191,153,37624,1,0,0:0:0:0:
348,286,37767,2,0,B|361:222|361:222|398:190,1,90,0|0,1:0|0:0,0:0:0:0:
289,54,38053,5,4,0:0:0:0:
360,83,38196,1,4,0:0:0:0:
273,70,38339,2,0,L|471:49,1,180,0|0,1:0|0:0,0:0:0:0:
199,40,38767,1,4,0:0:0:0:
155,145,38910,1,0,1:0:0:0:
141,142,39196,5,4,0:0:0:0:
57,121,39339,1,4,0:0:0:0:
32,210,39481,1,0,1:0:0:0:
122,234,39624,1,4,0:0:0:0:
258,356,39910,5,4,0:0:0:0:
268,260,40053,1,0,1:0:0:0:
464,253,40339,5,4,0:0:0:0:
381,207,40481,1,4,0:0:0:0:
489,163,40624,1,0,1:0:0:0:
408,121,40767,1,4,0:0:0:0:
478,271,40910,5,0,1:0:0:0:
372,213,41053,1,0,1:0:0:0:
401,104,41196,1,0,1:0:0:0:
498,170,41339,1,0,1:0:0:0:
270,128,41481,6,0,L|171:107,1,90,4|0,1:0|0:0,0:0:0:0:
88,89,41767,1,0,1:0:0:0:
208,230,41910,1,4,0:0:0:0:
205,243,42196,2,0,P|158:202|108:187,1,90,4|0,0:0|1:0,0:0:0:0:
34,185,42482,1,4,0:0:0:0:
84,345,42624,5,0,1:0:0:0:
172,319,42767,1,4,0:0:0:0:
260,351,42910,1,0,1:0:0:0:
344,312,43053,1,4,0:0:0:0:
90,356,43196,5,4,0:0:0:0:
68,272,43339,1,4,0:0:0:0:
258,362,43481,5,0,1:0:0:0:
281,252,43624,1,4,0:0:0:0:
138,173,43767,6,0,P|171:127|294:153,1,180,4|0,1:0|1:0,0:0:0:0:
371,119,44196,2,0,P|370:170|386:213,1,90,6|4,0:0|0:0,0:0:0:0:
296,53,44481,1,4,0:0:0:0:
467,26,44624,2,0,P|409:45|360:18,1,90,2|0,1:3|0:0,0:0:0:0:
509,98,44910,5,4,0:0:0:0:
492,183,45053,1,4,0:0:0:0:
474,273,45196,1,0,1:0:0:0:
457,360,45339,1,4,0:0:0:0:
497,96,45481,5,4,0:0:0:0:
477,366,45624,1,4,0:0:0:0:
474,183,45767,2,0,L|497:293,1,90,0|0,1:0|0:0,0:0:0:0:
253,181,46053,6,0,P|210:267|123:245,1,180,4|0,1:0|0:0,0:0:0:0:
347,130,46481,2,0,P|352:201|371:228,1,90,6|4,0:0|0:0,0:0:0:0:
169,133,46767,1,4,0:0:0:0:
248,62,46910,2,0,L|368:39,1,90,2|0,1:3|0:0,0:0:0:0:
262,191,47196,6,0,P|174:165|46:172,1,180,4|0,0:0|1:0,0:0:0:0:
30,86,47624,1,4,0:0:0:0:
31,241,47767,5,4,0:0:0:0:
119,270,47910,2,0,P|166:295|212:328,1,90,2|0,0:2|1:0,0:0:0:0:
82,351,48196,1,4,0:0:0:0:
281,276,48339,6,0,B|347:287|347:287|375:324|375:324|479:335,1,180,4|0,1:0|1:0,0:0:0:0:
500,258,48767,1,4,0:0:0:0:
416,220,48910,1,4,0:0:0:0:
499,177,49053,1,4,0:0:0:0:
417,141,49196,1,0,1:0:0:0:
496,100,49339,1,4,0:0:0:0:
452,334,49481,5,4,0:0:0:0:
413,240,49624,1,4,0:0:0:0:
512,176,49767,1,0,1:0:0:0:
421,63,49910,1,4,0:0:0:0:
441,339,50053,5,0,1:0:0:0:
327,241,50196,1,0,1:0:0:0:
261,373,50339,1,0,1:0:0:0:
111,306,50481,1,0,1:0:0:0:
174,121,50624,6,0,P|182:212|272:190,1,180,4|0,1:0|1:0,0:0:0:0:
25,70,51053,2,0,P|61:106|40:177,1,90,4|0,0:0|0:0,0:0:0:0:
13,224,51339,1,4,0:0:0:0:
146,25,51481,2,0,P|173:90|286:65,1,180,0|0,1:0|1:0,0:0:0:0:
327,14,51910,1,4,0:0:0:0:
510,186,52053,5,0,1:0:0:0:
426,151,52196,2,0,P|343:177|316:260,1,180,4|4,0:0|0:0,0:0:0:0:
441,61,52624,1,0,1:0:0:0:
409,243,52767,1,4,0:0:0:0:
195,169,52910,6,0,L|176:371,1,180,4|0,1:0|1:0,0:0:0:0:
65,152,53339,2,0,P|91:191|98:256,1,90,6|4,0:0|0:0,0:0:0:0:
107,79,53624,1,4,0:0:0:0:
284,75,53767,2,0,L|185:91,1,90,2|0,1:3|0:0,0:0:0:0:
339,135,54053,5,4,0:0:0:0:
430,161,54196,1,4,0:0:0:0:
404,255,54339,1,0,1:0:0:0:
312,224,54481,1,4,0:0:0:0:
348,132,54624,5,4,0:0:0:0:
400,243,54767,1,4,0:0:0:0:
293,317,54910,1,0,1:0:0:0:
217,198,55053,1,0,0:0:0:0:
348,140,55196,6,0,L|293:346,1,180,4|0,1:0|0:0,0:0:0:0:
77,308,55624,1,6,0:0:0:0:
147,256,55767,2,0,B|169:279|169:279|181:373,1,90,4|4,0:0|0:0,0:0:0:0:
37,215,56053,2,0,L|60:100,1,90,2|0,1:3|0:0,0:0:0:0:
251,98,56339,6,0,P|183:108|133:15,1,180,4|0,0:0|1:0,0:0:0:0:
274,222,56767,1,4,0:0:0:0:
334,65,56910,2,0,B|283:96|283:96|256:250,1,180,4|0,0:0|1:0,0:0:0:0:
261,13,57339,1,4,0:0:0:0:
401,188,57481,5,4,1:0:0:0:
473,123,57624,2,0,B|459:61|459:61|423:19,1,90,0|0,0:0|1:0,0:0:0:0:
491,236,57910,2,0,P|435:228|372:340,1,180,4|4,0:0|0:0,0:0:0:0:
279,360,58339,1,0,1:0:0:0:
254,275,58481,1,4,0:0:0:0:
10,345,58624,6,0,B|136:348|136:348|181:302,1,180,4|0,0:0|1:0,0:0:0:0:
98,257,59053,1,4,0:0:0:0:
191,214,59196,5,0,1:0:0:0:
23,166,59339,1,0,1:0:0:0:
281,90,59481,1,0,1:0:0:0:
182,64,59624,1,0,1:0:0:0:
342,12,59767,1,4,0:2:0:0:
456,158,60339,6,0,L|439:347,1,180,2|2,0:2|0:2,0:0:0:0:
306,230,61339,1,4,0:0:0:0:
306,230,61481,1,4,0:0:0:0:
9,163,62053,5,0,0:0:0:0:
66,244,62339,1,0,0:0:0:0:
131,174,62624,2,0,B|166:200|166:200|194:299,1,135,2|0,0:2|0:0,0:0:0:0:
179,316,63196,1,2,0:2:0:0:
260,377,63481,1,0,0:0:0:0:
306,294,63767,1,0,0:0:0:0:
385,350,64053,1,0,0:0:0:0:
350,136,64339,5,2,0:2:0:0:
343,130,64910,2,0,P|299:110|150:86,1,180,2|2,0:2|0:2,0:0:0:0:
92,147,65767,1,0,0:0:0:0:
24,118,65910,2,0,L|12:60,1,45,4|4,0:0|0:0,0:0:0:0:
118,274,66339,1,2,0:2:0:0:
298,199,66624,6,0,P|356:196|452:79,1,180,4|0,1:0|1:0,0:0:0:0:
463,258,67053,1,0,1:0:0:0:
419,196,67196,1,0,1:0:0:0:
348,137,67339,1,0,1:0:0:0:
242,98,67481,1,0,1:0:0:0:
122,107,67624,1,0,1:0:0:0:
17,175,67767,6,0,P|85:163|158:62,1,180,4|0,0:2|1:0,0:0:0:0:
2,99,68196,1,0,1:0:0:0:
80,120,68339,1,0,1:0:0:0:
148,185,68481,1,0,1:0:0:0:
205,277,68624,1,0,1:0:0:0:
321,312,68767,1,0,1:0:0:0:
457,254,68910,6,0,P|452:173|304:159,1,215.999993408203,4|0,1:0|1:0,0:0:0:0:
264,193,69339,1,4,0:0:0:0:
160,53,69481,2,0,L|32:26,1,107.999996704102,6|0,0:0|0:0,0:0:0:0:
233,98,69767,1,0,1:0:0:0:
153,142,69910,1,4,0:0:0:0:
338,51,70053,6,0,L|477:31,1,107.999996704102,6|4,0:0|0:0,0:0:0:0:
241,185,70339,1,0,1:0:0:0:
328,201,70481,2,0,P|387:212|451:229,1,107.999996704102,6|0,0:0|0:0,0:0:0:0:
283,278,70767,1,4,0:0:0:0:
190,254,70910,1,0,1:0:0:0:
103,264,71053,1,4,0:0:0:0:
342,210,71196,6,0,P|353:326|446:314,1,215.999993408203,4|0,1:2|1:0,0:0:0:0:
480,243,71624,1,4,0:0:0:0:
260,373,71767,2,0,L|138:358,1,107.999996704102,6|0,0:0|0:0,0:0:0:0:
47,337,72053,1,0,1:0:0:0:
19,239,72196,1,4,0:0:0:0:
350,95,72339,6,0,B|228:84|283:171|100:145,1,215.999993408203,4|0,0:2|1:0,0:0:0:0:
62,99,72767,1,4,0:0:0:0:
306,208,72910,2,0,P|354:243|394:288,1,107.999996704102,4|0,0:0|0:0,0:0:0:0:
240,356,73196,2,0,P|236:299|90:285,1,215.999993408203,0|4,1:0|1:0,0:0:0:0:
21,340,73624,1,0,0:0:0:0:
98,287,73767,6,0,L|79:162,1,107.999996704102,0|0,1:0|0:0,0:0:0:0:
160,123,74053,1,4,0:0:0:0:
135,33,74196,1,4,0:0:0:0:
299,184,74339,1,0,1:0:0:0:
328,60,74481,1,4,0:0:0:0:
408,246,74624,6,0,P|437:283|457:352,1,107.999996704102,4|0,0:0|0:0,0:0:0:0:
452,166,74910,1,0,1:0:0:0:
433,67,75053,1,4,0:0:0:0:
257,304,75196,6,0,P|207:280|140:263,1,107.999996704102,2|0,0:2|0:0,0:0:0:0:
327,257,75481,1,0,1:0:0:0:
194,366,75624,1,4,0:0:0:0:
67,171,75767,6,0,P|144:148|137:18,1,215.999993408203,4|0,1:0|1:0,0:0:0:0:
261,142,76196,2,0,P|282:75|320:28,1,107.999996704102,2|0,0:0|0:0,0:0:0:0:
62,157,76481,1,4,0:0:0:0:
254,314,76624,2,0,P|227:258|212:198,1,107.999996704102,2|0,1:3|0:0,0:0:0:0:
482,129,76910,6,0,P|396:169|390:297,1,215.999993408203,4|0,0:2|1:0,0:0:0:0:
411,367,77339,1,4,0:0:0:0:
465,276,77481,5,0,1:0:0:0:
296,241,77624,1,0,1:0:0:0:
169,344,77767,1,0,1:0:0:0:
11,282,77910,1,0,1:0:0:0:
262,152,78053,6,0,L|524:131,1,215.999993408203,4|0,1:0|1:0,0:0:0:0:
266,65,78481,1,4,0:0:0:0:
198,231,78624,2,0,P|164:188|108:172,1,107.999996704102,6|0,0:0|0:0,0:0:0:0:
396,281,78910,2,0,P|374:330|351:406,1,107.999996704102,0|4,1:0|0:0,0:0:0:0:
220,373,79196,5,6,0:0:0:0:
162,306,79339,1,4,0:0:0:0:
85,264,79481,1,0,1:0:0:0:
0,245,79624,1,6,0:0:0:0:
211,378,79767,5,0,0:0:0:0:
241,257,79910,1,4,0:0:0:0:
355,211,80053,1,0,1:0:0:0:
476,245,80196,1,4,0:0:0:0:
208,364,80339,6,0,L|181:118,1,215.999993408203,4|0,1:2|1:0,0:0:0:0:
175,55,80767,1,4,0:0:0:0:
99,186,80910,2,0,P|76:128|41:86,1,107.999996704102,6|0,0:0|0:0,0:0:0:0:
280,181,81196,1,0,1:0:0:0:
306,87,81339,1,4,0:0:0:0:
405,244,81481,5,4,0:2:0:0:
405,244,81767,1,0,1:0:0:0:
466,303,81910,2,0,P|402:264|259:275,1,215.999993408203,4|0,0:0|0:0,0:0:0:0:
505,220,82339,1,0,1:0:0:0:
397,363,82481,1,0,0:0:0:0:
295,153,82624,6,0,L|71:126,1,215.999993408203,4|0,1:0|1:0,0:0:0:0:
172,228,83053,1,0,0:0:0:0:
267,58,83196,2,0,P|306:41|373:29,1,107.999996704102,4|4,0:0|0:0,0:0:0:0:
145,49,83481,2,0,P|81:17|24:10,1,107.999996704102,0|4,1:0|0:0,0:0:0:0:
404,124,83767,5,4,0:0:0:0:
372,209,83910,1,4,0:0:0:0:
386,307,84053,1,0,1:0:0:0:
466,350,84196,1,4,0:0:0:0:
418,133,84339,5,4,0:0:0:0:
357,214,84481,1,4,0:0:0:0:
262,254,84624,1,4,0:0:0:0:
222,260,84695,1,4,0:0:0:0:
181,255,84766,1,4,0:0:0:0:
144,239,84838,1,4,0:0:0:0:
112,214,84910,6,0,P|133:281|140:339,1,107.999996704102,4|0,1:0|0:0,0:0:0:0:
192,119,85196,1,0,1:0:0:0:
83,78,85339,1,4,0:0:0:0:
280,58,85481,2,0,P|333:12|406:-3,1,107.999996704102,4|4,0:0|0:0,0:0:0:0:
247,204,85767,2,0,P|259:255|295:329,1,107.999996704102,0|0,1:0|0:0,0:0:0:0:
416,106,86053,5,8,0:0:0:0:
397,105,86124,1,8,0:0:0:0:
380,116,86195,1,8,0:0:0:0:
372,134,86267,1,8,0:0:0:0:
376,154,86338,1,4,0:0:0:0:
391,167,86410,1,4,0:0:0:0:
411,169,86481,1,4,0:0:0:0:
428,160,86552,1,4,0:0:0:0:
437,142,86624,5,0,1:0:0:0:
431,178,86696,1,4,0:0:0:0:
452,213,86767,1,0,1:0:0:0:
471,251,86839,1,4,0:0:0:0:
473,294,86910,1,0,1:0:0:0:
448,345,86981,1,4,0:0:0:0:
396,372,87053,1,0,1:0:0:0:
345,350,87124,1,4,0:0:0:0:
329,295,87196,5,4,1:0:0:0:
230,226,87339,1,4,0:0:0:0:
104,248,87481,1,4,0:0:0:0:
31,350,87624,1,4,0:0:0:0:
0,206,87767,5,0,1:0:0:0:
197,113,88053,1,8,0:0:0:0:
134,38,88196,1,8,0:0:0:0:
354,153,88481,1,4,0:0:0:0:
316,87,88624,1,4,0:0:0:0:
267,30,88767,1,4,0:0:0:0:
494,128,88910,5,0,1:0:0:0:
425,193,89053,1,0,1:0:0:0:
406,283,89196,1,8,0:0:0:0:
443,366,89339,1,4,0:0:0:0:
512,285,89481,5,4,1:0:0:0:
386,271,89624,1,4,0:0:0:0:
318,370,89767,1,4,0:0:0:0:
188,354,89910,1,4,0:0:0:0:
166,242,90053,5,0,1:0:0:0:
251,59,90339,1,8,0:0:0:0:
230,148,90481,1,8,0:0:0:0:
406,45,90767,1,4,0:0:0:0:
354,96,90910,1,4,0:0:0:0:
320,162,91053,1,0,0:0:0:0:
502,181,91196,5,0,1:0:0:0:
420,287,91339,1,0,1:0:0:0:
440,127,91481,1,0,1:0:0:0:
481,345,91624,1,0,1:0:0:0:
250,344,91767,6,0,L|222:255,1,90,4|0,1:0|0:0,0:0:0:0:
315,272,92053,2,0,B|228:275|260:338|137:335,1,180,0|0,1:0|0:0,0:0:0:0:
87,294,92624,1,0,1:0:0:0:
87,294,93196,1,0,1:0:0:0:
139,163,93481,5,0,0:0:0:0:
202,211,93624,1,4,0:0:0:0:
295,168,93767,1,0,1:0:0:0:
295,168,94053,6,0,L|272:262,1,90,4|0,0:0|0:0,0:0:0:0:
270,54,94339,2,0,P|288:125|398:125,1,180,0|0,1:0|0:0,0:0:0:0:
449,94,94910,1,0,1:0:0:0:
449,94,95481,1,0,1:0:0:0:
392,295,95767,5,0,0:0:0:0:
328,256,95910,1,4,0:0:0:0:
235,292,96053,1,0,1:0:0:0:
177,245,96196,1,0,0:0:0:0:
88,295,96339,6,0,L|53:194,1,90,4|0,1:0|0:0,0:0:0:0:
3,292,96624,2,0,L|68:99,1,180,0|0,1:0|0:0,0:0:0:0:
92,53,97196,1,0,1:0:0:0:
92,53,97767,1,0,1:0:0:0:
267,250,98053,5,0,0:0:0:0:
337,217,98196,1,4,0:0:0:0:
256,148,98339,2,0,P|283:103|347:148,1,135,0|0,1:0|0:0,0:0:0:0:
263,158,98624,6,0,L|147:149,1,90,4|0,1:0|0:0,0:0:0:0:
89,192,98910,2,0,B|133:229|133:229|147:363,1,180,0|0,1:0|0:0,0:0:0:0:
218,342,99481,1,0,1:0:0:0:
218,342,100053,1,0,1:0:0:0:
371,277,100339,5,2,0:0:0:0:
345,206,100481,1,4,0:0:0:0:
376,284,100624,1,0,1:0:0:0:
338,212,100767,1,2,0:0:0:0:
416,154,100910,6,0,P|369:184|303:98,1,180,4|0,1:0|1:0,0:0:0:0:
157,72,101339,2,0,P|194:116|224:180,1,90
154,198,101624,1,0,0:0:0:0:
140,187,101696,1,0,0:0:0:0:
121,179,101767,2,0,P|198:171|316:101,1,180,0|0,1:0|0:0,0:0:0:0:
29,178,102196,1,0,0:0:0:0:
80,259,102339,2,0,P|136:282|188:331,1,90,0|0,1:0|0:0,0:0:0:0:
285,338,102624,5,0,0:0:0:0:
334,253,102767,1,4,0:0:0:0:
429,244,102910,1,0,1:0:0:0:
383,334,103053,1,0,0:0:0:0:
276,174,103196,5,4,0:0:0:0:
359,132,103339,2,0,P|397:122|462:116,1,90,0|0,0:0|1:0,0:0:0:0:
198,139,103624,2,0,P|168:92|130:49,1,90
177,262,103910,2,0,P|116:276|63:301,1,90,0|0,0:0|1:0,0:0:0:0:
18,337,104196,1,0,0:0:0:0:
260,262,104339,5,0,0:0:0:0:
291,352,104481,1,0,0:0:0:0:
377,315,104624,1,0,1:0:0:0:
348,225,104767,1,0,0:0:0:0:
267,268,104910,5,0,0:0:0:0:
210,345,105053,1,4,0:0:0:0:
162,262,105196,1,0,1:0:0:0:
220,177,105339,1,0,0:0:0:0:
269,276,105481,6,0,P|328:208|448:184,1,180,4|0,1:0|1:0,0:0:0:0:
502,164,105910,1,0,0:0:0:0:
230,67,106053,2,0,P|283:107|332:114,1,90
101,216,106339,1,0,1:0:0:0:
196,170,106481,6,0,P|147:134|14:107,1,180,0|4,0:0|0:0,0:0:0:0:
248,291,106910,1,0,1:0:0:0:
388,266,107053,2,0,P|315:272|307:386,1,180,0|4,0:0|0:0,0:0:0:0:
296,186,107481,1,0,1:0:0:0:
395,359,107624,1,0,0:0:0:0:
411,144,107767,6,0,P|336:153|285:58,1,180,4|0,0:0|1:0,0:0:0:0:
171,236,108196,2,0,P|200:177|194:139,1,90,4|0,0:0|0:0,0:0:0:0:
148,73,108481,1,4,0:0:0:0:
6,172,108624,2,0,L|24:276,1,90,0|0,1:0|0:0,0:0:0:0:
3,62,108910,6,0,L|215:50,1,180,4|0,0:0|1:0,0:0:0:0:
279,48,109339,1,4,0:0:0:0:
345,212,109481,5,0,1:0:0:0:
400,86,109624,1,0,1:0:0:0:
428,336,109767,1,0,1:0:0:0:
461,246,109910,1,0,1:0:0:0:
230,184,110053,1,4,0:2:0:0:
229,198,110624,6,0,L|40:180,1,180,2|2,0:2|0:2,0:0:0:0:
175,278,111624,1,4,0:0:0:0:
147,346,111766,1,4,0:0:0:0:
320,361,112338,5,0,0:0:0:0:
394,308,112624,1,0,0:0:0:0:
342,229,112910,1,4,0:0:0:0:
378,128,113196,1,2,0:2:0:0:
378,128,113267,1,2,0:2:0:0:
378,128,113339,1,2,0:2:0:0:
345,54,113481,5,2,0:2:0:0:
240,123,113766,1,0,0:0:0:0:
143,49,114052,1,4,0:0:0:0:
29,110,114338,1,0,0:0:0:0:
133,218,114624,5,4,0:0:0:0:
139,234,115195,2,0,P|183:254|332:278,1,180,2|2,0:2|0:2,0:0:0:0:
424,238,116053,1,0,0:0:0:0:
427,194,116196,1,4,0:0:0:0:
432,146,116339,1,4,0:0:0:0:
282,189,116624,1,0,0:0:0:0:
16,157,116910,6,0,P|86:174|179:252,1,180,4|0,1:0|1:0,0:0:0:0:
49,258,117339,1,0,1:0:0:0:
93,196,117482,1,0,1:0:0:0:
164,137,117625,1,0,1:0:0:0:
270,98,117767,1,0,1:0:0:0:
398,100,117910,1,0,1:0:0:0:
492,152,118053,6,0,P|405:188|345:291,1,180,4|0,0:2|1:0,0:0:0:0:
486,230,118482,1,0,1:0:0:0:
408,209,118625,1,0,1:0:0:0:
340,144,118767,1,0,1:0:0:0:
283,52,118910,1,0,1:0:0:0:
167,17,119053,1,0,1:0:0:0:
31,75,119196,6,0,P|36:156|184:170,1,215.999993408203,4|0,1:0|1:0,0:0:0:0:
214,128,119624,1,4,0:0:0:0:
239,273,119767,2,0,L|231:396,1,107.999996704102,6|0,0:0|0:0,0:0:0:0:
393,240,120053,1,0,1:0:0:0:
327,171,120196,1,4,0:0:0:0:
450,110,120339,6,0,P|380:88|331:54,1,107.999996704102,6|4,0:0|0:0,0:0:0:0:
269,23,120624,1,0,1:0:0:0:
397,228,120767,2,0,P|346:258|299:298,1,107.999996704102,6|0,0:0|0:0,0:0:0:0:
502,195,121053,1,4,0:0:0:0:
472,281,121196,2,0,P|449:327|428:386,1,107.999996704102,0|4,1:0|0:0,0:0:0:0:
200,313,121481,6,0,P|274:293|277:165,1,215.999993408203,4|0,1:2|1:0,0:0:0:0:
320,367,121910,1,4,0:0:0:0:
166,228,122053,2,0,P|104:209|27:214,1,107.999996704102,6|0,0:0|0:0,0:0:0:0:
21,297,122339,1,0,1:0:0:0:
78,368,122481,1,4,0:0:0:0:
200,127,122624,6,0,B|214:75|177:23|177:23|109:59|120:132,2,215.999993408203,4|0|4,0:2|1:0|0:0,0:0:0:0:
45,30,123339,1,0,0:0:0:0:
157,216,123481,2,0,P|89:193|46:184,1,107.999996704102,0|0,1:0|0:0,0:0:0:0:
382,129,123767,5,4,1:0:0:0:
287,122,123910,1,0,0:0:0:0:
382,129,124053,2,0,P|300:145|276:265,1,215.999993408203,0|4,1:0|0:0,0:0:0:0:
439,54,124481,1,4,0:0:0:0:
381,138,124624,1,0,1:0:0:0:
323,44,124767,1,4,0:0:0:0:
502,153,124910,6,0,P|459:208|433:281,1,107.999996704102,4|0,0:0|0:0,0:0:0:0:
365,275,125196,1,0,1:0:0:0:
299,194,125339,1,4,0:0:0:0:
512,279,125481,2,0,P|350:320|304:352,1,215.999993408203,2|0,0:2|1:0,0:0:0:0:
479,361,125910,1,4,0:0:0:0:
264,274,126053,6,0,P|248:181|122:152,1,215.999993408203,4|0,1:0|1:0,0:0:0:0:
371,212,126481,2,0,P|369:153|409:80,1,107.999996704102,2|0,0:0|0:0,0:0:0:0:
297,87,126767,1,4,0:0:0:0:
251,276,126910,2,0,P|175:264|108:267,1,107.999996704102,2|0,1:3|0:0,0:0:0:0:
119,68,127196,5,4,0:2:0:0:
215,65,127339,1,0,0:0:0:0:
213,164,127481,1,0,1:0:0:0:
124,166,127624,1,4,0:0:0:0:
285,7,127767,5,0,1:0:0:0:
225,163,127910,1,0,1:0:0:0:
222,63,128053,1,0,1:0:0:0:
374,66,128196,1,0,1:0:0:0:
351,261,128339,6,0,P|378:193|515:189,1,215.999993408203,4|0,1:0|1:0,0:0:0:0:
302,124,128767,1,4,0:0:0:0:
274,344,128910,2,0,L|261:199,1,107.999996704102,6|0,0:0|0:0,0:0:0:0:
38,128,129196,1,0,1:0:0:0:
119,42,129339,1,4,0:0:0:0:
126,238,129481,6,0,P|68:256|17:288,1,107.999996704102,6|4,0:0|0:0,0:0:0:0:
225,162,129767,1,0,1:0:0:0:
241,65,129910,1,6,0:0:0:0:
143,139,130053,2,0,P|212:164|362:241,1,215.999993408203,0|0,0:0|1:0,0:0:0:0:
147,231,130481,1,4,0:0:0:0:
385,151,130624,6,0,P|437:142|508:139,1,107.999996704102,4|0,1:2|0:0,0:0:0:0:
512,297,130910,1,0,1:0:0:0:
376,301,131053,1,4,0:0:0:0:
435,235,131196,2,0,P|468:271|494:335,1,107.999996704102,6|0,0:0|0:0,0:0:0:0:
417,373,131481,1,0,1:0:0:0:
317,363,131624,1,4,0:0:0:0:
265,285,131767,5,4,0:2:0:0:
265,285,132053,1,0,1:0:0:0:
285,163,132196,2,0,P|243:265|151:234,1,215.999993408203,4|0,0:0|0:0,0:0:0:0:
78,178,132624,1,0,1:0:0:0:
379,151,132767,1,0,0:0:0:0:
153,327,132910,6,0,L|170:112,1,215.999993408203,4|0,1:0|1:0,0:0:0:0:
77,75,133339,1,0,0:0:0:0:
246,58,133481,2,0,P|308:49|375:52,1,107.999996704102,4|4,0:0|0:0,0:0:0:0:
78,86,133767,2,0,P|62:158|26:225,1,107.999996704102,0|4,1:0|0:0,0:0:0:0:
259,251,134053,5,4,0:0:0:0:
348,209,134196,1,4,0:0:0:0:
433,249,134339,1,0,1:0:0:0:
451,345,134481,1,4,0:0:0:0:
267,265,134624,5,4,0:0:0:0:
255,166,134767,1,4,0:0:0:0:
322,95,134910,1,4,0:0:0:0:
351,67,134981,1,4,0:0:0:0:
387,49,135052,1,4,0:0:0:0:
427,40,135124,1,4,0:0:0:0:
467,41,135196,6,0,P|400:57|260:9,1,215.999993408203,4|0,1:0|1:0,0:0:0:0:
451,238,135624,2,0,P|420:186|358:142,1,107.999996704102,4|4,0:0|0:0,0:0:0:0:
489,126,135910,1,4,0:0:0:0:
374,362,136053,2,0,P|432:334|507:320,1,107.999996704102,0|0,1:0|0:0,0:0:0:0:
241,333,136339,5,8,0:0:0:0:
227,331,136410,1,8,0:0:0:0:
214,329,136481,1,8,0:0:0:0:
200,327,136553,1,8,0:0:0:0:
181,340,136624,5,4,0:0:0:0:
167,342,136695,1,4,0:0:0:0:
154,344,136766,1,4,0:0:0:0:
140,346,136838,1,4,0:0:0:0:
124,319,136910,5,0,1:0:0:0:
98,334,136981,1,4,0:0:0:0:
68,333,137053,1,0,1:0:0:0:
39,315,137124,1,4,0:0:0:0:
15,279,137196,1,0,1:0:0:0:
20,231,137267,1,4,0:0:0:0:
59,199,137339,1,0,1:0:0:0:
106,202,137410,1,4,0:0:0:0:
138,237,137481,5,4,1:0:0:0:
251,299,137624,1,4,0:0:0:0:
354,221,137767,1,4,0:0:0:0:
241,146,137910,1,4,0:0:0:0:
344,24,138053,5,0,1:0:0:0:
459,224,138339,1,4,0:0:0:0:
509,144,138481,1,4,0:0:0:0:
464,243,138624,1,4,0:0:0:0:
491,142,138767,1,4,0:0:0:0:
464,55,138910,1,4,0:0:0:0:
379,24,139053,1,4,0:0:0:0:
221,60,139196,5,0,1:0:0:0:
76,149,139481,1,4,0:0:0:0:
169,165,139624,1,4,0:0:0:0:
195,259,139767,6,0,P|261:224|292:217,1,90,2|0,0:0|0:0,0:0:0:0:
368,237,140053,1,0,0:0:0:0:
234,362,140196,2,0,P|158:352|124:342,1,90,2|0,0:0|0:0,0:0:0:0:
61,310,140481,1,0,0:0:0:0:
306,308,140624,5,2,0:0:0:0:
377,364,140767,1,4,0:0:0:0:
308,322,140910,1,4,0:0:0:0:
386,354,141053,1,4,0:0:0:0:
459,302,141196,1,4,0:0:0:0:
444,211,141339,1,4,0:0:0:0:
354,168,141481,5,0,1:0:0:0:
199,235,141767,1,4,0:0:0:0:
141,164,141910,1,4,0:0:0:0:
190,244,142053,1,4,0:0:0:0:
151,150,142196,1,4,0:0:0:0:
194,67,142339,1,4,0:0:0:0:
283,50,142481,1,4,0:0:0:0:
67,47,142624,5,0,1:0:0:0:
28,213,142910,1,4,0:0:0:0:
9,119,143053,1,4,0:0:0:0:
117,285,143196,5,2,0:0:0:0:
34,319,143339,2,0,P|74:286|123:266,1,90,2|0,0:0|0:0,0:0:0:0:
240,347,143624,1,0,0:0:0:0:
202,260,143767,2,0,P|241:299|262:359,1,90,0|0,1:0|0:0,0:0:0:0:
354,299,144053,1,2,0:0:0:0:
333,209,144196,1,2,0:0:0:0:
422,168,144339,5,2,0:0:0:0:
369,95,144481,2,0,P|315:82|270:77,1,90,2|0,0:0|0:0,0:0:0:0:
445,51,144767,2,0,P|398:73|337:80,1,90,2|0,0:0|1:0,0:0:0:0:
261,87,145053,1,2,0:0:0:0:
213,151,145196,5,8,0:0:0:0:
213,151,145267,1,8,0:0:0:0:
213,151,145339,1,8,0:0:0:0:
213,151,145410,1,8,0:0:0:0:
213,151,145481,5,4,0:0:0:0:
195,130,145552,1,4,0:0:0:0:
172,117,145623,1,4,0:0:0:0:
145,113,145695,1,4,0:0:0:0:
120,123,145767,1,4,0:0:0:0:
94,131,145838,1,4,0:0:0:0:
67,131,145909,1,4,0:0:0:0:
42,121,145981,1,4,0:0:0:0:
22,103,146052,1,4,0:0:0:0:
8,88,146124,1,4,0:0:0:0:
5,68,146195,1,4,0:0:0:0:
14,51,146267,1,4,0:0:0:0:
32,42,146338,1,4,0:0:0:0:
52,46,146410,1,4,0:0:0:0:
65,60,146481,1,4,0:0:0:0:
68,80,146553,1,4,0:0:0:0:
58,97,146624,5,4,1:0:0:0:
110,203,146767,2,0,L|120:316,1,90,2|0,0:0|1:0,0:0:0:0:
231,116,147053,1,4,0:0:0:0:
225,140,147124,1,4,0:0:0:0:
221,160,147196,2,0,P|185:102|290:73,1,180,4|4,1:0|0:0,0:0:0:0:
321,146,147624,1,4,0:0:0:0:
471,67,147767,5,4,0:0:0:0:
414,204,147910,2,0,L|435:323,1,90,4|0,0:0|0:0,0:0:0:0:
485,155,148196,1,4,0:0:0:0:
360,375,148339,2,0,B|335:247|335:247|273:219,1,180,0|0,1:0|0:0,0:0:0:0:
84,259,148767,5,4,0:0:0:0:
84,259,148839,1,4,0:0:0:0:
84,259,148910,2,0,P|144:238|119:130,1,180,4|0,0:0|0:0,0:0:0:0:
220,83,149339,1,4,0:0:0:0:
206,62,149410,1,4,0:0:0:0:
177,55,149481,2,0,P|261:32|293:123,1,180,0|0,1:0|0:0,0:0:0:0:
239,174,149910,1,4,0:0:0:0:
414,168,150053,5,4,0:0:0:0:
329,267,150196,2,0,L|209:276,1,90,4|0,0:0|0:0,0:0:0:0:
388,336,150481,1,4,0:0:0:0:
176,341,150624,5,0,1:0:0:0:
245,282,150767,2,0,L|334:275,1,90,4|0,0:0|0:0,0:0:0:0:
54,214,151053,5,4,0:0:0:0:
54,214,151124,1,4,0:0:0:0:
54,214,151196,2,0,P|117:189|251:177,1,180,4|0,1:0|0:0,0:0:0:0:
42,80,151624,1,4,0:0:0:0:
56,101,151696,1,4,0:0:0:0:
64,123,151767,2,0,P|31:96|119:22,1,180,0|0,1:0|0:0,0:0:0:0:
147,85,152196,1,4,0:0:0:0:
252,30,152339,5,4,0:0:0:0:
333,94,152481,2,0,L|320:205,1,90,4|0,0:0|0:0,0:0:0:0:
404,43,152767,1,4,0:0:0:0:
421,35,152839,1,4,0:0:0:0:
443,32,152910,2,0,P|417:96|326:41,1,180,0|0,1:0|0:0,0:0:0:0:
487,135,153339,1,4,0:0:0:0:
324,297,153481,5,4,0:0:0:0:
430,228,153624,2,0,L|445:319,1,90,4|0,0:0|0:0,0:0:0:0:
199,272,153910,5,4,0:0:0:0:
46,233,154053,1,0,1:0:0:0:
179,276,154196,2,0,L|195:394,1,90,4|0,0:0|0:0,0:0:0:0:
317,109,154481,5,4,0:0:0:0:
228,144,154624,2,0,P|187:122|134:103,1,90,4|0,0:0|0:0,0:0:0:0:
61,84,154910,1,4,0:0:0:0:
0,150,155053,1,4,0:0:0:0:
172,19,155196,5,0,1:0:0:0:
322,122,155339,2,0,P|362:107|439:93,1,90,4|0,0:0|0:0,0:0:0:0:
512,19,155624,1,4,0:0:0:0:
255,243,155767,5,4,1:0:0:0:
393,256,157481,5,4,0:0:0:0:
420,345,157624,1,4,0:0:0:0:
305,232,157767,1,0,1:0:0:0:
391,106,157910,1,4,0:0:0:0:
259,49,158053,6,0,P|235:132|136:120,1,180,4|0,1:0|1:0,0:0:0:0:
90,193,158481,1,4,0:0:0:0:
35,40,158624,1,4,0:0:0:0:
0,150,158767,1,4,0:0:0:0:
185,230,158910,2,0,L|166:348,1,90,0|0,1:0|0:0,0:0:0:0:
328,366,159196,5,4,0:0:0:0:
304,267,159339,1,4,0:0:0:0:
436,218,159481,2,0,L|449:116,1,90,0|0,1:0|0:0,0:0:0:0:
296,272,159767,5,4,0:0:0:0:
326,167,159910,1,4,0:0:0:0:
203,154,160053,1,2,0:0:0:0:
194,132,160124,1,2,0:0:0:0:
185,110,160196,2,0,L|154:43,1,45,2|0,0:0|0:0,0:0:0:0:
5,254,160339,6,0,P|72:206|189:252,1,180,4|0,1:0|1:0,0:0:0:0:
227,346,160767,1,4,0:0:0:0:
122,324,160910,1,4,0:0:0:0:
294,274,161053,1,4,0:0:0:0:
128,332,161196,2,0,L|29:366,1,90,0|0,1:0|0:0,0:0:0:0:
282,159,161481,6,0,P|309:252|408:232,1,180,4|0,0:0|1:0,0:0:0:0:
201,120,161910,2,0,L|90:107,1,90,2|0,0:0|0:0,0:0:0:0:
352,101,162196,1,6,0:0:0:0:
382,94,162267,1,4,0:0:0:0:
413,88,162339,1,0,1:0:0:0:
265,50,162481,1,4,0:0:0:0:
193,259,162624,6,0,P|140:219|8:209,1,180,4|0,0:2|1:0,0:0:0:0:
289,316,163053,2,0,P|296:251|283:195,1,90,4|0,0:0|0:0,0:0:0:0:
236,143,163339,1,4,0:0:0:0:
390,279,163481,2,0,P|428:242|496:229,1,90,0|0,1:0|0:0,0:0:0:0:
471,48,163767,5,4,0:2:0:0:
382,108,163910,2,0,P|348:81|278:56,1,90,4|0,0:0|0:0,0:0:0:0:
471,60,164196,1,4,0:0:0:0:
500,146,164339,1,0,1:0:0:0:
307,216,164481,2,0,P|278:170|224:128,1,90,4|4,0:0|0:0,0:0:0:0:
214,133,164696,1,4,0:0:0:0:
172,143,164767,1,4,0:0:0:0:
139,167,164839,1,4,0:0:0:0:
97,172,164910,6,0,L|128:380,1,180,4|0,1:0|1:0,0:0:0:0:
19,337,165339,1,4,0:0:0:0:
206,259,165482,1,4,0:0:0:0:
143,363,165625,1,4,0:0:0:0:
272,321,165767,6,0,L|375:306,1,90,0|0,1:0|0:0,0:0:0:0:
474,221,166053,2,0,L|370:195,1,90,4|0,0:0|0:0,0:0:0:0:
359,105,166339,5,2,0:0:0:0:
287,126,166434,1,2,0:0:0:0:
217,149,166529,1,2,0:0:0:0:
149,176,166624,6,0,L|84:104,1,90,2|4,0:0|0:0,0:0:0:0:
89,110,166839,1,4,0:0:0:0:
89,110,166910,1,0,1:0:0:0:
19,39,167053,1,4,0:0:0:0:
5,153,167196,6,0,P|52:146|104:266,1,180,4|0,1:0|1:0,0:0:0:0:
55,312,167624,1,4,0:0:0:0:
198,371,167768,1,4,0:0:0:0:
221,273,167911,1,4,0:0:0:0:
356,236,168053,2,0,L|370:331,1,90,0|0,1:0|0:0,0:0:0:0:
496,188,168339,5,4,0:0:0:0:
410,161,168481,1,4,0:0:0:0:
398,67,168624,1,0,1:0:0:0:
486,28,168767,1,4,0:0:0:0:
304,153,168910,6,0,P|252:123|198:112,1,90,6|0,0:0|0:0,0:0:0:0:
59,171,169196,1,4,0:0:0:0:
68,203,169267,1,4,0:0:0:0:
89,229,169338,1,4,0:0:0:0:
118,245,169410,1,4,0:0:0:0:
151,248,169481,6,0,P|127:224|59:320,1,180,4|0,1:0|1:0,0:0:0:0:
217,192,169910,1,4,0:0:0:0:
236,288,170053,1,4,0:0:0:0:
158,342,170196,1,4,0:0:0:0:
328,310,170339,2,0,P|377:328|437:362,1,90,0|0,1:0|0:0,0:0:0:0:
325,130,170624,6,0,L|315:27,1,90,4|0,0:0|0:0,0:0:0:0:
470,51,170910,2,0,B|425:78|425:78|384:231,1,180,2|4,1:3|0:0,0:0:0:0:
496,195,171339,1,4,0:0:0:0:
494,171,171410,1,4,0:0:0:0:
491,150,171481,1,0,1:0:0:0:
448,266,171624,1,4,0:0:0:0:
301,213,171767,6,0,P|239:193|104:186,1,180,4|0,1:0|1:0,0:0:0:0:
117,71,172196,2,0,P|79:109|52:73,1,90,2|0,0:0|0:0,0:0:0:0:
199,105,172481,1,4,0:0:0:0:
37,195,172624,2,0,P|55:250|66:324,1,90,2|0,1:3|0:0,0:0:0:0:
291,275,172910,5,8,0:0:0:0:
313,272,172981,1,8,0:0:0:0:
335,270,173052,1,8,0:0:0:0:
358,268,173124,1,8,0:0:0:0:
373,255,173195,5,8,0:0:0:0:
395,258,173267,1,8,0:0:0:0:
417,260,173338,1,8,0:0:0:0:
440,262,173410,1,8,0:0:0:0:
456,276,173481,6,0,L|525:257,1,45,0|0,1:0|0:0,0:0:0:0:
398,333,173624,2,0,L|425:381,1,45,0|0,1:0|0:0,0:0:0:0:
325,249,173767,2,0,L|343:188,1,45,0|0,1:0|0:0,0:0:0:0:
248,314,173910,2,0,L|177:321,1,45,0|0,1:0|0:0,0:0:0:0:
134,233,174053,5,4,1:0:0:0:
59,182,174196,1,2,0:0:0:0:
52,159,174267,1,2,0:0:0:0:
43,142,174339,1,4,0:0:0:0:
141,153,174481,1,2,0:0:0:0:
156,113,174553,1,2,0:0:0:0:
184,76,174624,1,0,1:0:0:0:
288,149,174767,5,2,0:0:0:0:
281,126,174838,1,2,0:0:0:0:
272,109,174910,1,4,0:0:0:0:
370,120,175052,1,2,0:0:0:0:
385,80,175124,1,2,0:0:0:0:
413,43,175195,1,4,0:0:0:0:
404,193,175339,5,2,0:0:0:0:
410,214,175410,1,2,0:0:0:0:
419,231,175482,1,4,0:0:0:0:
321,220,175624,1,2,0:0:0:0:
306,260,175696,1,2,0:0:0:0:
278,297,175767,1,0,1:0:0:0:
186,297,175910,5,2,0:0:0:0:
187,316,175982,1,2,0:0:0:0:
192,338,176053,1,4,0:0:0:0:
102,273,176196,1,2,0:0:0:0:
27,187,176339,5,2,0:0:0:0:
96,157,176434,1,2,0:0:0:0:
173,160,176529,1,2,0:0:0:0:
243,199,176624,1,2,0:0:0:0:
319,196,176719,1,2,0:0:0:0:
389,159,176815,1,2,0:0:0:0:
420,86,176910,6,0,B|481:105|481:105|504:145,1,90,0|2,1:0|0:0,0:0:0:0:
503,144,177124,1,2,0:0:0:0:
512,161,177196,1,4,0:0:0:0:
440,231,177339,1,2,0:0:0:0:
425,271,177411,1,2,0:0:0:0:
397,308,177482,1,4,0:0:0:0:
311,332,177624,5,2,0:0:0:0:
306,311,177695,1,2,0:0:0:0:
297,294,177767,1,4,0:0:0:0:
205,258,177910,1,2,0:0:0:0:
212,300,177982,1,2,0:0:0:0:
206,346,178053,5,0,1:0:0:0:
104,194,178196,1,0,1:0:0:0:
69,289,178339,1,0,1:0:0:0:
237,162,178481,1,0,1:0:0:0:
69,76,178624,6,0,B|192:59|160:146|367:116,1,270,4|0,1:0|0:0,0:0:0:0:
486,54,179196,1,0,1:0:0:0:
504,208,179339,5,2,0:0:0:0:
411,213,179481,1,2,0:0:0:0:
339,267,179624,1,2,0:0:0:0:
277,356,179767,5,4,0:0:0:0:
202,305,179910,1,2,0:0:0:0:
186,295,179981,1,2,0:0:0:0:
167,288,180053,1,4,0:0:0:0:
75,309,180196,1,0,0:0:0:0:
14,243,180339,5,0,1:0:0:0:
195,169,180481,1,2,0:0:0:0:
106,221,180624,1,2,0:0:0:0:
88,117,180767,1,2,0:0:0:0:
249,75,180910,5,2,0:0:0:0:
338,104,181053,2,0,L|325:162,3,60,2|2|2|2,0:0|0:0|0:0|0:0,0:0:0:0:
438,137,181481,5,2,0:0:0:0:
400,204,181577,1,2,0:0:0:0:
401,280,181672,1,2,0:0:0:0:
428,355,181767,6,0,L|319:355,1,90,0|0,1:0|1:0,0:0:0:0:
338,355,181981,1,0,1:0:0:0:
338,355,182053,1,0,1:0:0:0:
252,301,182196,6,0,L|179:290,1,45,2|0,0:0|0:0,0:0:0:0:
133,284,182339,2,0,L|69:275,1,45,2|0,0:0|0:0,0:0:0:0:
44,214,182481,5,6,0:0:0:0:
55,198,182553,1,6,0:0:0:0:
72,188,182624,1,6,0:0:0:0:
94,181,182696,1,6,0:0:0:0:
124,184,182767,1,6,0:0:0:0:
163,196,182839,1,6,0:0:0:0:
208,189,182910,1,6,0:0:0:0:
251,167,182981,1,6,0:0:0:0:
283,129,183053,1,6,0:0:0:0:
294,78,183124,1,6,0:0:0:0:
275,31,183196,5,4,1:0:0:0:
382,43,183339,1,2,0:0:0:0:
385,65,183410,1,2,0:0:0:0:
390,81,183481,1,2,0:0:0:0:
486,117,183624,1,2,0:0:0:0:
483,220,183767,5,0,1:0:0:0:
411,210,183862,1,2,0:0:0:0:
338,201,183958,1,2,0:0:0:0:
279,250,184053,1,2,0:0:0:0:
220,232,184148,1,2,0:0:0:0:
162,215,184243,1,2,0:0:0:0:
89,235,184339,5,4,0:2:0:0:
65,204,184434,1,2,0:0:0:0:
46,169,184529,1,2,0:0:0:0:
7,175,184624,1,2,0:0:0:0:
32,130,184719,1,2,0:0:0:0:
38,83,184815,1,2,0:0:0:0:
29,43,184910,5,0,1:0:0:0:
54,64,185005,1,2,0:0:0:0:
79,77,185100,1,2,0:0:0:0:
101,114,185196,1,2,0:0:0:0:
118,103,185291,1,2,0:0:0:0:
138,96,185386,1,2,0:0:0:0:
167,129,185481,5,4,1:0:0:0:
167,129,185553,2,0,B|223:123|223:123|237:142|237:142|285:134|285:134|299:111|299:111|386:90,1,225,2|4,0:0|0:0,0:0:0:0:
366,94,185981,1,4,0:0:0:0:
366,94,186053,2,0,L|390:284,1,180,0|2,1:0|0:0,0:0:0:0:
479,302,186481,1,2,0:0:0:0:
350,373,186624,5,4,0:2:0:0:
294,309,186767,1,2,0:0:0:0:
204,287,186910,1,2,0:0:0:0:
113,291,187053,1,2,0:0:0:0:
341,375,187196,5,0,1:0:0:0:
269,207,187339,1,4,0:0:0:0:
280,318,187481,1,4,0:0:0:0:
312,122,187624,1,4,0:0:0:0:
194,44,187767,5,4,1:0:0:0:
155,142,187910,1,2,0:0:0:0:
51,160,188053,1,2,0:0:0:0:
314,90,188196,5,4,0:0:0:0:
341,129,188267,1,4,0:0:0:0:
381,149,188339,1,0,1:0:0:0:
472,108,188481,1,2,0:0:0:0:
206,44,188624,5,2,0:0:0:0:
162,148,188767,1,2,0:0:0:0:
56,166,188910,1,4,0:0:0:0:
307,94,189053,5,2,0:0:0:0:
395,158,189196,1,2,0:0:0:0:
501,188,189339,1,2,0:0:0:0:
207,58,189481,5,0,1:0:0:0:
166,155,189624,1,2,0:0:0:0:
60,175,189767,1,2,0:0:0:0:
303,214,189910,5,2,0:0:0:0:
401,237,190053,1,4,0:0:0:0:
469,302,190196,1,4,0:0:0:0:
265,377,190339,5,6,0:0:0:0:
158,259,190481,1,6,0:0:0:0:
0,239,190624,1,6,0:0:0:0:
2,359,190767,5,6,0:0:0:0:
154,247,190909,1,0,1:0:0:0:
339,322,191052,1,2,1:3:0:0:
471,194,191196,5,4,0:0:0:0:
378,124,191339,1,4,0:0:0:0:
369,91,191410,1,2,0:0:0:0:
379,57,191481,1,4,0:0:0:0:
269,187,191624,1,4,0:0:0:0:
237,161,191696,1,2,0:0:0:0:
195,147,191767,1,0,1:0:0:0:
255,35,191910,5,4,0:0:0:0:
240,55,191981,1,4,0:0:0:0:
216,64,192053,1,0,1:0:0:0:
174,60,192124,1,0,1:0:0:0:
135,34,192196,1,0,1:0:0:0:
80,25,192267,1,0,1:0:0:0:
28,47,192339,6,0,B|36:127|36:127|49:153|49:153|56:291,1,215.999993408203,4|0,1:0|1:0,0:0:0:0:
78,347,192767,1,4,0:0:0:0:
189,291,192910,2,0,P|191:245|125:247,1,107.999996704102,6|0,0:0|0:0,0:0:0:0:
290,255,193195,1,0,1:0:0:0:
259,352,193338,1,4,0:0:0:0:
249,174,193481,6,0,L|388:154,1,107.999996704102,6|4,0:0|0:0,0:0:0:0:
440,134,193767,1,0,1:0:0:0:
175,114,193910,2,0,P|115:107|47:107,1,107.999996704102,6|0,0:0|0:0,0:0:0:0:
247,52,194195,1,4,0:0:0:0:
149,21,194338,1,0,1:0:0:0:
66,91,194481,1,4,0:0:0:0:
198,118,194624,6,0,P|267:68|422:69,1,215.999993408203,4|0,1:2|1:0,0:0:0:0:
475,106,195052,1,4,0:0:0:0:
234,207,195196,2,0,P|291:225|348:266,1,107.999996704102,6|0,0:0|0:0,0:0:0:0:
410,303,195481,1,0,1:0:0:0:
407,189,195624,1,4,0:0:0:0:
44,358,195767,6,0,B|166:369|111:282|294:308,1,215.999993408203,4|0,0:2|1:0,0:0:0:0:
321,362,196195,1,4,0:0:0:0:
124,230,196339,2,0,P|61:204|8:194,1,107.999996704102,4|0,0:0|0:0,0:0:0:0:
180,133,196624,2,0,P|184:76|330:62,1,215.999993408203,0|4,1:0|1:0,0:0:0:0:
417,65,197053,1,0,0:0:0:0:
325,62,197196,6,0,L|341:168,1,107.999996704102,0|0,1:0|0:0,0:0:0:0:
412,282,197481,1,4,0:0:0:0:
457,188,197624,1,4,0:0:0:0:
317,356,197767,1,0,1:0:0:0:
281,263,197909,1,4,0:0:0:0:
172,239,198053,6,0,L|26:226,1,107.999996704102,4|0,0:0|0:0,0:0:0:0:
220,154,198338,1,0,1:0:0:0:
208,61,198481,1,4,0:0:0:0:
328,150,198624,6,0,P|378:126|445:109,1,107.999996704102,2|0,0:2|0:0,0:0:0:0:
512,91,198909,1,0,1:0:0:0:
343,38,199052,1,4,0:0:0:0:
470,227,199196,6,0,P|393:238|348:375,1,215.999993408203,4|0,1:0|1:0,0:0:0:0:
69,229,199624,2,0,P|138:271|160:325,1,107.999996704102,2|0,0:0|0:0,0:0:0:0:
223,365,199909,1,4,0:0:0:0:
239,174,200053,2,0,P|261:253|250:318,1,107.999996704102,2|0,1:3|0:0,0:0:0:0:
15,101,200339,5,4,0:2:0:0:
110,125,200481,1,0,1:0:0:0:
136,132,200553,1,0,1:0:0:0:
160,139,200624,1,0,1:0:0:0:
17,15,200767,5,4,0:0:0:0:
258,68,200910,1,0,1:0:0:0:
36,186,201053,1,0,1:0:0:0:
141,44,201196,1,0,1:0:0:0:
234,215,201339,1,0,1:0:0:0:
454,128,201481,6,0,P|385:169|371:309,1,215.999993408203,4|0,1:0|1:0,0:0:0:0:
512,184,201909,1,4,0:0:0:0:
285,344,202053,2,0,P|251:301|195:285,1,107.999996704102,6|0,0:0|0:0,0:0:0:0:
13,236,202338,2,0,P|35:285|58:361,1,107.999996704102,0|4,1:0|0:0,0:0:0:0:
255,19,202624,5,6,0:0:0:0:
197,86,202767,1,4,0:0:0:0:
120,128,202909,1,0,1:0:0:0:
35,147,203052,1,6,0:0:0:0:
126,10,203196,5,0,0:0:0:0:
199,103,203339,1,4,0:0:0:0:
330,122,203481,1,0,1:0:0:0:
420,34,203624,1,4,0:0:0:0:
432,161,203767,6,0,L|408:375,1,215.999993408203,4|0,1:2|1:0,0:0:0:0:
512,262,204195,1,4,0:0:0:0:
319,371,204338,2,0,P|306:312|273:262,1,107.999996704102,6|0,0:0|0:0,0:0:0:0:
186,253,204624,1,0,1:0:0:0:
191,161,204767,1,4,0:0:0:0:
43,150,204909,5,4,0:2:0:0:
43,150,205195,1,0,1:0:0:0:
251,104,205339,2,0,P|174:139|114:38,1,215.999993408203,4|0,0:0|0:0,0:0:0:0:
290,186,205767,1,0,1:0:0:0:
323,33,205909,1,0,0:0:0:0:
432,250,206053,6,0,L|208:223,1,215.999993408203,4|0,1:0|1:0,0:0:0:0:
498,309,206481,1,0,0:0:0:0:
333,357,206624,2,0,P|263:332|211:320,1,107.999996704102,4|4,0:0|0:0,0:0:0:0:
379,156,206910,2,0,P|450:151|503:129,1,107.999996704102,0|4,1:0|0:0,0:0:0:0:
131,317,207195,5,4,0:0:0:0:
122,217,207338,1,4,0:0:0:0:
39,157,207481,1,0,1:0:0:0:
33,58,207624,1,4,0:0:0:0:
108,315,207767,5,4,0:0:0:0:
123,204,207910,1,4,0:0:0:0:
224,162,208053,1,4,0:0:0:0:
225,128,208124,1,4,0:0:0:0:
227,94,208195,1,4,0:0:0:0:
229,60,208267,1,4,0:0:0:0:
231,27,208339,6,0,P|217:67|340:78,1,215.999993408203,4|0,1:0|1:0,0:0:0:0:
490,208,208767,2,0,P|403:236|393:292,1,107.999996704102,4|4,0:0|0:0,0:0:0:0:
382,344,209053,1,4,0:0:0:0:
243,232,209196,2,0,P|286:300|293:356,1,107.999996704102,0|0,1:0|0:0,0:0:0:0:
15,242,209481,5,4,0:0:0:0:
170,172,209624,1,0,1:0:0:0:
152,72,209767,1,0,1:0:0:0:
15,233,209910,5,0,1:0:0:0:
162,163,210053,1,4,0:0:0:0:
325,191,210196,1,0,1:0:0:0:
18,217,210339,5,4,0:0:0:0:
71,222,210410,1,4,0:0:0:0:
113,253,210481,1,4,0:0:0:0:
134,303,210553,1,4,0:0:0:0:
126,355,210624,6,0,P|153:291|318:308,1,233.999989288331,4|0,1:0|0:0,0:0:0:0:
387,343,211053,1,4,0:0:0:0:
240,121,211196,2,0,L|220:382,1,233.999989288331,6|0,0:0|1:0,0:0:0:0:
326,90,211624,1,4,0:0:0:0:
43,175,211767,6,0,P|97:155|157:101,1,116.999994644165,6|0,0:0|0:0,0:0:0:0:
246,35,212053,1,0,1:0:0:0:
112,43,212196,2,0,P|68:25|-8:13,1,116.999994644165,6|0,0:0|0:0,0:0:0:0:
122,243,212481,2,0,P|100:307|86:371,1,116.999994644165,4|0,0:0|1:0,0:0:0:0:
24,256,212767,1,4,0:0:0:0:
228,171,212910,6,0,P|235:288|352:261,1,233.999989288331,4|0,1:2|0:0,0:0:0:0:
411,243,213339,1,4,0:0:0:0:
192,90,213481,2,0,P|128:73|54:68,1,116.999994644165,6|0,0:0|0:0,0:0:0:0:
224,11,213767,1,0,1:0:0:0:
126,163,213910,1,4,0:0:0:0:
423,132,214053,6,0,B|437:80|404:19|404:19|332:64|343:137,2,233.999989288331,4|0|4,0:2|0:0|0:0,0:0:0:0:
262,57,214767,1,0,0:0:0:0:
333,222,214910,2,0,P|409:213|488:211,1,116.999994644165,0|0,1:0|0:0,0:0:0:0:
209,366,215196,5,4,0:0:0:0:
279,296,215339,1,0,0:0:0:0:
209,366,215481,2,0,P|152:303|-13:297,1,233.999989288331,0|4,1:0|0:0,0:0:0:0:
194,280,215910,1,4,0:0:0:0:
88,310,216053,1,0,1:0:0:0:
114,177,216196,1,4,0:0:0:0:
296,323,216339,6,0,P|362:288|428:279,1,116.999994644165,4|0,0:0|0:0,0:0:0:0:
494,299,216624,1,0,1:0:0:0:
507,383,216767,1,4,0:0:0:0:
285,309,216910,2,0,P|286:219|322:161,1,116.999994644165,2|0,0:2|0:0,0:0:0:0:
365,95,217196,1,0,1:0:0:0:
488,71,217339,1,4,0:0:0:0:
291,300,217481,6,0,P|258:206|119:170,1,233.999989288331,4|0,1:0|0:0,0:0:0:0:
432,154,217910,2,0,P|415:215|407:292,1,116.999994644165,2|0,0:0|0:0,0:0:0:0:
493,86,218196,1,4,0:0:0:0:
286,110,218339,2,0,P|352:78|406:43,1,116.999994644165,2|0,1:3|0:0,0:0:0:0:
289,217,218624,5,4,1:2:0:0:
161,140,218767,5,0,1:0:0:0:
194,269,218910,1,0,1:0:0:0:
309,328,219053,1,4,0:0:0:0:
76,68,219196,5,0,1:0:0:0:
35,187,219339,1,0,1:0:0:0:
81,305,219481,1,0,1:0:0:0:
190,378,219624,1,0,1:0:0:0:
3,21,219767,6,0,L|275:52,1,233.999989288331,4|0,1:0|0:0,0:0:0:0:
329,59,220196,1,4,0:0:0:0:
278,208,220339,2,0,P|219:163|172:152,1,116.999994644165,6|0,0:0|0:0,0:0:0:0:
456,138,220624,2,0,P|427:204|411:292,1,116.999994644165,0|4,1:0|0:0,0:0:0:0:
176,351,220910,6,0,P|221:328|303:316,1,116.999994644165,6|0,0:0|0:0,0:0:0:0:
375,360,221196,1,0,1:0:0:0:
74,339,221339,2,0,P|29:255|-2:216,1,116.999994644165,6|0,0:0|0:0,0:0:0:0:
124,257,221624,2,0,P|162:202|230:150,1,116.999994644165,4|0,0:0|1:0,0:0:0:0:
0,374,221910,1,4,0:0:0:0:
274,204,222053,6,0,P|186:202|146:61,1,233.999989288331,4|0,1:2|0:0,0:0:0:0:
188,3,222481,1,4,0:0:0:0:
375,144,222624,2,0,L|380:284,1,116.999994644165,6|0,0:0|0:0,0:0:0:0:
504,83,222910,2,0,L|260:105,1,233.999989288331,0|4,1:0|0:2,0:0:0:0:
269,110,223481,5,0,0:0:0:0:
231,273,223624,2,0,P|206:207|49:183,1,233.999989288331,4|0,0:0|0:0,0:0:0:0:
242,360,224053,1,0,1:0:0:0:
276,118,224196,1,0,0:0:0:0:
104,293,224339,6,0,L|373:252,1,233.999989288331,4|0,0:0|1:0,0:0:0:0:
434,246,224767,1,0,0:0:0:0:
209,188,224910,2,0,P|141:168|50:159,1,116.999994644165,4|4,0:0|0:0,0:0:0:0:
398,88,225196,2,0,P|440:140|505:178,1,116.999994644165,0|4,1:0|0:0,0:0:0:0:
217,29,225481,5,4,0:0:0:0:
294,95,225624,1,4,0:0:0:0:
306,191,225767,1,0,1:0:0:0:
275,285,225910,1,4,0:0:0:0:
350,11,226053,5,4,0:0:0:0:
280,106,226196,1,4,0:0:0:0:
160,149,226339,1,4,0:0:0:0:
117,155,226410,1,4,0:0:0:0:
75,141,226481,1,4,0:0:0:0:
45,110,226553,1,4,0:0:0:0:
32,69,226624,5,4,1:0:0:0:
8,179,226767,1,0,0:0:0:0:
82,245,226910,1,0,1:0:0:0:
69,338,227053,1,4,0:0:0:0:
259,80,227196,5,4,0:2:0:0:
302,321,227339,1,0,0:0:0:0:
345,212,227482,1,0,1:0:0:0:
215,171,227625,1,0,0:0:0:0:
465,90,227767,5,8,0:0:0:0:
446,100,227838,1,8,0:0:0:0:
425,97,227909,1,8,0:0:0:0:
409,82,227981,1,8,0:0:0:0:
407,60,228052,1,4,0:0:0:0:
419,42,228124,1,4,0:0:0:0:
439,35,228195,1,4,0:0:0:0:
459,42,228267,1,4,0:0:0:0:
471,60,228338,5,0,1:0:0:0:
440,76,228410,1,4,0:0:0:0:
393,69,228481,1,0,1:0:0:0:
350,43,228553,1,4,0:0:0:0:
300,25,228624,1,0,1:0:0:0:
244,32,228696,1,4,0:0:0:0:
199,63,228767,1,0,1:0:0:0:
192,123,228839,1,4,0:0:0:0:
227,168,228910,5,4,1:0:0:0:
340,216,229053,1,4,0:0:0:0:
339,338,229196,1,4,0:0:0:0:
216,382,229339,1,4,0:0:0:0:
104,300,229481,5,0,1:0:0:0:
49,108,229767,1,4,0:0:0:0:
100,187,229910,1,4,0:0:0:0:
28,115,230053,1,4,0:0:0:0:
112,179,230196,1,4,0:0:0:0:
207,159,230339,1,4,0:0:0:0:
229,60,230481,1,4,0:0:0:0:
371,27,230624,5,0,1:0:0:0:
415,141,230767,1,2,0:0:0:0:
364,234,230910,1,4,0:0:0:0:
412,308,231053,1,2,0:0:0:0:
344,356,231196,5,4,0:0:0:0:
256,305,231339,1,4,0:0:0:0:
154,303,231481,1,4,0:0:0:0:
72,363,231624,1,4,0:0:0:0:
14,249,231767,5,0,1:0:0:0:
196,178,232053,1,4,0:0:0:0:
115,139,232196,1,4,0:0:0:0:
334,132,232481,1,4,0:0:0:0:
245,99,232624,1,4,0:0:0:0:
192,23,232767,1,4,0:0:0:0:
483,110,232910,5,0,1:0:0:0:
388,257,233053,1,0,1:0:0:0:
403,37,233196,1,0,1:0:0:0:
483,334,233339,1,0,1:0:0:0:
184,293,233481,5,4,1:0:0:0:
