osu file format v14

[General]
AudioFilename: audio.mp3
AudioLeadIn: 0
PreviewTime: 169228
Countdown: 0
SampleSet: Soft
StackLeniency: 0.4
Mode: 0
LetterboxInBreaks: 0
WidescreenStoryboard: 0

[Editor]
Bookmarks: 67884,146993
DistanceSpacing: 0.7
BeatDivisor: 4
GridSize: 8
TimelineZoom: 3.499999

[Metadata]
Title:Liar Liar (Wasteland Monarchy)
TitleUnicode:Liar Liar (Wasteland Monarchy)
Artist:KAMELOT
ArtistUnicode:KAMELOT
Creator:xBlurinq
Version:Insincerity
Source:
Tags:camelot rock metal english power symphonic progressive alissa white-gluz haven
BeatmapID:3595825
BeatmapSetID:1723165

[Difficulty]
HPDrainRate:5
CircleSize:4.2
OverallDifficulty:9
ApproachRate:9.3
SliderMultiplier:1.6
SliderTickRate:1

[Events]
//Background and Video events
0,0,"lwmbg.jpg",0,0
//Break Periods
//Storyboard Layer 0 (Background)
//Storyboard Layer 1 (Fail)
//Storyboard Layer 2 (Pass)
//Storyboard Layer 3 (Foreground)
//Storyboard Layer 4 (Overlay)
//Storyboard Sound Samples

[TimingPoints]
59,352.941176470588,4,2,25,20,1,0
59,-200,4,2,25,20,0,0
1470,-250,4,2,52,10,0,0
2882,-222.222222222222,4,2,57,15,0,0
4206,-200,4,2,57,5,0,0
4294,-200,4,2,60,20,0,0
5617,-200,4,2,60,5,0,0
5706,-200,4,2,13,20,0,0
6323,-200,4,2,2,5,0,0
6411,-250,4,2,55,20,0,0
7823,-250,4,2,54,20,0,0
8176,-200,4,2,2,20,0,0
10294,-200,4,2,2,30,0,0
10647,-200,4,2,2,40,0,0
11000,-200,4,2,2,50,0,0
11353,-111.111111111111,4,2,2,65,0,0
19823,-111.111111111111,4,2,2,55,0,0
20529,-111.111111111111,4,2,2,60,0,0
21235,-111.111111111111,4,2,2,65,0,0
24058,-111.111111111111,4,2,2,70,0,0
25470,-111.111111111111,4,2,2,65,0,0
31117,-111.111111111111,4,2,2,55,0,0
31823,-111.111111111111,4,2,2,60,0,0
32529,-111.111111111111,4,2,2,65,0,0
33941,-111.111111111111,4,2,2,50,0,0
35882,-83.3333333333333,4,2,2,50,0,0
38176,-250,4,2,2,50,0,0
39500,-250,4,2,2,5,0,0
39588,-111.111111111111,4,2,2,50,0,0
41529,-83.3333333333333,4,2,2,50,0,0
42411,-125,4,2,2,50,0,0
43735,-125,4,2,2,5,0,0
43823,-125,4,2,2,50,0,0
45235,-125,4,2,2,45,0,0
57235,-117.647058823529,4,2,2,45,0,0
67117,-117.647058823529,4,2,2,55,0,0
67823,-142.857142857143,4,2,45,20,0,0
69235,-133.333333333333,4,2,50,25,0,0
69941,-125,4,2,52,30,0,0
70647,-111.111111111111,4,2,57,30,0,0
71353,-111.111111111111,4,2,55,30,0,0
71706,-111.111111111111,4,2,52,30,0,0
72058,-111.111111111111,4,2,53,25,0,0
72411,-111.111111111111,4,2,52,25,0,0
72764,-111.111111111111,4,2,50,20,0,0
73117,-111.111111111111,4,2,52,20,0,0
73470,-125,4,2,53,25,0,0
74882,-125,4,2,52,25,0,0
75235,-125,4,2,50,25,0,0
75588,-125,4,2,55,30,0,0
75941,-125,4,2,50,25,0,0
76294,-125,4,2,52,20,0,0
76647,-125,4,2,48,20,0,0
77000,-125,4,2,52,20,0,0
77353,-125,4,2,48,20,0,0
77706,-125,4,2,52,20,0,0
78058,-125,4,2,48,20,0,0
78235,-125,4,2,47,20,0,0
78411,-125,4,2,48,25,0,0
78588,-125,4,2,47,25,0,0
78764,-125,4,2,48,30,0,0
78941,-125,4,2,47,30,0,0
79117,-125,4,2,48,35,0,0
79470,-125,4,2,45,20,0,0
79647,-125,4,2,40,20,0,0
79823,-125,4,2,48,20,0,0
80176,-125,4,2,45,25,0,0
80529,-142.857142857143,4,2,50,25,0,0
81235,-125,4,2,52,30,0,0
81941,-125,4,2,57,35,0,0
82294,-125,4,2,52,30,0,0
82647,-125,4,2,55,25,0,0
83000,-125,4,2,52,20,0,0
83353,-125,4,2,53,30,0,0
83706,-125,4,2,52,25,0,0
84058,-125,4,2,50,20,0,0
84411,-125,4,2,52,15,0,0
84764,-125,4,2,53,20,0,0
85117,-125,4,2,50,20,0,0
85470,-125,4,2,53,20,0,0
85823,-125,4,2,50,20,0,0
86176,-125,4,2,52,20,0,0
86529,-125,4,2,50,20,0,0
86882,-111.111111111111,4,2,55,25,0,0
87235,-111.111111111111,4,2,50,25,0,0
87588,-111.111111111111,4,2,52,10,0,0
87941,-111.111111111111,4,2,48,15,0,0
88294,-111.111111111111,4,2,52,20,0,0
88647,-111.111111111111,4,2,48,25,0,0
89000,-142.857142857143,4,2,52,10,0,0
89353,-125,4,2,48,25,0,0
89706,-111.111111111111,4,2,52,40,0,0
90058,-100,4,2,48,55,0,0
90411,-76.923076923077,4,2,2,80,0,1
110176,-76.923076923077,4,2,2,70,0,1
110882,-76.923076923077,4,2,2,75,0,1
111588,-76.923076923077,4,2,2,80,0,1
113000,-76.923076923077,4,2,2,50,0,0
114941,-83.3333333333333,4,2,2,50,0,0
117235,-250,4,2,2,50,0,0
118558,-250,4,2,2,5,0,0
118647,-111.111111111111,4,2,2,50,0,0
120588,-83.3333333333333,4,2,2,50,0,0
121470,-125,4,2,2,50,0,0
122794,-125,4,2,2,5,0,0
122882,-125,4,2,2,50,0,0
136294,-117.647058823529,4,2,2,50,0,0
146794,-125,4,2,2,5,0,0
146932,352.941176470588,4,2,48,20,1,0
146932,-142.857142857143,4,2,48,20,0,0
147284,-142.857142857143,4,2,45,20,0,0
147637,-142.857142857143,4,2,48,20,0,0
147990,-142.857142857143,4,2,45,20,0,0
148343,-133.333333333333,4,2,50,25,0,0
149049,-125,4,2,52,30,0,0
149755,-111.111111111111,4,2,57,35,0,0
150461,-111.111111111111,4,2,55,30,0,0
150814,-111.111111111111,4,2,52,30,0,0
151167,-111.111111111111,4,2,53,25,0,0
151520,-111.111111111111,4,2,52,25,0,0
151873,-111.111111111111,4,2,50,20,0,0
152226,-111.111111111111,4,2,52,20,0,0
152579,-125,4,2,53,25,0,0
153990,-125,4,2,52,25,0,0
154343,-125,4,2,50,25,0,0
154696,-125,4,2,55,30,0,0
155049,-125,4,2,50,25,0,0
155402,-125,4,2,52,20,0,0
155755,-125,4,2,48,20,0,0
156108,-125,4,2,52,20,0,0
156461,-125,4,2,48,20,0,0
156814,-125,4,2,52,20,0,0
157167,-125,4,2,48,20,0,0
157343,-125,4,2,47,20,0,0
157520,-125,4,2,48,25,0,0
157696,-125,4,2,47,25,0,0
157873,-125,4,2,48,30,0,0
158049,-125,4,2,47,30,0,0
158226,-125,4,2,48,35,0,0
158579,-125,4,2,45,20,0,0
158755,-125,4,2,40,20,0,0
158932,-125,4,2,48,20,0,0
159284,-125,4,2,45,25,0,0
159637,-142.857142857143,4,2,50,25,0,0
160343,-125,4,2,52,30,0,0
161049,-125,4,2,57,35,0,0
161402,-125,4,2,52,30,0,0
161755,-125,4,2,55,25,0,0
162108,-125,4,2,52,20,0,0
162461,-125,4,2,53,30,0,0
162814,-125,4,2,52,25,0,0
163167,-125,4,2,50,20,0,0
163520,-125,4,2,52,15,0,0
163873,-125,4,2,53,20,0,0
164226,-125,4,2,50,20,0,0
164579,-125,4,2,53,20,0,0
164932,-125,4,2,50,20,0,0
165284,-125,4,2,52,20,0,0
165637,-125,4,2,50,20,0,0
165990,-111.111111111111,4,2,55,25,0,0
166343,-111.111111111111,4,2,50,25,0,0
166696,-142.857142857143,4,2,52,10,0,0
167049,-142.857142857143,4,2,48,15,0,0
167402,-142.857142857143,4,2,52,20,0,0
167755,-142.857142857143,4,2,48,25,0,0
168108,-142.857142857143,4,2,52,10,0,0
168461,-125,4,2,48,25,0,0
168814,-111.111111111111,4,2,52,40,0,0
169167,-100,4,2,48,55,0,0
169475,352.941176470588,4,2,2,80,1,1
169475,-76.9230769230769,4,2,2,80,0,1
189239,-76.9230769230769,4,2,2,70,0,1
189945,-76.9230769230769,4,2,2,75,0,1
192063,-83.3333333333333,4,2,2,60,0,0
192769,-83.3333333333333,4,2,2,65,0,0
193475,-83.3333333333333,4,2,2,70,0,0
194180,-55.5555555555556,4,2,2,80,0,0
194357,-83.3333333333333,4,2,2,80,0,0
194445,-83.3333333333333,4,2,2,70,0,0
195239,-66.6666666666667,4,2,2,75,0,0
195857,-76.9230769230769,4,2,2,70,0,0
196122,-83.3333333333333,4,2,2,70,0,0
203004,-83.3333333333333,4,2,2,60,0,0
203357,-83.3333333333333,4,2,2,70,0,0
214651,-83.3333333333333,4,2,2,50,0,0
218886,-250,4,2,2,50,0,0
220210,-250,4,2,2,5,0,0
220298,-250,4,2,2,50,0,0
222239,-83.3333333333333,4,2,2,50,0,0
223122,-125,4,2,2,50,0,0
224445,-125,4,2,2,5,0,0
224533,-125,4,2,2,50,0,0
225945,-125,4,2,2,60,0,0
226298,-111.111111111111,4,2,2,60,0,0
227004,-111.111111111111,4,2,2,5,0,0
227092,-111.111111111111,4,2,2,60,0,0
227269,-111.111111111111,4,2,2,5,0,0
227357,-111.111111111111,4,2,2,60,0,0
229122,-90.9090909090908,4,2,2,60,0,0
231945,-111.111111111111,4,2,2,60,0,0
237239,-90.9090909090908,4,2,2,65,0,0
237592,-45.4545454545455,4,2,2,65,0,0
237769,-90.9090909090909,4,2,2,65,0,0
238298,-45.4545454545455,4,2,2,65,0,0
238474,-90.9090909090909,4,2,2,65,0,0
239004,-45.4545454545455,4,2,2,65,0,0
239180,-90.9090909090909,4,2,2,65,0,0
241827,-71.4285714285714,4,2,2,65,0,0
242269,-62.5,4,2,2,70,0,0
242710,-55.5555555555556,4,2,2,75,0,0
243239,-90.9090909090909,4,2,2,65,0,0
245004,-45.4545454545455,4,2,2,70,0,0
245269,-90.9090909090909,4,2,2,70,0,0
248533,-100,4,2,2,50,0,0
259827,-90.9090909090909,4,2,2,60,0,0
260445,-90.9090909090909,4,2,2,5,0,0
260533,-90.9090909090909,4,2,2,60,0,0
260798,-90.9090909090909,4,2,2,5,0,0
260886,-90.9090909090909,4,2,2,60,0,0
263269,-90.9090909090909,4,2,2,5,0,0
263357,-90.9090909090909,4,2,2,60,0,0
266092,-90.9090909090909,4,2,2,5,0,0
266180,-90.9090909090909,4,2,2,60,0,0
266445,-90.9090909090909,4,2,2,5,0,0
266533,-90.9090909090909,4,2,2,60,0,0
269710,-90.9090909090909,4,2,2,70,0,0
271122,-90.9090909090909,4,2,2,50,0,0
273063,-83.3333333333333,4,2,2,50,0,0
275357,-250,4,2,2,50,0,0
276680,-250,4,2,2,5,0,0
276769,-250,4,2,2,50,0,0
278710,-83.3333333333333,4,2,2,50,0,0
279592,352.941176470588,4,2,2,50,1,0
279592,-125,4,2,2,50,0,0
280915,-125,4,2,2,5,0,0
281003,-125,4,2,2,50,0,0
281797,-125,4,2,2,5,0,0
281886,-125,4,2,2,40,0,0
282062,-125,4,2,2,30,0,0
282239,-125,4,2,2,20,0,0
282415,-166.666666666667,4,2,2,40,0,0
283739,-166.666666666667,4,2,2,5,0,0
283827,-76.9230769230769,4,2,2,70,0,0
284533,-76.9230769230769,4,2,2,55,0,0
285239,-76.9230769230769,4,2,2,80,0,1
305003,-76.9230769230769,4,2,2,70,0,1
305709,-76.9230769230769,4,2,2,75,0,1
306768,-76.9230769230769,4,2,2,80,0,1
327592,-76.9230769230769,4,2,2,70,0,1
328297,-76.9230769230769,4,2,2,75,0,1
329003,-76.9230769230769,4,2,2,80,0,1
329356,-76.9230769230769,4,2,2,85,0,1
330415,-166.666666666667,4,2,2,85,0,0
330503,-166.666666666667,4,2,2,5,0,0

[Colours]
Combo1 : 121,121,121
Combo2 : 148,73,73
Combo3 : 170,55,0
Combo4 : 114,126,63

[HitObjects]
57,351,59,6,0,B|119:336|137:270|137:270|183:320|248:309,1,240,2|0,0:2|0:3,0:0:0:0:
225,173,1470,2,0,P|204:185|236:176,1,128,2|0,0:2|0:3,0:0:0:0:
54,106,2882,6,0,B|119:135|178:100|178:100|169:94|169:94|233:59|295:88,1,269.999991760254,2|0,0:2|0:3,0:0:0:0:
321,166,4294,6,0,B|367:146|373:91|373:91|367:146|400:177|400:177|445:220|426:280,1,300,2|0,0:2|0:3,0:0:0:0:
486,343,5706,6,0,P|426:362|356:326,1,140,2|0,0:2|0:3,0:0:0:0:
273,354,6411,2,0,B|263:314|283:280|283:280|256:236,2,128,2|2|2,0:2|0:2|0:2,0:0:0:0:
281,255,8176,6,0,L|261:221,1,40,0|0,0:3|0:3,0:0:0:0:
219,152,8529,1,0,0:0:0:0:
219,152,9941,5,0,0:3:0:0:
242,130,10294,1,0,0:3:0:0:
330,103,10647,1,0,0:3:0:0:
433,166,11000,1,0,0:3:0:0:
476,354,11353,5,10,0:3:0:0:
447,333,11441,1,0,3:3:0:0:
412,325,11529,1,0,3:3:0:0:
377,333,11617,1,0,3:3:0:0:
349,355,11706,1,8,0:3:0:0:
320,376,11794,1,0,3:3:0:0:
285,384,11882,1,0,3:3:0:0:
250,376,11970,1,0,3:3:0:0:
222,354,12058,1,8,0:3:0:0:
201,325,12147,1,0,3:3:0:0:
193,290,12235,1,0,3:3:0:0:
201,255,12323,1,0,3:3:0:0:
223,227,12411,2,0,P|237:214|253:208,3,35.9999989013672,10|0|0|0,0:3|3:3|3:3|3:3,0:0:0:0:
353,301,12764,5,10,0:3:0:0:
353,310,12852,1,0,3:3:0:0:
352,319,12941,2,0,L|348:358,1,35.9999989013672,0|0,3:3|3:3,0:0:0:0:
470,265,13117,2,0,L|466:304,1,35.9999989013672,10|0,0:3|3:3,0:0:0:0:
366,185,13294,2,0,L|362:224,1,35.9999989013672,0|0,3:3|3:3,0:0:0:0:
482,101,13470,5,10,0:3:0:0:
473,101,13558,1,0,3:3:0:0:
464,102,13647,2,0,L|425:106,1,35.9999989013672,0|0,3:3|3:3,0:0:0:0:
223,227,13823,1,10,0:3:0:0:
232,227,13911,1,0,3:3:0:0:
241,228,14000,2,0,L|280:232,1,35.9999989013672,0|0,3:3|3:3,0:0:0:0:
79,159,14176,5,14,0:3:0:0:
55,132,14264,1,0,3:3:0:0:
51,96,14352,1,0,3:3:0:0:
68,64,14440,1,0,3:3:0:0:
98,46,14528,1,8,0:3:0:0:
133,48,14617,1,0,3:3:0:0:
163,68,14705,1,0,3:3:0:0:
176,101,14793,1,0,3:3:0:0:
170,137,14882,1,8,0:3:0:0:
162,174,14970,1,0,3:3:0:0:
177,205,15058,1,0,3:3:0:0:
205,226,15146,1,0,3:3:0:0:
241,228,15235,2,0,L|280:232,3,35.9999989013672,10|0|0|0,0:3|3:3|3:3|3:3,0:0:0:0:
289,49,15588,5,10,0:3:0:0:
289,58,15676,1,0,3:3:0:0:
290,67,15765,2,0,L|294:106,1,35.9999989013672,0|0,3:3|3:3,0:0:0:0:
199,116,15941,2,0,L|195:80,3,35.9999989013672,10|0|0|0,0:3|3:3|3:3|3:3,0:0:0:0:
154,284,16294,5,10,0:3:0:0:
145,284,16382,1,0,3:3:0:0:
136,283,16470,2,0,L|97:279,1,35.9999989013672,0|0,3:3|3:3,0:0:0:0:
0,160,16647,1,10,0:3:0:0:
9,160,16735,1,0,3:3:0:0:
18,159,16824,2,0,L|57:155,1,35.9999989013672,0|0,3:3|3:3,0:0:0:0:
229,216,17000,5,14,0:3:0:0:
258,237,17088,1,0,3:3:0:0:
293,245,17176,1,0,3:3:0:0:
328,237,17264,1,0,3:3:0:0:
356,215,17353,1,8,0:3:0:0:
385,194,17441,1,0,3:3:0:0:
420,186,17529,1,0,3:3:0:0:
455,194,17617,1,0,3:3:0:0:
483,216,17705,1,8,0:3:0:0:
504,245,17794,1,0,3:3:0:0:
512,280,17882,1,0,3:3:0:0:
504,315,17970,1,0,3:3:0:0:
482,343,18058,2,0,P|468:356|452:362,3,35.9999989013672,10|0|0|0,0:3|3:3|3:3|3:3,0:0:0:0:
420,186,18411,5,10,0:3:0:0:
420,177,18500,1,0,3:3:0:0:
421,168,18588,2,0,L|425:129,1,35.9999989013672,0|0,3:3|3:3,0:0:0:0:
309,120,18764,2,0,L|305:155,3,35.9999989013672,10|0|0|0,0:3|3:3|3:3|3:3,0:0:0:0:
238,348,19117,5,10,0:3:0:0:
229,348,19205,1,0,3:3:0:0:
220,349,19294,2,0,L|181:353,1,35.9999989013672,0|0,3:3|3:3,0:0:0:0:
365,271,19470,1,10,0:3:0:0:
374,271,19558,1,0,3:3:0:0:
383,272,19647,2,0,L|422:276,1,35.9999989013672,0|0,3:3|3:3,0:0:0:0:
202,104,19823,5,14,0:3:0:0:
190,117,19911,1,0,3:3:0:0:
176,128,20000,1,0,3:3:0:0:
160,136,20088,1,0,3:3:0:0:
142,140,20175,1,8,0:3:0:0:
124,140,20264,1,0,3:3:0:0:
107,137,20352,1,0,3:3:0:0:
90,129,20440,1,0,3:3:0:0:
60,92,20528,5,10,0:3:0:0:
80,73,20617,1,0,3:3:0:0:
107,70,20705,1,0,3:3:0:0:
131,83,20793,1,0,3:3:0:0:
144,106,20882,1,8,0:3:0:0:
143,132,20970,1,0,3:3:0:0:
128,154,21058,1,0,3:3:0:0:
103,164,21146,1,0,3:3:0:0:
64,197,21235,5,10,0:3:0:0:
93,218,21324,1,0,3:3:0:0:
128,226,21412,1,0,3:3:0:0:
163,218,21500,1,0,3:3:0:0:
191,196,21588,1,8,0:3:0:0:
220,175,21677,1,0,3:3:0:0:
255,167,21765,1,0,3:3:0:0:
290,175,21853,1,0,3:3:0:0:
318,197,21941,5,10,0:3:0:0:
323,143,22029,1,8,0:3:0:0:
328,89,22117,2,0,L|331:53,1,35.9999989013672,8|0,0:3|3:3,0:0:0:0:
308,305,22294,2,0,L|304:340,1,35.9999989013672,10|0,0:3|3:3,0:0:0:0:
248,136,22470,1,8,0:3:0:0:
253,82,22558,1,8,0:3:0:0:
258,28,22647,5,14,0:3:0:0:
246,62,22735,1,0,3:3:0:0:
216,83,22823,1,0,3:3:0:0:
181,84,22911,1,0,3:3:0:0:
149,67,22999,1,8,0:3:0:0:
120,43,23089,1,0,3:3:0:0:
84,38,23177,1,0,3:3:0:0:
52,53,23265,1,0,3:3:0:0:
33,82,23354,1,8,0:3:0:0:
34,119,23442,1,0,3:3:0:0:
53,148,23530,1,0,3:3:0:0:
86,164,23618,1,0,3:3:0:0:
121,157,23706,2,0,P|137:163|150:175,3,35.9999989013672,10|0|0|0,0:3|3:3|3:3|3:3,0:0:0:0:
106,365,24058,5,10,0:3:0:0:
68,374,24146,1,0,3:3:0:0:
29,365,24235,2,0,P|13:359|0:347,1,35.9999989013672,0|0,3:3|3:3,0:0:0:0:
108,265,24411,2,0,P|91:267|73:263,1,35.9999989013672,10|0,0:3|3:3,0:0:0:0:
152,140,24588,2,0,P|138:150|121:156,1,35.9999989013672,0|0,3:0|3:0,0:0:0:0:
38,36,24764,5,10,0:3:0:0:
36,53,24852,1,0,3:3:0:0:
34,70,24941,2,0,L|30:109,1,35.9999989013672,0|0,3:3|3:3,0:0:0:0:
237,133,25117,1,10,0:3:0:0:
235,116,25206,1,0,3:3:0:0:
233,99,25294,2,0,L|229:60,1,35.9999989013672,0|0,3:3|3:3,0:0:0:0:
181,239,25470,5,14,0:3:0:0:
210,260,25558,1,0,3:3:0:0:
245,268,25647,1,0,3:3:0:0:
280,260,25735,1,0,3:3:0:0:
308,238,25824,1,8,0:3:0:0:
337,217,25912,1,0,3:3:0:0:
372,209,26000,1,0,3:3:0:0:
407,217,26088,1,0,3:3:0:0:
435,239,26176,1,8,0:3:0:0:
456,268,26265,1,0,3:3:0:0:
464,303,26353,1,0,3:3:0:0:
456,338,26441,1,0,3:3:0:0:
434,366,26529,2,0,P|420:379|404:385,3,35.9999989013672,10|0|0|0,0:3|3:3|3:3|3:3,0:0:0:0:
507,151,26882,5,10,0:3:0:0:
507,160,26970,1,0,3:3:0:0:
508,169,27059,2,0,L|512:208,1,35.9999989013672,0|0,3:3|3:3,0:0:0:0:
407,217,27235,2,0,L|403:182,3,35.9999989013672,10|0|0|0,0:3|3:3|3:3|3:3,0:0:0:0:
353,24,27588,5,10,0:3:0:0:
362,24,27676,1,0,3:3:0:0:
371,23,27764,2,0,L|410:19,1,35.9999989013672,0|0,3:3|3:3,0:0:0:0:
241,151,27941,1,10,0:3:0:0:
232,151,28029,1,0,3:3:0:0:
223,150,28117,2,0,L|184:146,1,35.9999989013672,0|0,3:3|3:3,0:0:0:0:
7,209,28294,5,14,0:3:0:0:
0,244,28382,1,0,3:3:0:0:
16,277,28470,1,0,3:3:0:0:
45,296,28558,1,0,3:3:0:0:
82,297,28646,1,8,0:3:0:0:
111,278,28735,1,0,3:3:0:0:
126,246,28823,1,0,3:3:0:0:
121,210,28911,1,0,3:3:0:0:
97,181,29001,1,8,0:3:0:0:
80,149,29089,1,0,3:3:0:0:
81,114,29177,1,0,3:3:0:0:
102,84,29265,1,0,3:3:0:0:
136,72,29353,2,0,P|152:65|165:53,3,35.9999989013672,10|0|0|0,0:3|3:3|3:3|3:3,0:0:0:0:
229,229,29706,5,10,0:3:0:0:
238,229,29794,1,0,3:3:0:0:
247,230,29882,2,0,L|286:234,1,35.9999989013672,0|0,3:3|3:3,0:0:0:0:
295,118,30058,2,0,L|260:114,3,35.9999989013672,10|0|0|0,0:3|3:3|3:3|3:3,0:0:0:0:
486,131,30411,5,10,0:3:0:0:
486,140,30499,1,0,3:3:0:0:
485,149,30588,2,0,L|481:188,1,35.9999989013672,0|0,3:3|3:3,0:0:0:0:
382,308,30764,1,10,0:3:0:0:
382,299,30852,1,0,3:3:0:0:
381,290,30941,2,0,L|377:251,1,35.9999989013672,0|0,3:3|3:3,0:0:0:0:
365,75,31117,5,14,0:3:0:0:
353,62,31205,1,0,3:3:0:0:
339,51,31293,1,0,3:3:0:0:
323,43,31381,1,0,3:3:0:0:
305,39,31469,1,8,0:3:0:0:
287,39,31558,1,0,3:3:0:0:
270,42,31646,1,0,3:3:0:0:
253,50,31734,1,0,3:3:0:0:
214,22,31823,5,10,0:3:0:0:
198,39,31911,1,0,3:3:0:0:
179,53,31999,1,0,3:3:0:0:
158,64,32087,1,0,3:3:0:0:
134,69,32176,1,8,0:3:0:0:
110,69,32264,1,0,3:3:0:0:
87,65,32352,1,0,3:3:0:0:
64,55,32440,1,0,3:3:0:0:
11,0,32529,5,10,0:3:0:0:
33,34,32617,1,0,3:3:0:0:
39,78,32705,1,0,3:3:0:0:
29,118,32793,1,0,3:3:0:0:
14,159,32881,1,0,3:3:0:0:
14,202,32970,1,0,3:3:0:0:
28,243,33058,2,0,P|35:259|47:272,1,35.9999989013672,8|0,0:3|3:3,0:0:0:0:
221,366,33235,1,10,0:3:0:0:
255,335,33323,1,0,3:3:0:0:
268,290,33411,1,0,3:3:0:0:
257,246,33499,1,0,3:3:0:0:
224,213,33588,2,0,L|185:217,1,35.9999989013672,8|0,0:3|3:3,0:0:0:0:
427,308,33764,2,0,L|466:312,1,35.9999989013672,8|0,0:3|3:3,0:0:0:0:
358,61,33941,5,14,0:3:0:0:
353,103,34029,1,8,0:3:0:0:
349,146,34117,1,10,0:3:0:0:
344,189,34205,1,8,0:3:0:0:
340,232,34294,1,10,0:3:0:0:
351,241,34647,5,2,0:3:0:0:
361,146,34823,1,2,0:3:0:0:
370,53,34999,1,2,0:3:0:0:
382,44,35354,5,2,0:3:0:0:
373,146,35529,1,2,0:3:0:0:
362,251,35706,1,2,0:3:0:0:
384,24,35882,6,0,B|359:48|359:48|298:44,1,95.9999970703126,6|0,3:3|0:3,0:0:0:0:
261,232,36235,2,0,B|286:256|286:256|347:252,1,95.9999970703126,6|0,3:3|0:3,0:0:0:0:
190,134,36588,1,6,3:3:0:0:
90,250,36764,5,14,0:3:0:0:
132,245,36852,1,8,0:3:0:0:
175,241,36941,1,10,0:3:0:0:
218,236,37029,1,8,0:3:0:0:
261,232,37117,1,10,0:3:0:0:
270,243,37470,5,2,0:3:0:0:
175,253,37646,1,2,0:3:0:0:
82,262,37822,1,2,0:3:0:0:
289,242,38000,5,10,0:3:0:0:
138,339,38176,2,0,B|197:358|197:358|249:340|249:340|314:369|369:338,1,240,6|0,3:3|0:3,0:0:0:0:
424,282,39588,5,14,0:3:0:0:
443,244,39676,1,8,0:3:0:0:
446,200,39764,1,10,0:3:0:0:
429,161,39852,1,8,0:3:0:0:
397,131,39940,1,10,0:3:0:0:
400,123,40294,5,2,0:3:0:0:
454,199,40470,1,2,0:3:0:0:
430,289,40646,1,2,0:3:0:0:
436,297,41000,5,2,0:3:0:0:
462,198,41176,1,2,0:3:0:0:
403,114,41352,1,2,0:3:0:0:
437,306,41529,6,0,B|461:281|461:281|457:220,1,95.9999970703126,6|0,3:3|0:3,0:0:0:0:
339,54,41882,2,0,B|315:79|315:79|319:140,1,95.9999970703126,6|0,3:3|0:3,0:0:0:0:
330,319,42235,1,14,0:3:0:0:
233,105,42411,6,0,B|137:132|160:252|160:252|107:106|30:125|-20:180|12:244|68:239,1,480,6|0,0:3|0:3,0:0:0:0:
78,257,43823,2,0,P|121:321|224:303,1,192,6|0,3:3|3:3,0:0:0:0:
244,283,44411,2,0,L|222:280,1,21.3333333333333,0|0,3:3|3:3,0:0:0:0:
249,267,44529,1,8,0:3:0:0:
266,195,44706,1,0,3:3:0:0:
338,213,44882,1,0,3:3:0:0:
320,284,45058,1,0,3:3:0:0:
340,206,45236,5,4,3:3:0:0:
361,208,45324,1,0,3:3:0:0:
382,210,45412,1,0,3:3:0:0:
404,213,45500,1,0,3:3:0:0:
425,215,45588,1,0,3:3:0:0:
425,215,45941,6,0,B|430:168|430:168|432:168|432:168|438:121,2,96,8|0|0,0:3|0:3|0:3,0:0:0:0:
411,320,46647,1,2,0:3:0:0:
411,320,47000,1,0,0:3:0:0:
294,383,47176,1,2,3:3:0:0:
242,223,47353,2,0,B|127:255|173:178|56:206,1,192,10|0,0:3|0:3,0:0:0:0:
35,338,48058,5,0,3:3:0:0:
56,338,48146,1,0,3:3:0:0:
76,328,48234,1,0,3:3:0:0:
88,311,48322,1,0,3:3:0:0:
93,290,48410,1,0,3:3:0:0:
93,290,48764,6,0,B|122:310|119:345|119:345|122:310|154:295,1,128,8|0,0:3|0:3,0:0:0:0:
200,365,49294,1,2,3:3:0:0:
129,212,49470,6,0,P|63:209|16:248,1,128,2|0,3:3|0:3,0:0:0:0:
153,295,50000,1,2,3:3:0:0:
197,117,50176,2,0,P|263:114|310:153,1,128,10|0,0:3|0:3,0:0:0:0:
233,195,50706,1,0,0:3:0:0:
368,226,50882,5,4,3:3:0:0:
389,224,50970,1,0,3:3:0:0:
410,222,51058,1,0,3:3:0:0:
432,219,51146,1,0,3:3:0:0:
453,217,51235,1,0,3:3:0:0:
326,321,51588,5,8,0:3:0:0:
326,321,52294,1,0,3:3:0:0:
414,309,52823,1,2,3:3:0:0:
326,321,53000,2,0,B|262:328|262:328|213:287|213:287|213:287|213:287|149:294,1,192,10|0,0:3|3:3,0:0:0:0:
32,292,53706,6,0,L|223:272,1,192,6|0,3:3|0:3,0:0:0:0:
115,174,54411,1,8,0:3:0:0:
115,174,54941,1,0,3:3:0:0:
190,217,55117,6,0,P|140:255|78:251,1,128,6|0,3:3|0:3,0:0:0:0:
14,125,55647,1,0,3:3:0:0:
17,103,55735,1,0,3:3:0:0:
19,81,55823,1,8,0:3:0:0:
115,174,56000,1,0,3:3:0:0:
156,19,56176,2,0,P|189:11|220:19,1,64,0|0,3:3|0:3,0:0:0:0:
245,142,56529,5,4,3:3:0:0:
224,142,56617,1,0,3:3:0:0:
204,132,56705,1,0,3:3:0:0:
192,115,56793,1,0,3:3:0:0:
187,94,56881,1,0,3:3:0:0:
187,94,57235,6,0,L|193:160,1,68.0000012969971,10|0,0:3|0:3,0:0:0:0:
267,215,57588,2,0,L|273:148,1,68.0000012969971,2|0,0:3|0:3,0:0:0:0:
347,94,57941,2,0,L|353:160,1,68.0000012969971,2|2,0:3|0:3,0:0:0:0:
361,254,58294,1,2,0:3:0:0:
434,162,58470,1,2,3:3:0:0:
380,340,58647,6,0,B|323:346|289:303|289:303|240:284|193:314,1,204.000003890991,10|0,0:3|0:3,0:0:0:0:
32,334,59353,5,4,3:3:0:0:
53,336,59441,1,0,3:3:0:0:
74,338,59529,1,0,3:3:0:0:
96,341,59617,1,0,3:3:0:0:
117,343,59706,1,0,3:3:0:0:
117,343,60058,6,0,L|110:275,1,68.0000012969971,8|0,0:3|0:3,0:0:0:0:
103,198,60411,1,0,0:3:0:0:
32,334,60588,1,2,3:3:0:0:
61,121,60764,6,0,P|126:115|179:155,1,136.000002593994,6|0,3:3|0:3,0:0:0:0:
257,273,61294,1,2,3:3:0:0:
392,69,61470,2,0,P|326:63|273:103,1,136.000002593994,10|0,0:3|0:3,0:0:0:0:
350,146,62000,1,0,0:3:0:0:
257,273,62176,5,4,3:3:0:0:
259,252,62264,1,0,3:3:0:0:
262,230,62353,1,0,3:3:0:0:
264,209,62441,1,0,3:3:0:0:
266,188,62529,1,0,3:3:0:0:
266,188,62882,6,0,L|273:254,1,68.0000012969971,10|0,0:3|0:3,0:0:0:0:
175,135,63235,2,0,L|182:68,1,68.0000012969971,2|0,0:3|0:3,0:0:0:0:
109,203,63588,2,0,L|115:269,1,68.0000012969971,2|0,0:3|0:3,0:0:0:0:
46,116,63941,1,2,0:3:0:0:
0,208,64117,5,2,3:3:0:0:
119,303,64294,2,0,B|170:290|185:234|185:234|222:276|277:267,1,204.000003890991,10|2,0:3|3:3,0:0:0:0:
293,155,65000,6,0,B|281:182|293:207|293:207|283:231|283:231|298:257|289:283,1,136.000002593994,2|0,3:3|0:3,0:0:0:0:
270,384,65529,1,0,3:3:0:0:
365,178,65706,2,0,L|431:183,1,68.0000012969971,10|2,0:3|0:3,0:0:0:0:
449,295,66058,1,2,0:3:0:0:
512,191,66235,1,2,3:3:0:0:
409,378,66411,6,0,B|350:323|391:259|391:259|434:263|447:293,1,204.000003890991,0|0,3:3|3:3,0:0:0:0:
468,323,67029,1,0,3:3:0:0:
468,323,67117,1,8,0:3:0:0:
491,38,67470,1,8,0:3:0:0:
418,99,67823,6,0,B|318:71|358:138|256:113,1,167.999994873047,2|0,0:2|0:2,0:0:0:0:
199,58,68529,2,0,B|250:89|252:163|188:172|166:131,1,167.999994873047,2|0,0:2|0:2,0:0:0:0:
87,195,69235,2,0,P|173:183|241:237,1,180.000006866455,2|0,0:2|0:2,0:0:0:0:
166,288,69941,2,0,P|129:265|168:283,1,128,2|0,0:2|0:2,0:0:0:0:
365,348,70647,6,0,P|448:367|431:274,1,215.999993408203,2|0,0:2|0:2,0:0:0:0:
380,199,71353,1,2,0:2:0:0:
380,199,71706,1,2,0:2:0:0:
435,143,72058,1,2,0:2:0:0:
443,87,72411,1,2,0:2:0:0:
427,56,72764,1,2,0:2:0:0:
408,44,73117,1,2,0:2:0:0:
396,45,73470,6,0,B|364:157|440:112|411:227,1,192,2|0,3:2|0:2,0:0:0:0:
295,86,74176,2,0,B|269:38|196:49|198:134|257:170,1,192,2|0,0:2|0:2,0:0:0:0:
329,229,74882,1,2,0:2:0:0:
329,229,75234,1,2,0:2:0:0:
284,294,75588,1,2,0:2:0:0:
284,294,75940,1,2,0:2:0:0:
212,263,76294,5,2,0:2:0:0:
134,302,76647,1,2,0:2:0:0:
194,250,77000,1,2,0:2:0:0:
116,289,77353,1,2,0:2:0:0:
176,237,77706,1,2,0:2:0:0:
68,151,78058,5,2,0:2:0:0:
78,164,78235,1,2,0:2:0:0:
144,80,78411,1,2,0:2:0:0:
146,96,78588,1,2,0:2:0:0:
245,56,78764,1,2,0:2:0:0:
239,71,78941,1,2,0:2:0:0:
115,0,79117,5,2,3:2:0:0:
64,128,79470,1,2,0:2:0:0:
51,139,79647,1,2,0:2:0:0:
34,138,79823,1,2,3:2:0:0:
239,71,80176,1,2,0:2:0:0:
384,31,80529,6,0,P|320:82|239:71,1,167.999994873047,2|0,3:2|0:2,0:0:0:0:
321,194,81235,2,0,P|298:153|390:156,1,192,2|0,0:2|0:2,0:0:0:0:
391,245,81941,5,2,0:2:0:0:
318,274,82294,1,2,0:2:0:0:
257,267,82647,1,2,0:2:0:0:
230,248,83000,1,2,0:2:0:0:
163,307,83353,5,2,0:2:0:0:
85,297,83706,1,2,0:2:0:0:
28,320,84059,1,2,0:2:0:0:
7,345,84412,1,2,0:2:0:0:
163,307,84764,5,2,3:2:0:0:
124,229,85117,1,2,0:2:0:0:
176,289,85470,1,2,0:2:0:0:
137,211,85823,1,2,0:2:0:0:
117,109,86176,6,0,L|53:113,1,64,2|0,3:2|0:2,0:0:0:0:
200,101,86529,1,2,0:2:0:0:
88,30,86882,6,0,L|17:35,1,71.9999978027344,2|0,3:2|0:2,0:0:0:0:
227,16,87235,1,2,0:2:0:0:
287,236,87588,5,2,3:2:0:0:
313,256,87941,1,2,0:2:0:0:
355,270,88294,1,2,0:2:0:0:
409,258,88647,1,2,0:2:0:0:
452,206,89000,6,0,L|480:208,3,27.9999991455078,2|0|0|0,3:2|0:2|0:2|0:2,0:0:0:0:
454,127,89353,2,0,L|486:117,3,32,2|0|0|0,0:2|0:2|0:2|0:2,0:0:0:0:
389,63,89706,2,0,L|415:35,3,35.9999989013672,2|0|0|0,0:2|3:2|3:2|3:2,0:0:0:0:
289,49,90058,2,0,L|293:7,3,40,2|0|0|0,0:2|3:2|3:2|3:2,0:0:0:0:
225,158,90411,5,14,0:3:0:0:
239,185,90499,1,0,3:3:0:0:
241,216,90587,1,0,3:3:0:0:
230,245,90675,1,0,3:3:0:0:
209,268,90764,5,10,0:3:0:0:
196,228,90852,1,0,3:3:0:0:
201,187,90940,1,0,3:3:0:0:
221,151,91028,1,0,3:3:0:0:
254,126,91117,5,10,0:3:0:0:
204,143,91205,1,0,3:3:0:0:
152,144,91293,1,0,3:3:0:0:
106,125,91381,1,0,3:3:0:0:
74,82,91470,5,10,0:3:0:0:
127,110,91558,1,0,3:3:0:0:
148,168,91647,1,0,3:3:0:0:
125,224,91735,1,0,3:3:0:0:
70,251,91823,5,10,0:3:0:0:
101,217,91911,1,0,3:3:0:0:
144,200,91999,1,0,3:3:0:0:
191,201,92087,1,0,3:3:0:0:
232,224,92176,2,0,P|256:237|281:239,1,51.999997619629,10|0,0:3|3:3,0:0:0:0:
338,127,92353,5,2,3:3:0:0:
380,88,92441,1,0,3:3:0:0:
430,75,92529,1,8,0:3:0:0:
473,92,92617,1,0,3:3:0:0:
501,122,92706,1,0,3:3:0:0:
512,156,92794,1,0,3:3:0:0:
506,186,92882,1,8,0:3:0:0:
484,200,92970,1,0,3:3:0:0:
463,198,93058,1,0,3:3:0:0:
451,187,93147,1,0,3:3:0:0:
451,176,93235,5,14,0:3:0:0:
403,207,93323,1,0,3:3:0:0:
356,205,93411,1,0,3:3:0:0:
325,185,93500,1,0,3:3:0:0:
307,165,93588,1,8,0:3:0:0:
294,155,93676,1,0,3:3:0:0:
284,150,93764,2,0,P|258:153|235:165,1,51.999997619629,2|0,3:3|3:3,0:0:0:0:
325,353,93941,5,10,0:3:0:0:
371,375,94029,1,0,3:3:0:0:
419,356,94117,2,0,P|431:333|434:307,1,51.999997619629,0|0,3:3|3:3,0:0:0:0:
424,18,94294,1,10,0:3:0:0:
375,34,94382,1,0,3:3:0:0:
355,82,94470,2,0,P|362:106|378:127,1,51.999997619629,0|0,3:3|3:3,0:0:0:0:
512,266,94647,5,10,0:3:0:0:
483,236,94735,1,0,3:3:0:0:
444,222,94823,1,0,3:3:0:0:
403,227,94911,1,0,3:3:0:0:
368,249,95000,5,10,0:3:0:0:
341,232,95088,1,0,3:3:0:0:
311,228,95176,1,0,3:3:0:0:
281,239,95264,1,0,3:3:0:0:
259,261,95352,5,10,0:3:0:0:
274,275,95441,1,0,3:3:0:0:
281,295,95529,1,0,3:3:0:0:
278,315,95617,1,0,3:3:0:0:
267,333,95706,5,10,0:3:0:0:
258,331,95795,1,0,3:3:0:0:
250,324,95883,1,0,3:3:0:0:
246,316,95971,1,0,3:3:0:0:
246,304,96059,5,14,0:3:0:0:
210,348,96147,1,0,3:3:0:0:
162,368,96235,1,0,3:3:0:0:
116,359,96323,1,0,3:3:0:0:
81,336,96411,1,8,0:3:0:0:
58,307,96500,1,0,3:3:0:0:
48,277,96588,1,0,3:3:0:0:
53,248,96676,1,0,3:3:0:0:
61,229,96764,5,10,0:3:0:0:
74,241,96852,1,0,3:3:0:0:
84,260,96940,1,0,3:3:0:0:
90,279,97028,1,0,3:3:0:0:
89,301,97117,2,0,L|84:353,1,51.999997619629,10|0,0:3|3:3,0:0:0:0:
162,368,97294,2,0,L|166:315,1,51.999997619629,2|0,3:3|3:3,0:0:0:0:
108,151,97470,5,10,0:3:0:0:
137,181,97558,1,0,3:3:0:0:
176,195,97646,1,0,3:3:0:0:
217,190,97734,1,0,3:3:0:0:
252,168,97823,2,0,P|264:145|267:119,1,51.999997619629,10|0,0:3|3:3,0:0:0:0:
194,1,98000,1,2,3:3:0:0:
192,26,98088,1,0,3:3:0:0:
190,52,98176,2,0,L|186:105,1,51.999997619629,8|0,0:3|3:3,0:0:0:0:
378,96,98353,1,2,3:3:0:0:
377,85,98441,1,0,3:3:0:0:
376,75,98529,1,8,0:3:0:0:
375,64,98617,1,0,3:3:0:0:
374,54,98706,1,0,3:3:0:0:
373,43,98794,1,0,3:3:0:0:
372,32,98882,5,14,0:3:0:0:
413,31,98970,1,0,3:3:0:0:
451,48,99058,1,0,3:3:0:0:
476,81,99146,1,0,3:3:0:0:
485,121,99235,2,0,L|489:174,1,51.999997619629,10|0,0:3|3:3,0:0:0:0:
500,338,99411,5,2,3:3:0:0:
464,359,99499,1,0,3:3:0:0:
424,367,99587,1,8,0:3:0:0:
383,360,99675,1,0,3:3:0:0:
348,338,99763,1,0,3:3:0:0:
323,306,99852,1,0,3:3:0:0:
298,274,99941,1,8,0:3:0:0:
263,252,100029,1,0,3:3:0:0:
222,245,100117,1,0,3:3:0:0:
182,253,100205,1,0,3:3:0:0:
146,274,100294,2,0,P|134:297|131:323,3,51.999997619629,8|0|0|0,0:3|3:3|3:3|3:3,0:0:0:0:
323,306,100647,5,8,0:3:0:0:
369,265,100735,1,8,0:3:0:0:
388,207,100823,1,8,0:3:0:0:
372,147,100911,1,8,0:3:0:0:
311,94,101000,5,8,0:3:0:0:
285,95,101088,1,0,3:3:0:0:
259,97,101176,1,0,3:3:0:0:
233,99,101264,1,0,3:3:0:0:
215,118,101353,1,0,3:3:0:0:
189,117,101441,1,0,3:3:0:0:
163,115,101529,1,0,3:3:0:0:
137,113,101617,1,0,3:3:0:0:
95,97,101706,5,14,0:3:0:0:
120,114,101794,1,0,3:3:0:0:
136,140,101882,1,0,3:3:0:0:
141,171,101970,1,0,3:3:0:0:
133,201,102058,5,10,0:3:0:0:
165,175,102146,1,0,3:3:0:0:
204,160,102234,1,0,3:3:0:0:
245,159,102322,1,0,3:3:0:0:
285,172,102411,5,10,0:3:0:0:
240,197,102499,1,0,3:3:0:0:
189,194,102587,1,0,3:3:0:0:
147,164,102675,1,0,3:3:0:0:
128,117,102764,5,10,0:3:0:0:
187,125,102852,1,0,3:3:0:0:
231,168,102940,1,0,3:3:0:0:
240,229,103028,1,0,3:3:0:0:
212,283,103117,5,10,0:3:0:0:
173,259,103205,1,0,3:3:0:0:
127,253,103293,1,0,3:3:0:0:
82,267,103381,1,0,3:3:0:0:
48,299,103470,2,0,P|24:312|-1:314,1,51.999997619629,10|0,0:3|3:3,0:0:0:0:
284,375,103647,5,2,3:3:0:0:
325,335,103735,1,0,3:3:0:0:
339,285,103823,1,8,0:3:0:0:
327,239,103911,1,0,3:3:0:0:
300,206,104000,1,0,3:3:0:0:
278,177,104088,1,0,3:3:0:0:
269,147,104176,1,8,0:3:0:0:
274,121,104264,1,0,3:3:0:0:
286,104,104353,1,0,3:3:0:0:
300,97,104441,1,0,3:3:0:0:
309,100,104529,5,14,0:3:0:0:
261,69,104617,1,0,3:3:0:0:
214,71,104705,1,0,3:3:0:0:
183,91,104794,1,0,3:3:0:0:
165,111,104882,1,8,0:3:0:0:
152,121,104970,1,0,3:3:0:0:
142,126,105058,2,0,P|116:123|93:111,1,51.999997619629,2|0,3:3|3:3,0:0:0:0:
167,227,105235,5,10,0:3:0:0:
189,273,105323,1,0,3:3:0:0:
169,321,105411,2,0,P|147:332|121:336,1,51.999997619629,0|0,3:3|3:3,0:0:0:0:
18,90,105588,1,10,0:3:0:0:
34,41,105676,1,0,3:3:0:0:
82,21,105764,2,0,P|106:28|127:45,1,51.999997619629,0|0,3:3|3:3,0:0:0:0:
247,194,105941,5,10,0:3:0:0:
279,228,106029,1,0,3:3:0:0:
323,243,106117,1,0,3:3:0:0:
369,238,106205,1,0,3:3:0:0:
409,213,106294,5,10,0:3:0:0:
380,240,106382,1,0,3:3:0:0:
367,276,106470,1,0,3:3:0:0:
372,315,106558,1,0,3:3:0:0:
393,347,106647,5,10,0:3:0:0:
415,325,106735,1,0,3:3:0:0:
425,296,106823,1,0,3:3:0:0:
422,265,106911,1,0,3:3:0:0:
405,239,107000,5,10,0:3:0:0:
421,255,107088,1,0,3:3:0:0:
443,263,107176,1,0,3:3:0:0:
466,260,107264,1,0,3:3:0:0:
486,248,107353,5,14,0:3:0:0:
439,214,107441,1,0,3:3:0:0:
443,162,107529,1,0,3:3:0:0:
480,134,107617,1,0,3:3:0:0:
508,103,107706,1,8,0:3:0:0:
510,66,107794,1,0,3:3:0:0:
493,39,107882,1,0,3:3:0:0:
469,29,107970,1,0,3:3:0:0:
448,27,108058,5,10,0:3:0:0:
436,40,108146,1,0,3:3:0:0:
417,50,108234,1,0,3:3:0:0:
398,56,108322,1,0,3:3:0:0:
376,55,108411,2,0,P|350:51|327:39,1,51.999997619629,10|0,0:3|3:3,0:0:0:0:
176,191,108588,2,0,P|198:179|224:175,1,51.999997619629,2|0,3:3|3:3,0:0:0:0:
64,121,108764,5,10,0:3:0:0:
34,150,108852,1,0,3:3:0:0:
20,189,108940,1,0,3:3:0:0:
25,230,109028,1,0,3:3:0:0:
47,265,109117,2,0,P|70:277|96:280,1,51.999997619629,10|0,0:3|3:3,0:0:0:0:
176,191,109293,5,2,3:3:0:0:
232,178,109382,1,0,3:3:0:0:
280,195,109470,1,8,0:3:0:0:
309,231,109558,1,0,3:3:0:0:
319,271,109647,1,0,3:3:0:0:
311,306,109735,1,0,3:3:0:0:
295,333,109823,1,8,0:3:0:0:
276,351,109911,1,0,3:3:0:0:
257,360,110000,1,0,3:3:0:0:
241,363,110088,1,0,3:3:0:0:
230,363,110176,5,14,0:3:0:0:
247,343,110264,1,0,3:3:0:0:
267,328,110352,1,0,3:3:0:0:
291,317,110440,1,0,3:3:0:0:
317,312,110528,1,8,0:3:0:0:
343,312,110617,1,0,3:3:0:0:
368,318,110705,1,0,3:3:0:0:
391,330,110793,1,0,3:3:0:0:
455,384,110882,5,10,0:3:0:0:
469,350,110970,1,0,3:3:0:0:
469,314,111058,1,0,3:3:0:0:
454,281,111146,1,0,3:3:0:0:
428,256,111235,1,8,0:3:0:0:
401,231,111323,1,0,3:3:0:0:
387,198,111411,1,0,3:3:0:0:
387,161,111499,1,0,3:3:0:0:
400,93,111588,5,14,0:3:0:0:
380,99,111676,1,0,3:3:0:0:
360,104,111764,1,0,3:3:0:0:
339,105,111852,1,0,3:3:0:0:
318,103,111941,2,0,P|292:99|269:87,1,51.999997619629,2|0,3:3|3:3,0:0:0:0:
52,101,112117,2,0,L|105:97,1,51.999997619629,10|0,0:3|3:3,0:0:0:0:
321,23,112294,5,10,0:3:0:0:
373,0,112382,1,8,0:3:0:0:
424,6,112470,1,2,3:3:0:0:
464,29,112558,1,0,3:3:0:0:
488,63,112647,1,2,3:3:0:0:
497,98,112735,1,0,3:3:0:0:
495,129,112823,1,0,3:3:0:0:
485,153,112911,1,0,3:3:0:0:
448,179,113000,5,14,0:3:0:0:
406,184,113088,1,8,0:3:0:0:
363,188,113176,1,10,0:3:0:0:
320,193,113264,1,8,0:3:0:0:
277,197,113352,1,10,0:3:0:0:
268,186,113706,5,2,0:3:0:0:
363,176,113882,1,2,0:3:0:0:
456,167,114058,1,2,0:3:0:0:
465,155,114411,5,2,0:3:0:0:
363,164,114588,1,2,0:3:0:0:
258,175,114765,1,2,0:3:0:0:
485,153,114941,6,0,B|460:129|460:129|399:133,1,95.9999970703126,6|0,3:3|0:3,0:0:0:0:
174,181,115294,2,0,B|199:205|199:205|260:201,1,95.9999970703126,6|0,3:3|0:3,0:0:0:0:
325,69,115647,1,6,3:3:0:0:
279,277,115823,5,14,0:3:0:0:
241,296,115911,1,8,0:3:0:0:
197,299,115999,1,10,0:3:0:0:
158,282,116087,1,8,0:3:0:0:
128,250,116175,1,10,0:3:0:0:
120,253,116529,5,2,0:3:0:0:
196,307,116705,1,2,0:3:0:0:
286,283,116882,1,2,0:3:0:0:
111,251,117058,5,10,0:3:0:0:
352,341,117235,2,0,B|371:282|371:282|353:230|353:230|382:165|351:110,1,240,6|0,3:3|0:3,0:0:0:0:
293,56,118647,5,14,0:3:0:0:
255,37,118735,1,8,0:3:0:0:
211,34,118823,1,10,0:3:0:0:
172,51,118911,1,8,0:3:0:0:
142,83,119000,1,10,0:3:0:0:
134,80,119353,5,2,0:3:0:0:
210,26,119529,1,2,0:3:0:0:
300,50,119705,1,2,0:3:0:0:
308,44,120059,5,2,0:3:0:0:
209,18,120235,1,2,0:3:0:0:
125,77,120411,1,2,0:3:0:0:
317,43,120588,6,0,B|341:68|341:68|337:129,1,95.9999970703126,6|0,3:3|0:3,0:0:0:0:
145,182,120941,2,0,B|121:157|121:157|125:96,1,95.9999970703126,6|0,3:3|0:3,0:0:0:0:
319,242,121294,1,14,0:3:0:0:
62,338,121470,6,0,B|27:344|-26:314|3:232|100:219|142:327|142:327|174:268|237:272|237:272|265:327|323:328,1,480,6|0,3:3|0:3,0:0:0:0:
356,328,122882,2,0,B|398:296|398:296|401:299|401:299|398:296|398:296|385:239|385:239|386:234|386:234|371:168,1,192,6|0,3:3|3:3,0:0:0:0:
364,141,123470,2,0,L|386:138,1,21.3333333333333,0|0,3:3|3:3,0:0:0:0:
359,125,123588,1,8,0:3:0:0:
287,168,123764,1,0,3:3:0:0:
229,103,123941,1,0,3:3:0:0:
157,146,124117,1,0,3:3:0:0:
215,211,124294,5,4,3:3:0:0:
217,232,124382,1,0,3:3:0:0:
219,253,124470,1,0,3:3:0:0:
222,275,124558,1,0,3:3:0:0:
224,296,124646,1,0,3:3:0:0:
224,296,124999,6,0,B|177:301|177:301|177:303|177:303|130:309,2,96,8|0|0,0:3|0:3|0:3,0:0:0:0:
313,287,125706,1,0,0:3:0:0:
313,287,126058,1,0,0:3:0:0:
370,195,126235,1,2,3:3:0:0:
496,284,126411,2,0,B|452:253|456:200|456:200|452:253|403:276,1,192,10|0,0:3|3:3,0:0:0:0:
417,122,127117,5,0,3:3:0:0:
438,114,127205,1,0,3:3:0:0:
460,112,127293,1,0,3:3:0:0:
482,116,127381,1,0,3:3:0:0:
502,125,127470,1,0,3:3:0:0:
502,125,127823,6,0,B|511:30|511:30|471:62,1,128,8|0,0:3|0:3,0:0:0:0:
456,200,128353,1,2,3:3:0:0:
372,53,128529,6,0,P|306:50|259:89,1,128,2|0,3:3|0:3,0:0:0:0:
228,203,129058,1,2,3:3:0:0:
71,95,129235,2,0,P|137:92|184:131,1,128,10|0,0:3|0:3,0:0:0:0:
107,173,129764,1,0,3:3:0:0:
271,198,129940,5,4,3:3:0:0:
250,200,130029,1,0,3:3:0:0:
228,203,130117,1,0,3:3:0:0:
207,205,130205,1,0,3:3:0:0:
186,207,130293,1,0,3:3:0:0:
218,303,130647,5,8,0:3:0:0:
218,303,131353,1,0,3:3:0:0:
130,291,131882,1,2,3:3:0:0:
218,303,132058,2,0,B|282:310|282:310|331:269|331:269|331:269|331:269|395:276,1,192,10|0,0:3|3:3,0:0:0:0:
512,274,132764,6,0,L|321:254,1,192,6|0,3:3|3:3,0:0:0:0:
241,100,133470,1,8,0:3:0:0:
241,100,134000,1,0,3:3:0:0:
197,177,134176,1,0,3:3:0:0:
107,3,134353,1,8,0:3:0:0:
107,3,134706,5,0,3:3:0:0:
104,25,134794,1,0,3:3:0:0:
102,47,134882,1,8,0:3:0:0:
82,212,135058,1,0,3:3:0:0:
208,26,135235,2,0,P|241:18|272:26,1,64,0|0,3:3|0:3,0:0:0:0:
322,180,135588,5,4,3:3:0:0:
356,183,135676,1,0,3:3:0:0:
389,177,135764,1,0,3:3:0:0:
420,162,135852,1,0,3:3:0:0:
447,141,135941,1,0,3:3:0:0:
447,141,136294,6,0,B|468:220|415:188|434:270,1,136.000002593994,10|0,0:3|0:3,0:0:0:0:
512,246,136823,1,0,0:3:0:0:
431,360,137000,2,0,B|395:365|369:337|369:337|359:374|324:383,1,136.000002593994,0|0,0:3|0:3,0:0:0:0:
248,222,137529,1,2,3:3:0:0:
175,357,137706,2,0,P|110:363|57:323,1,136.000002593994,10|0,0:3|0:3,0:0:0:0:
133,280,138236,1,0,3:3:0:0:
24,212,138411,5,4,3:3:0:0:
26,191,138499,1,0,3:3:0:0:
28,170,138587,1,0,3:3:0:0:
31,148,138675,1,0,3:3:0:0:
33,127,138764,1,0,3:3:0:0:
33,127,139117,6,0,B|112:105|80:158|162:139,1,136.000002593994,10|0,0:3|0:3,0:0:0:0:
295,73,139647,1,2,3:3:0:0:
365,230,139823,2,0,P|430:236|483:196,1,136.000002593994,2|0,3:3|0:3,0:0:0:0:
380,82,140353,6,0,L|375:115,1,34.0000006484985,2|0,3:3|3:3,0:0:0:0:
365,230,140529,1,10,0:3:0:0:
295,73,140706,1,0,3:3:0:0:
465,91,140882,1,0,3:3:0:0:
286,158,141058,1,0,3:3:0:0:
456,176,141235,5,4,3:3:0:0:
458,155,141323,1,0,3:3:0:0:
460,134,141411,1,0,3:3:0:0:
463,112,141499,1,0,3:3:0:0:
465,91,141588,1,0,3:3:0:0:
465,91,141941,6,0,L|398:99,1,68.0000012969971,10|0,0:3|0:3,0:0:0:0:
344,188,142294,2,0,L|410:196,1,68.0000012969971,2|0,0:3|0:3,0:0:0:0:
322,112,142647,2,0,L|255:120,1,68.0000012969971,2|0,0:3|0:3,0:0:0:0:
171,130,143000,1,2,0:3:0:0:
265,201,143176,5,2,3:3:0:0:
187,44,143353,2,0,B|130:37|96:80|96:80|47:99|0:69,1,204.000003890991,10|0,0:3|3:3,0:0:0:0:
178,323,144058,6,0,B|158:281|178:245|178:245|161:208|161:208|185:170|170:130,1,204.000003890991,6|0,3:3|0:3,0:0:0:0:
294,215,144764,2,0,B|327:230|330:267|330:267|327:230|358:209,1,136.000002593994,8|0,0:3|0:3,0:0:0:0:
251,286,145294,1,0,3:3:0:0:
336,347,145470,5,4,3:3:0:0:
322,143,145647,1,8,0:3:0:0:
321,143,146000,1,0,3:3:0:0:
318,121,146088,1,0,3:3:0:0:
316,100,146176,5,8,0:3:0:0:
283,68,146264,1,8,0:3:0:0:
240,55,146352,1,8,0:3:0:0:
197,62,146440,1,8,0:3:0:0:
161,87,146529,2,0,P|141:109|159:84,1,102.000001945496,8|0,0:3|0:3,0:0:0:0:
237,138,146932,5,2,0:2:0:0:
185,196,147284,1,2,0:2:0:0:
197,273,147637,1,2,0:2:0:0:
155,339,147990,1,2,0:2:0:0:
53,297,148343,2,0,P|12:256|94:241,1,180.000006866455,2|0,0:2|0:2,0:0:0:0:
55,88,149049,2,0,B|25:156|37:212|104:223|127:178,1,192,2|0,0:2|0:2,0:0:0:0:
203,68,149755,6,0,P|100:85|22:15,1,215.999993408203,2|0,0:2|0:2,0:0:0:0:
126,0,150461,1,2,0:2:0:0:
126,0,150814,1,2,0:2:0:0:
192,48,151167,1,2,0:2:0:0:
248,58,151520,1,2,0:2:0:0:
280,46,151873,1,2,0:2:0:0:
298,31,152226,1,2,0:2:0:0:
305,22,152579,6,0,B|417:-9|372:66|487:37,1,192,2|0,3:2|0:2,0:0:0:0:
389,143,153284,2,0,P|359:115|440:110,1,192,2|0,0:2|0:2,0:0:0:0:
457,187,153990,1,2,3:2:0:0:
457,187,154343,1,2,0:2:0:0:
380,229,154696,1,2,0:2:0:0:
380,229,155049,1,2,0:2:0:0:
295,174,155402,5,2,0:2:0:0:
243,234,155755,1,2,0:2:0:0:
282,156,156108,1,2,0:2:0:0:
230,216,156461,1,2,0:2:0:0:
269,138,156814,1,2,0:2:0:0:
149,102,157167,5,2,0:2:0:0:
162,112,157344,1,2,0:2:0:0:
78,178,157520,1,2,0:2:0:0:
94,180,157697,1,2,0:2:0:0:
54,279,157873,1,2,0:2:0:0:
69,273,158050,1,2,0:2:0:0:
252,307,158226,5,2,3:2:0:0:
208,123,158579,1,2,0:2:0:0:
195,134,158756,1,2,0:2:0:0:
178,133,158932,1,2,3:2:0:0:
152,323,159284,1,2,0:2:0:0:
79,289,159637,6,0,B|38:311|47:375|121:373|152:322,1,167.999994873047,2|0,3:2|0:2,0:0:0:0:
227,240,160343,2,0,P|208:316|154:258,1,192,2|0,0:2|0:2,0:0:0:0:
169,157,161049,5,2,0:2:0:0:
200,84,161402,1,2,0:2:0:0:
248,46,161755,1,2,0:2:0:0:
280,41,162108,1,2,0:2:0:0:
347,99,162461,5,2,0:2:0:0:
400,138,162814,1,2,0:2:0:0:
444,146,163167,1,2,0:2:0:0:
465,141,163520,1,2,0:2:0:0:
347,99,163873,5,2,3:2:0:0:
308,177,164226,1,2,0:2:0:0:
360,117,164579,1,2,0:2:0:0:
321,195,164932,1,2,0:2:0:0:
214,131,165284,6,0,L|218:67,1,64,2|0,3:2|0:2,0:0:0:0:
206,214,165637,1,2,0:2:0:0:
135,102,165990,6,0,L|140:31,1,71.9999978027344,2|0,3:2|0:2,0:0:0:0:
121,241,166343,1,2,0:2:0:0:
256,329,166696,5,2,3:2:0:0:
276,314,167049,1,2,0:2:0:0:
294,284,167402,1,2,0:2:0:0:
294,241,167755,1,2,0:2:0:0:
230,185,168108,6,0,L|202:187,3,27.9999991455078,2|0|0|0,0:2|0:2|0:2|0:2,0:0:0:0:
234,92,168461,2,0,L|202:81,3,32,2|0|0|0,0:2|0:2|0:2|0:2,0:0:0:0:
329,32,168814,2,0,L|311:-4,3,35.9999989013672,2|0|0|0,0:2|3:2|3:2|3:2,0:0:0:0:
460,85,169167,2,0,L|468:42,3,40,2|0|0|0,0:2|3:2|3:2|3:2,0:0:0:0:
442,175,169475,5,14,0:3:0:0:
416,192,169563,1,0,3:3:0:0:
386,202,169651,1,0,3:3:0:0:
355,204,169739,1,0,3:3:0:0:
325,197,169827,5,10,0:3:0:0:
365,187,169915,1,0,3:3:0:0:
405,197,170003,1,0,3:3:0:0:
436,224,170091,1,0,3:3:0:0:
451,262,170180,5,10,0:3:0:0:
409,232,170268,1,0,3:3:0:0:
388,185,170356,1,0,3:3:0:0:
393,134,170444,1,0,3:3:0:0:
424,92,170533,5,10,0:3:0:0:
368,119,170621,1,0,3:3:0:0:
307,116,170709,1,0,3:3:0:0:
255,82,170797,1,0,3:3:0:0:
228,27,170886,5,10,0:3:0:0:
269,49,170974,1,0,3:3:0:0:
297,86,171062,1,0,3:3:0:0:
307,132,171150,1,0,3:3:0:0:
297,178,171239,2,0,P|294:203|281:226,1,51.999997619629,10|0,0:3|3:3,0:0:0:0:
6,251,171416,5,2,3:3:0:0:
46,210,171504,1,0,3:3:0:0:
96,196,171592,1,8,0:3:0:0:
142,208,171680,1,0,3:3:0:0:
175,235,171769,1,0,3:3:0:0:
204,257,171857,1,0,3:3:0:0:
234,266,171945,1,8,0:3:0:0:
260,261,172033,1,0,3:3:0:0:
277,249,172122,1,0,3:3:0:0:
284,235,172210,1,0,3:3:0:0:
281,226,172298,5,14,0:3:0:0:
329,257,172386,1,0,3:3:0:0:
376,255,172474,1,0,3:3:0:0:
407,235,172563,1,0,3:3:0:0:
425,215,172651,1,8,0:3:0:0:
438,205,172739,1,0,3:3:0:0:
448,200,172827,2,0,P|474:203|497:215,1,51.999997619629,2|0,3:3|3:3,0:0:0:0:
369,359,173004,5,10,0:3:0:0:
323,381,173092,1,0,3:3:0:0:
275,362,173180,2,0,P|249:358|226:346,1,51.999997619629,0|0,3:3|3:3,0:0:0:0:
272,61,173357,1,10,0:3:0:0:
320,77,173445,1,0,3:3:0:0:
340,125,173533,2,0,P|349:148|349:174,1,51.999997619629,0|0,3:3|3:3,0:0:0:0:
226,346,173710,5,10,0:3:0:0:
191,368,173799,1,0,3:3:0:0:
150,373,173887,1,0,3:3:0:0:
111,359,173975,1,0,3:3:0:0:
82,329,174063,5,10,0:3:0:0:
103,306,174151,1,0,3:3:0:0:
133,295,174239,1,0,3:3:0:0:
163,299,174327,1,0,3:3:0:0:
190,316,174416,5,10,0:3:0:0:
205,301,174504,1,0,3:3:0:0:
212,282,174592,1,0,3:3:0:0:
209,261,174680,1,0,3:3:0:0:
198,244,174769,5,10,0:3:0:0:
205,251,174857,1,0,3:3:0:0:
215,255,174945,1,0,3:3:0:0:
225,253,175033,1,0,3:3:0:0:
234,248,175122,5,14,0:3:0:0:
221,192,175211,1,0,3:3:0:0:
238,144,175299,1,0,3:3:0:0:
274,115,175387,1,0,3:3:0:0:
314,105,175475,1,8,0:3:0:0:
349,113,175564,1,0,3:3:0:0:
376,129,175652,1,0,3:3:0:0:
394,148,175740,1,0,3:3:0:0:
403,167,175828,5,10,0:3:0:0:
396,182,175916,1,0,3:3:0:0:
384,200,176004,1,0,3:3:0:0:
368,213,176092,1,0,3:3:0:0:
348,221,176180,2,0,L|296:216,1,51.999997619629,10|0,0:3|3:3,0:0:0:0:
284,313,176357,2,0,L|337:317,1,51.999997619629,2|0,3:3|3:3,0:0:0:0:
468,223,176533,5,10,0:3:0:0:
498,194,176621,1,0,3:3:0:0:
512,155,176709,1,0,3:3:0:0:
507,114,176797,1,0,3:3:0:0:
485,79,176886,2,0,P|462:67|436:64,1,51.999997619629,10|0,0:3|3:3,0:0:0:0:
318,137,177063,1,2,3:3:0:0:
343,139,177151,1,0,3:3:0:0:
369,141,177239,2,0,L|422:145,1,51.999997619629,8|0,0:3|3:3,0:0:0:0:
266,6,177416,1,2,3:3:0:0:
255,5,177504,1,0,3:3:0:0:
245,4,177592,1,8,0:3:0:0:
234,3,177680,1,0,3:3:0:0:
224,2,177769,1,0,3:3:0:0:
213,1,177857,1,0,3:3:0:0:
202,0,177945,5,14,0:3:0:0:
232,29,178033,1,0,3:3:0:0:
246,68,178121,1,0,3:3:0:0:
241,109,178209,1,0,3:3:0:0:
219,144,178298,2,0,P|196:156|170:159,1,51.999997619629,10|0,0:3|3:3,0:0:0:0:
55,374,178475,5,2,3:3:0:0:
82,342,178563,1,0,3:3:0:0:
97,304,178651,1,8,3:3:0:0:
97,262,178739,1,0,3:3:0:0:
82,224,178827,1,0,3:3:0:0:
55,194,178916,1,0,3:3:0:0:
27,164,179004,1,8,3:3:0:0:
12,125,179093,1,0,3:3:0:0:
12,84,179181,1,0,3:3:0:0:
27,46,179269,1,0,3:3:0:0:
54,13,179357,2,0,P|78:5|104:6,3,51.999997619629,8|0|0|0,3:3|3:3|3:3|3:3,0:0:0:0:
209,117,179710,5,0,3:3:0:0:
230,94,179798,1,0,3:3:0:0:
237,64,179886,1,0,3:3:0:0:
226,35,179975,1,0,3:3:0:0:
181,5,180063,5,8,0:3:0:0:
182,49,180151,1,8,0:3:0:0:
186,93,180239,1,0,3:3:0:0:
189,137,180327,1,0,3:3:0:0:
221,168,180416,1,8,0:3:0:0:
220,212,180504,1,8,0:3:0:0:
216,256,180592,1,0,3:3:0:0:
213,300,180680,1,0,3:3:0:0:
180,340,180769,5,14,0:3:0:0:
149,341,180857,1,0,3:3:0:0:
119,333,180945,1,0,3:3:0:0:
93,315,181033,1,0,3:3:0:0:
75,289,181122,5,10,0:3:0:0:
116,294,181210,1,0,3:3:0:0:
153,311,181298,1,0,3:3:0:0:
183,339,181386,1,0,3:3:0:0:
204,376,181475,5,10,0:3:0:0:
201,321,181563,1,0,3:3:0:0:
229,280,181651,1,0,3:3:0:0:
278,260,181739,1,0,3:3:0:0:
327,273,181827,5,10,0:3:0:0:
267,290,181916,1,0,3:3:0:0:
207,276,182004,1,0,3:3:0:0:
165,230,182092,1,0,3:3:0:0:
153,171,182180,5,10,0:3:0:0:
183,204,182268,1,0,3:3:0:0:
196,249,182356,1,0,3:3:0:0:
191,295,182444,1,0,3:3:0:0:
164,334,182533,2,0,P|155:359|157:384,1,51.999997619629,10|0,0:3|3:3,0:0:0:0:
65,114,182710,5,2,3:3:0:0:
107,75,182798,1,0,3:3:0:0:
157,62,182886,1,8,0:3:0:0:
200,79,182974,1,0,3:3:0:0:
228,109,183063,1,0,3:3:0:0:
239,143,183151,1,0,3:3:0:0:
233,173,183239,1,8,0:3:0:0:
211,187,183327,1,0,3:3:0:0:
190,185,183415,1,0,3:3:0:0:
178,174,183504,1,0,3:3:0:0:
178,163,183592,5,14,0:3:0:0:
226,132,183680,1,0,3:3:0:0:
273,134,183768,1,0,3:3:0:0:
304,154,183857,1,0,3:3:0:0:
322,174,183945,1,8,0:3:0:0:
335,184,184033,1,0,3:3:0:0:
345,189,184122,2,0,P|371:186|394:174,1,51.999997619629,2|0,3:3|3:3,0:0:0:0:
390,22,184298,5,10,0:3:0:0:
436,0,184386,1,0,3:3:0:0:
484,19,184474,2,0,P|496:42|499:68,1,51.999997619629,0|0,3:3|3:3,0:0:0:0:
414,254,184651,1,10,0:3:0:0:
365,237,184739,1,0,3:3:0:0:
345,189,184827,2,0,P|352:164|369:143,1,51.999997619629,0|0,3:3|3:3,0:0:0:0:
507,317,185004,5,10,0:3:0:0:
475,351,185092,1,0,3:3:0:0:
431,366,185180,1,0,3:3:0:0:
385,361,185268,1,0,3:3:0:0:
345,336,185357,5,10,0:3:0:0:
313,357,185446,1,0,3:3:0:0:
274,362,185534,1,0,3:3:0:0:
238,349,185622,1,0,3:3:0:0:
211,320,185710,5,10,0:3:0:0:
233,298,185798,1,0,3:3:0:0:
243,269,185886,1,0,3:3:0:0:
240,238,185974,1,0,3:3:0:0:
223,212,186063,5,10,0:3:0:0:
207,228,186151,1,0,3:3:0:0:
185,236,186239,1,0,3:3:0:0:
162,233,186327,1,0,3:3:0:0:
142,221,186417,5,14,0:3:0:0:
189,187,186505,1,0,3:3:0:0:
185,135,186593,1,0,3:3:0:0:
148,107,186681,1,0,3:3:0:0:
120,76,186770,1,8,0:3:0:0:
118,39,186858,1,0,3:3:0:0:
135,12,186946,1,0,3:3:0:0:
159,2,187034,1,0,3:3:0:0:
180,0,187122,5,10,0:3:0:0:
168,13,187210,1,0,3:3:0:0:
149,23,187298,1,0,3:3:0:0:
130,29,187386,1,0,3:3:0:0:
108,28,187475,2,0,P|82:24|59:12,1,51.999997619629,10|0,0:3|3:3,0:0:0:0:
185,135,187651,2,0,P|208:123|233:119,1,51.999997619629,2|0,3:3|3:3,0:0:0:0:
447,11,187827,5,10,0:3:0:0:
477,40,187915,1,0,3:3:0:0:
491,79,188003,1,0,3:3:0:0:
486,120,188091,1,0,3:3:0:0:
464,155,188180,2,0,P|452:177|448:203,1,51.999997619629,10|0,0:3|3:3,0:0:0:0:
442,329,188357,5,2,3:3:0:0:
402,370,188445,1,0,3:3:0:0:
352,384,188533,1,8,0:3:0:0:
306,372,188621,1,0,3:3:0:0:
273,345,188710,1,0,3:3:0:0:
244,323,188798,1,0,3:3:0:0:
214,314,188886,1,8,0:3:0:0:
188,319,188974,1,0,3:3:0:0:
171,331,189063,1,0,3:3:0:0:
164,345,189151,1,0,3:3:0:0:
167,354,189239,5,14,0:3:0:0:
190,366,189327,1,0,3:3:0:0:
215,372,189415,1,0,3:3:0:0:
241,372,189504,1,0,3:3:0:0:
267,367,189592,1,8,0:3:0:0:
291,356,189680,1,0,3:3:0:0:
311,341,189768,1,0,3:3:0:0:
328,321,189856,1,0,3:3:0:0:
381,254,189945,5,10,0:3:0:0:
347,240,190033,1,0,3:3:0:0:
311,240,190121,1,0,3:3:0:0:
278,255,190209,1,0,3:3:0:0:
253,281,190298,1,8,0:3:0:0:
228,308,190386,1,0,3:3:0:0:
195,322,190474,1,0,3:3:0:0:
158,322,190562,1,0,3:3:0:0:
88,277,190651,5,14,0:3:0:0:
131,249,190739,1,0,3:3:0:0:
151,203,190827,1,0,3:3:0:0:
141,152,190915,1,0,3:3:0:0:
104,117,191004,2,0,P|78:121|55:132,1,51.999997619629,10|0,0:3|3:3,0:0:0:0:
229,239,191180,2,0,P|251:250|277:254,1,51.999997619629,2|0,3:3|3:3,0:0:0:0:
281,14,191357,5,10,0:3:0:0:
277,65,191445,1,8,0:3:0:0:
273,117,191533,2,0,L|269:170,1,51.999997619629,0|0,3:3|3:3,0:0:0:0:
418,175,191710,1,8,0:3:0:0:
422,124,191798,1,8,0:3:0:0:
426,72,191886,2,0,L|429:20,1,51.999997619629,0|0,3:3|3:3,0:0:0:0:
472,249,192063,5,14,0:3:0:0:
448,264,192151,1,2,3:3:0:0:
420,271,192239,1,2,3:3:0:0:
392,267,192327,1,2,3:3:0:0:
366,253,192416,2,0,P|347:238|333:218,3,47.9999985351563,10|2|2|2,0:3|0:3|3:3|3:3,0:0:0:0:
192,341,192769,5,10,0:3:0:0:
223,321,192857,1,2,3:3:0:0:
261,311,192945,1,2,3:3:0:0:
298,317,193033,1,2,3:3:0:0:
333,335,193122,2,0,P|358:354|375:381,3,47.9999985351563,10|2|2|2,0:3|3:3|3:3|3:3,0:0:0:0:
148,252,193475,5,10,0:3:0:0:
125,245,193563,1,2,3:3:0:0:
100,230,193651,1,2,3:3:0:0:
77,205,193740,1,2,3:3:0:0:
61,170,193828,1,10,0:3:0:0:
61,126,193916,1,2,3:3:0:0:
77,80,194004,1,2,3:3:0:0:
113,41,194092,1,2,3:3:0:0:
183,32,194180,6,0,B|219:40|229:80|229:80|256:50|294:57,1,143.999995605469,10|0,0:3|3:3,0:0:0:0:
363,115,194445,1,2,3:3:0:0:
376,145,194533,2,0,L|372:198,1,47.9999985351563,10|0,0:3|3:3,0:0:0:0:
215,215,194710,2,0,L|219:162,1,47.9999985351563,2|0,3:3|3:3,0:0:0:0:
335,308,194886,5,14,0:3:0:0:
359,330,194974,2,0,P|406:341|450:330,1,95.9999970703126,2|0,3:3|3:3,0:0:0:0:
487,307,195239,2,0,B|456:247|485:174|499:223|525:161|508:98|508:98|500:186|471:152|457:226,1,360.000013732911,10|0,0:3|3:3,0:0:0:0:
381,224,195857,2,0,B|328:218|328:218|310:236|281:237,1,103.999995239258,2|0,3:3|3:3,0:0:0:0:
276,164,196122,2,0,P|262:144|243:129,1,47.9999985351563,2|0,3:3|3:3,0:0:0:0:
0,206,196298,5,10,0:3:0:0:
47,266,196416,5,2,0:3:0:0:
107,285,196533,5,2,0:3:0:0:
157,275,196651,5,10,0:3:0:0:
185,249,196769,5,2,0:3:0:0:
197,226,196886,5,2,0:3:0:0:
197,213,197004,6,0,L|144:217,3,47.9999985351563,10|2|2|2,0:3|3:3|3:3|3:3,0:0:0:0:
267,336,197357,2,0,L|314:339,3,47.9999985351563,10|2|2|2,0:3|3:3|3:3|3:3,0:0:0:0:
348,245,197710,6,0,B|378:261|397:266|433:259|433:259|435:266|435:266|433:259|433:259|464:251|490:238|505:211,1,191.999994140625,14|8,0:3|0:3,0:0:0:0:
427,72,198239,1,2,3:3:0:0:
427,72,198298,2,0,L|395:75,1,31.9999990234375,2|2,0:3|0:3,0:0:0:0:
411,151,198416,2,0,B|352:157|352:157|352:157|352:157|329:138|329:138|335:132|335:132|329:138|329:138|307:119|307:119|248:126,1,191.999994140625,10|8,0:3|0:3,0:0:0:0:
193,66,198857,1,0,3:3:0:0:
168,81,198945,1,0,3:3:0:0:
139,78,199034,1,0,3:3:0:0:
114,63,199122,6,0,B|70:29|70:29|77:90|77:90|68:91|68:91|77:90|77:90|82:151,1,191.999994140625,10|8,0:3|0:3,0:0:0:0:
130,253,199651,1,2,3:3:0:0:
130,253,199710,2,0,P|136:267|147:278,1,31.9999990234375,2|2,0:3|0:3,0:0:0:0:
106,347,199827,2,0,B|148:370|189:347|189:347|194:354|194:354|189:347|189:347|228:323|273:336,1,191.999994140625,10|8,0:3|0:3,0:0:0:0:
347,304,200269,1,0,3:3:0:0:
372,319,200357,1,0,3:3:0:0:
401,316,200446,1,0,3:3:0:0:
426,301,200533,6,0,L|429:254,3,47.9999985351563,10|2|2|2,0:3|3:3|3:3|3:3,0:0:0:0:
335,177,200886,2,0,L|338:224,3,47.9999985351563,10|2|2|2,0:3|3:3|3:3|3:3,0:0:0:0:
418,89,201239,1,10,0:3:0:0:
441,87,201327,1,2,3:3:0:0:
465,85,201416,2,0,L|512:82,1,47.9999985351563,2|2,3:3|3:3,0:0:0:0:
341,7,201592,1,10,0:3:0:0:
318,5,201680,1,2,3:3:0:0:
294,3,201769,2,0,L|247:0,1,47.9999985351563,2|2,3:3|3:3,0:0:0:0:
169,147,201945,5,10,0:3:0:0:
127,169,202033,1,2,3:3:0:0:
79,166,202121,1,2,3:3:0:0:
41,138,202209,1,2,3:3:0:0:
22,99,202298,5,2,3:3:0:0:
44,106,202386,1,2,3:3:0:0:
62,122,202474,1,2,3:3:0:0:
73,143,202562,1,2,3:3:0:0:
79,166,202651,2,0,P|63:184|44:198,1,47.9999985351563,2|0,3:3|3:3,0:0:0:0:
96,23,202827,2,0,P|115:36|130:55,1,47.9999985351563,2|0,3:3|3:3,0:0:0:0:
127,253,203004,5,0,3:3:0:0:
126,264,203092,1,0,3:3:0:0:
125,276,203180,1,10,0:3:0:0:
124,288,203268,1,10,0:3:0:0:
123,300,203357,5,6,3:3:0:0:
89,297,203445,1,2,3:3:0:0:
62,278,203533,2,0,L|15:275,1,47.9999985351563,2|0,3:3|3:3,0:0:0:0:
4,366,203710,2,0,L|51:369,3,47.9999985351563,10|0|0|0,0:3|3:3|3:3|3:3,0:0:0:0:
154,376,204063,1,8,0:3:0:0:
187,378,204151,1,0,3:3:0:0:
221,380,204239,1,0,3:3:0:0:
254,382,204327,1,0,3:3:0:0:
288,384,204416,6,0,P|307:369|323:351,1,47.9999985351563,10|0,0:3|3:3,0:0:0:0:
207,296,204592,2,0,P|230:293|253:285,1,47.9999985351563,2|0,3:3|3:3,0:0:0:0:
434,230,204769,6,0,P|410:232|387:240,1,47.9999985351563,10|0,0:3|3:3,0:0:0:0:
349,137,204945,2,0,P|329:151|313:169,1,47.9999985351563,2|0,3:3|3:3,0:0:0:0:
228,98,205122,2,0,P|218:119|213:143,1,47.9999985351563,10|0,0:3|3:3,0:0:0:0:
103,124,205298,2,0,P|105:147|113:170,3,47.9999985351563,2|0|8|0,3:3|3:3|0:3|3:3,0:0:0:0:
310,258,205651,2,0,P|296:238|278:222,1,47.9999985351563,2|0,3:3|3:3,0:0:0:0:
349,137,205827,2,0,P|328:127|304:122,1,47.9999985351563,10|0,0:3|3:3,0:0:0:0:
323,12,206003,2,0,P|300:14|277:22,1,47.9999985351563,2|0,3:3|3:3,0:0:0:0:
174,216,206180,6,0,P|151:214|128:206,3,47.9999985351563,14|0|0|0,0:3|3:3|3:3|3:3,0:0:0:0:
277,293,206533,2,0,P|290:274|308:258,3,47.9999985351563,8|0|0|0,0:3|3:3|3:3|3:3,0:0:0:0:
386,358,206886,6,0,L|433:355,1,47.9999985351563,10|0,0:3|3:3,0:0:0:0:
406,279,207063,2,0,L|453:276,1,47.9999985351563,2|0,3:3|3:3,0:0:0:0:
380,186,207239,2,0,L|333:183,1,47.9999985351563,10|0,0:3|3:3,0:0:0:0:
360,107,207416,2,0,L|313:104,1,47.9999985351563,2|0,3:3|3:3,0:0:0:0:
189,10,207592,6,0,L|236:7,1,47.9999985351563,10|0,0:3|3:3,0:0:0:0:
169,89,207769,2,0,L|216:86,1,47.9999985351563,2|0,3:3|3:3,0:0:0:0:
143,182,207945,2,0,L|96:179,1,47.9999985351563,10|0,0:3|3:3,0:0:0:0:
163,261,208122,2,0,L|116:258,1,47.9999985351563,2|0,3:3|3:3,0:0:0:0:
240,370,208298,6,0,P|258:354|272:334,1,47.9999985351563,10|0,0:3|3:3,0:0:0:0:
354,353,208474,2,0,P|362:330|364:306,1,47.9999985351563,2|0,3:3|3:3,0:0:0:0:
443,281,208651,2,0,P|438:257|428:235,1,47.9999985351563,10|0,0:3|3:3,0:0:0:0:
484,174,208827,2,0,P|468:155|448:141,1,47.9999985351563,2|0,3:3|3:3,0:0:0:0:
480,45,209004,6,0,B|441:20|394:40|394:40|390:34|390:34|395:40|395:40|371:83|324:82,1,191.999994140625,14|8,0:3|0:3,0:0:0:0:
208,31,209533,1,2,3:3:0:0:
208,31,209592,2,0,P|201:16|190:5,1,31.9999990234375,2|2,0:3|0:3,0:0:0:0:
127,68,209710,2,0,B|108:96|109:123|109:123|100:123|100:123|109:123|109:123|112:161|143:177|143:177|139:154|150:131,1,191.999994140625,10|8,0:3|0:3,0:0:0:0:
224,166,210151,1,0,3:3:0:0:
249,151,210239,1,0,3:3:0:0:
278,154,210328,1,0,3:3:0:0:
303,169,210416,5,10,0:3:0:0:
300,207,210504,1,2,3:3:0:0:
298,245,210592,2,0,L|295:292,1,47.9999985351563,2|2,3:3|3:3,0:0:0:0:
363,373,210769,1,10,0:3:0:0:
391,370,210857,1,2,3:3:0:0:
420,369,210945,2,0,L|467:366,1,47.9999985351563,2|2,3:3|3:3,0:0:0:0:
336,248,211122,1,10,0:3:0:0:
317,246,211210,1,2,3:3:0:0:
298,245,211298,2,0,L|251:242,1,47.9999985351563,2|2,3:3|3:3,0:0:0:0:
101,311,211474,1,10,0:3:0:0:
110,312,211562,1,2,3:3:0:0:
120,313,211651,2,0,L|167:316,1,47.9999985351563,2|2,3:3|3:3,0:0:0:0:
156,181,211827,6,0,L|159:134,1,47.9999985351563,14|0,0:3|3:3,0:0:0:0:
52,49,212004,1,2,3:3:0:0:
52,49,212092,1,2,3:3:0:0:
52,49,212180,2,0,B|81:35|107:49|107:49|134:37|134:37|162:54|191:44,1,143.999995605469,10|0,0:3|3:3,0:0:0:0:
257,74,212533,5,10,0:3:0:0:
281,89,212621,1,0,3:3:0:0:
309,96,212709,1,0,3:3:0:0:
337,92,212797,1,0,3:3:0:0:
363,78,212886,1,8,0:3:0:0:
389,64,212975,1,0,3:3:0:0:
417,60,213063,1,0,3:3:0:0:
445,67,213151,1,0,3:3:0:0:
502,114,213239,5,10,0:3:0:0:
491,146,213327,2,0,P|475:164|456:178,1,47.9999985351563,0|0,3:3|3:3,0:0:0:0:
344,306,213504,5,8,0:3:0:0:
321,280,213592,2,0,P|313:257|310:233,1,47.9999985351563,0|0,3:3|3:3,0:0:0:0:
257,74,213769,5,8,0:3:0:0:
274,70,213857,1,0,3:3:0:0:
291,66,213945,5,8,0:3:0:0:
297,110,214033,1,8,0:3:0:0:
270,147,214122,2,0,P|249:160|227:168,1,47.9999985351563,0|0,3:3|3:3,0:0:0:0:
6,73,214298,1,8,0:3:0:0:
0,117,214386,1,8,0:3:0:0:
27,154,214475,2,0,P|47:167|69:175,1,47.9999985351563,0|0,3:3|3:3,0:0:0:0:
163,55,214651,5,14,0:3:0:0:
158,97,214739,1,8,0:3:0:0:
154,140,214827,1,10,0:3:0:0:
149,183,214915,1,8,0:3:0:0:
145,226,215003,1,10,0:3:0:0:
156,235,215357,5,2,0:3:0:0:
166,140,215533,1,2,0:3:0:0:
175,47,215709,1,2,0:3:0:0:
187,38,216064,5,2,0:3:0:0:
178,140,216239,1,2,0:3:0:0:
167,245,216416,1,2,0:3:0:0:
189,18,216592,6,0,B|213:43|213:43|209:104,1,95.9999970703126,6|0,3:3|0:3,0:0:0:0:
108,306,216945,2,0,B|84:281|84:281|88:220,1,95.9999970703126,6|0,3:3|0:3,0:0:0:0:
94,79,217298,1,6,3:3:0:0:
246,200,217474,5,14,0:3:0:0:
284,219,217562,1,8,0:3:0:0:
328,222,217650,1,10,0:3:0:0:
367,205,217738,1,8,0:3:0:0:
397,173,217826,1,10,0:3:0:0:
405,176,218180,5,2,0:3:0:0:
329,230,218356,1,2,0:3:0:0:
239,206,218533,1,2,0:3:0:0:
414,174,218709,5,2,0:3:0:0:
167,147,218886,2,0,B|148:206|148:206|166:258|166:258|137:323|167:376,1,240,6|0,3:3|0:3,0:0:0:0:
240,318,220298,5,14,0:3:0:0:
282,313,220386,1,8,0:3:0:0:
325,309,220474,1,10,0:3:0:0:
368,304,220562,1,8,0:3:0:0:
411,300,220650,1,10,0:3:0:0:
420,311,221004,5,2,0:3:0:0:
325,321,221180,1,2,0:3:0:0:
232,330,221356,1,2,0:3:0:0:
223,342,221711,5,2,0:3:0:0:
325,333,221886,1,2,0:3:0:0:
430,322,222063,1,2,0:3:0:0:
203,344,222239,6,0,B|179:319|179:319|183:258,1,95.9999970703126,6|0,3:3|0:3,0:0:0:0:
314,31,222592,2,0,B|338:56|338:56|334:117,1,95.9999970703126,6|0,3:3|0:3,0:0:0:0:
325,333,222945,1,2,3:3:0:0:
143,168,223122,6,0,B|237:149|287:252|287:252|291:132|388:116|388:116|416:171|384:221,1,480,6|0,3:3|0:3,0:0:0:0:
396,248,224533,2,0,B|469:250|484:185|484:185|464:147|480:114,1,192,6|0,3:3|3:3,0:0:0:0:
495,92,225151,1,0,3:3:0:0:
495,92,225239,1,8,0:3:0:0:
388,116,225416,1,0,3:3:0:0:
269,57,225592,1,0,3:3:0:0:
257,73,225945,5,4,3:3:0:0:
252,45,226034,1,0,3:3:0:0:
280,40,226122,1,0,3:3:0:0:
285,68,226210,1,0,3:3:0:0:
269,57,226298,2,0,B|233:60|233:60|233:62|233:62|198:66,1,71.9999978027344,0|0,3:3|0:3,0:0:0:0:
100,81,226651,1,8,0:3:0:0:
147,147,226827,6,0,P|178:117|186:89,1,71.9999978027344,2|0,0:3|0:3,0:0:0:0:
67,154,227092,6,0,P|29:133|14:108,1,71.9999978027344,2|0,0:3|0:3,0:0:0:0:
114,220,227357,6,0,B|94:271|94:271|117:321,2,107.999996704102,2|2|2,0:3|0:3|3:3,0:0:0:0:
191,267,228063,2,0,B|276:290|242:233|329:254,1,143.999995605469,10|0,0:3|0:3,0:0:0:0:
394,325,228592,1,0,3:3:0:0:
457,221,228769,5,2,3:3:0:0:
429,216,228858,1,0,3:3:0:0:
424,244,228946,1,2,3:3:0:0:
452,249,229034,1,0,3:3:0:0:
441,233,229122,6,0,P|466:208|472:185,2,58.6666684570313,2|2|2,3:3|0:3|0:3,0:0:0:0:
385,109,229474,6,0,P|376:74|359:57,2,58.6666684570313,10|2|2,0:3|0:3|0:3,0:0:0:0:
274,118,229827,6,0,P|240:108|217:114,2,58.6666684570313,2|2|2,0:3|0:3|0:3,0:0:0:0:
239,201,230180,6,0,L|235:244,3,44.0000013427735,2|2|2|2,3:3|0:3|0:3|0:3,0:0:0:0:
125,155,230533,2,0,L|128:198,3,44.0000013427735,2|2|2|2,0:3|0:3|3:3|0:3,0:0:0:0:
34,308,230886,1,10,0:3:0:0:
34,308,230974,1,2,0:3:0:0:
34,308,231063,2,0,L|77:304,1,44.0000013427735,2|2,0:3|0:3,0:0:0:0:
43,149,231239,1,2,0:3:0:0:
43,149,231327,1,2,0:3:0:0:
43,149,231416,2,0,L|0:145,1,44.0000013427735,2|2,3:3|0:3,0:0:0:0:
69,35,231592,5,2,3:3:0:0:
97,30,231681,1,0,3:3:0:0:
102,58,231769,1,0,3:3:0:0:
74,63,231857,1,0,3:3:0:0:
85,47,231945,2,0,B|121:50|121:50|121:52|121:52|156:56,1,71.9999978027344,0|0,0:3|0:3,0:0:0:0:
234,167,232298,1,10,0:3:0:0:
289,48,232474,1,2,0:3:0:0:
306,47,232562,1,2,0:3:0:0:
324,46,232650,1,2,0:3:0:0:
342,45,232738,1,2,0:3:0:0:
360,43,232827,2,0,P|416:85|486:79,1,143.999995605469,2|0,0:3|0:3,0:0:0:0:
327,197,233357,5,2,0:3:0:0:
291,204,233445,1,2,0:3:0:0:
257,192,233533,1,2,3:3:0:0:
234,167,233622,2,0,P|222:153|215:136,1,35.9999989013672,2|8,0:3|0:3,0:0:0:0:
56,241,234063,5,2,0:3:0:0:
92,234,234151,1,2,0:3:0:0:
126,246,234239,1,2,3:3:0:0:
149,271,234328,2,0,P|161:285|168:302,1,35.9999989013672,2|4,0:3|3:3,0:0:0:0:
149,271,234769,5,2,0:3:0:0:
241,351,234945,2,0,B|288:356|288:356|325:325|325:325|325:325|325:325|373:330,1,143.999995605469,2|0,0:3|0:3,0:0:0:0:
512,243,235474,1,0,3:3:0:0:
457,384,235651,1,0,3:3:0:0:
406,184,235827,2,0,B|370:187|370:187|370:189|370:189|335:193,1,71.9999978027344,0|0,3:3|0:3,0:0:0:0:
206,207,236180,1,2,0:3:0:0:
297,48,236357,1,0,3:3:0:0:
290,64,236445,1,0,0:0:0:0:
276,75,236533,5,8,0:3:0:0:
242,77,236622,1,8,0:3:0:0:
206,79,236710,1,0,3:3:0:0:
136,203,236886,1,8,0:3:0:0:
170,205,236975,1,8,0:3:0:0:
206,207,237063,1,0,3:3:0:0:
65,134,237239,6,0,P|49:151|40:173,1,44.0000013427735,14|2,0:3|3:3,0:0:0:0:
134,246,237416,2,0,P|138:223|135:199,1,44.0000013427735,2|2,3:3|0:3,0:0:0:0:
46,281,237592,2,0,B|34:308|34:308|24:280,2,58.6666684570313,10|2|2,0:3|0:3|0:3,0:0:0:0:
111,328,237769,2,0,P|133:332|157:329,1,44.0000013427735,2|2,3:3|0:3,0:0:0:0:
288,203,237945,6,0,P|310:198|334:201,1,44.0000013427735,10|2,0:3|3:3,0:0:0:0:
270,353,238122,2,0,P|254:335|245:313,1,44.0000013427735,2|2,3:3|3:3,0:0:0:0:
397,298,238298,2,0,B|369:309|369:309|397:319,2,58.6666684570313,10|2|2,0:3|0:3|0:3,0:0:0:0:
444,239,238474,2,0,P|448:216|445:192,1,44.0000013427735,2|2,3:3|3:3,0:0:0:0:
365,47,238651,5,10,0:3:0:0:
335,39,238739,1,2,3:3:0:0:
304,42,238827,1,2,3:3:0:0:
276,55,238915,1,2,3:3:0:0:
254,76,239004,2,0,B|243:104|243:104|233:76,2,58.6666684570313,10|2|2,0:3|0:3|0:3,0:0:0:0:
176,180,239180,2,0,P|153:184|129:181,1,44.0000013427735,2|2,3:3|3:3,0:0:0:0:
3,106,239357,6,0,L|46:102,3,44.0000013427735,10|0|0|0,0:3|3:3|3:3|3:3,0:0:0:0:
167,266,239710,2,0,L|124:262,3,44.0000013427735,10|0|0|0,0:3|3:3|3:3|3:3,0:0:0:0:
0,189,240063,6,0,L|43:185,1,44.0000013427735,8|0,0:3|3:3,0:0:0:0:
129,100,240239,2,0,P|133:123|130:147,1,44.0000013427735,2|0,3:3|3:3,0:0:0:0:
0,284,240416,2,0,P|17:269|40:259,1,44.0000013427735,10|0,0:3|3:3,0:0:0:0:
224,303,240592,2,0,P|202:294|182:280,1,44.0000013427735,2|0,3:3|3:3,0:0:0:0:
236,113,240769,6,0,L|232:156,2,44.0000013427735,10|0|0,0:3|3:3|3:3,0:0:0:0:
314,164,241033,2,0,L|318:121,1,44.0000013427735,2|8,3:3|0:3,0:0:0:0:
400,128,241210,2,0,L|396:171,2,44.0000013427735,2|0|0,3:3|3:3|3:3,0:0:0:0:
337,334,241474,5,8,0:3:0:0:
307,342,241562,1,0,3:3:0:0:
276,339,241650,1,0,3:3:0:0:
248,326,241738,1,0,3:3:0:0:
224,303,241827,6,0,B|146:228|183:141|265:157|263:208,1,223.999993164063,14|8,0:3|0:3,0:0:0:0:
283,233,242269,6,0,P|330:274|440:162,1,256,6|0,3:3|3:3,0:0:0:0:
420,83,242710,6,0,B|373:90|345:145|359:195|359:195|304:64|192:90,1,359.999989013672,6|0,3:3|3:3,0:0:0:0:
124,117,243239,6,0,P|109:134|99:157,1,44.0000013427735,10|0,0:3|3:3,0:0:0:0:
47,312,243416,1,2,3:3:0:0:
84,348,243504,1,2,3:3:0:0:
130,360,243592,1,10,0:3:0:0:
169,340,243680,1,2,3:3:0:0:
190,306,243769,1,2,3:3:0:0:
189,270,243857,1,2,3:3:0:0:
172,244,243945,1,10,0:3:0:0:
146,236,244033,1,2,3:3:0:0:
125,244,244122,1,2,3:3:0:0:
119,260,244210,1,2,3:3:0:0:
123,272,244298,5,10,0:3:0:0:
142,261,244386,1,2,3:3:0:0:
146,236,244474,1,2,3:3:0:0:
140,205,244563,1,2,3:3:0:0:
138,169,244651,1,10,0:3:0:0:
150,131,244739,1,2,3:3:0:0:
187,108,244827,1,2,3:3:0:0:
235,113,244916,1,2,3:3:0:0:
270,151,245004,6,0,B|282:178|282:178|292:150,2,58.6666684570313,10|2|2,0:3|0:3|0:3,0:0:0:0:
303,61,245180,1,2,3:3:0:0:
324,42,245269,2,0,P|390:38|438:78,1,132.00000402832,2|0,3:3|3:3,0:0:0:0:
440,220,245710,6,0,L|436:263,3,44.0000013427735,12|0|0|0,0:3|3:3|3:3|3:3,0:0:0:0:
423,352,246063,2,0,P|400:356|375:353,1,44.0000013427735,10|0,0:3|3:3,0:0:0:0:
314,225,246239,2,0,P|335:232|355:247,1,44.0000013427735,2|0,3:3|3:3,0:0:0:0:
186,283,246416,2,0,P|171:266|161:243,1,44.0000013427735,10|0,0:3|3:3,0:0:0:0:
241,125,246592,2,0,P|245:147|242:172,1,44.0000013427735,2|0,3:3|3:3,0:0:0:0:
118,152,246769,5,10,0:3:0:0:
96,154,246857,1,2,3:3:0:0:
74,156,246945,2,0,L|31:160,1,44.0000013427735,2|2,3:3|3:3,0:0:0:0:
186,283,247122,5,14,0:3:0:0:
209,294,247210,1,2,3:3:0:0:
235,301,247298,1,2,3:3:0:0:
261,301,247386,1,2,3:3:0:0:
287,266,247474,5,10,0:3:0:0:
310,255,247562,1,2,3:3:0:0:
336,248,247650,1,2,3:3:0:0:
362,248,247738,1,2,3:3:0:0:
392,280,247827,5,10,0:3:0:0:
415,291,247915,1,2,3:3:0:0:
441,298,248003,1,2,3:3:0:0:
467,298,248091,1,2,3:3:0:0:
499,267,248180,5,10,0:3:0:0:
495,223,248268,1,2,3:3:0:0:
491,179,248357,1,2,3:3:0:0:
487,135,248445,1,2,3:3:0:0:
483,91,248533,6,0,L|443:94,1,40,4|0,3:3|3:3,0:0:0:0:
434,20,248710,2,0,L|473:16,1,40,0|0,3:3|3:3,0:0:0:0:
363,69,248886,2,0,L|283:75,1,80,0|0,3:3|3:3,0:0:0:0:
123,86,249239,1,8,3:3:0:0:
183,148,249416,1,0,3:3:0:0:
178,239,249592,1,0,3:3:0:0:
118,301,249769,1,0,3:3:0:0:
202,259,249945,6,0,B|240:262|240:262|240:264|240:264|278:268,1,80,0|0,3:3|3:3,0:0:0:0:
210,368,250298,2,0,B|171:371|171:371|171:373|171:373|133:377,1,80,0|0,3:3|3:3,0:0:0:0:
383,362,250651,1,8,3:3:0:0:
443,300,250828,1,0,3:3:0:0:
448,209,251004,1,0,3:3:0:0:
388,147,251181,1,0,3:3:0:0:
296,245,251357,6,0,L|299:205,1,40,0|0,3:3|3:3,0:0:0:0:
225,196,251534,2,0,L|221:235,1,40,0|0,3:3|3:3,0:0:0:0:
274,125,251710,2,0,L|280:45,1,80,0|0,3:3|3:3,0:0:0:0:
68,65,252063,1,8,3:3:0:0:
112,139,252240,1,0,3:3:0:0:
198,167,252416,1,0,3:3:0:0:
274,125,252593,1,0,3:3:0:0:
188,89,252769,6,0,B|191:127|191:127|193:127|193:127|197:165,1,80,0|0,3:3|3:3,0:0:0:0:
93,299,253122,2,0,B|96:260|96:260|98:260|98:260|102:222,1,80,0|0,3:3|3:3,0:0:0:0:
299,239,253474,1,8,3:3:0:0:
255,313,253651,1,0,3:3:0:0:
169,341,253827,1,0,3:3:0:0:
93,299,254004,1,0,3:3:0:0:
207,241,254180,6,0,L|167:244,1,40,0|0,3:3|3:3,0:0:0:0:
158,170,254357,2,0,L|197:166,1,40,0|0,3:3|3:3,0:0:0:0:
87,219,254533,2,0,L|7:225,1,80,0|0,3:3|3:3,0:0:0:0:
65,63,254886,1,8,3:3:0:0:
141,21,255063,1,0,3:3:0:0:
227,49,255239,1,0,3:3:0:0:
271,123,255416,1,0,3:3:0:0:
350,168,255592,6,0,B|388:164|388:164|388:162|388:162|426:158,1,80,0|0,3:3|3:3,0:0:0:0:
309,274,255945,2,0,B|270:270|270:270|270:268|270:268|232:264,1,80,0|0,3:3|3:3,0:0:0:0:
399,360,256298,1,8,3:3:0:0:
473,316,256475,1,0,3:3:0:0:
501,230,256651,1,0,3:3:0:0:
459,154,256828,1,0,3:3:0:0:
389,262,257004,6,0,B|385:223|385:223|383:223|383:223|379:185,1,80,4|0,3:3|3:3,0:0:0:0:
468,76,257357,2,0,B|464:114|464:114|462:114|462:114|458:152,1,80,0|0,3:3|3:3,0:0:0:0:
329,48,257710,1,8,3:3:0:0:
253,6,257887,1,0,3:3:0:0:
167,34,258063,1,0,3:3:0:0:
123,108,258240,1,0,3:3:0:0:
150,190,258416,6,0,B|188:193|188:193|188:195|188:195|226:199,1,80,4|0,3:3|3:3,0:0:0:0:
332,165,258769,1,0,3:3:0:0:
320,285,258945,2,0,L|316:324,1,40,0|0,3:3|3:3,0:0:0:0:
332,165,259122,1,8,0:3:0:0:
336,125,259210,1,0,3:3:0:0:
340,85,259298,1,0,3:3:0:0:
503,202,259474,1,8,0:3:0:0:
320,285,259651,1,8,0:3:0:0:
280,281,259739,1,8,0:3:0:0:
240,277,259827,6,0,L|196:272,1,44.0000013427735,4|0,3:3|3:3,0:0:0:0:
9,252,260004,2,0,L|52:256,1,44.0000013427735,0|0,3:3|3:3,0:0:0:0:
86,327,260180,2,0,B|120:312|123:275|123:275|120:312|149:332,1,132.00000402832,0|0,3:3|0:3,0:0:0:0:
166,365,260533,2,0,B|244:385|213:333|293:352,1,132.00000402832,8|0,0:3|0:3,0:0:0:0:
323,365,260886,1,0,0:3:0:0:
420,309,261063,1,0,0:3:0:0:
336,187,261239,5,0,0:3:0:0:
398,126,261416,2,0,P|440:115|482:125,1,88.000002685547,0|0,0:3|0:3,0:0:0:0:
441,227,261769,1,0,3:3:0:0:
315,103,261945,2,0,B|256:96|256:96|212:133|212:133|212:133|212:133|154:127,1,176.000005371094,8|0,0:3|0:3,0:0:0:0:
89,214,262474,1,0,0:3:0:0:
243,264,262651,6,0,L|199:269,1,44.0000013427735,4|0,3:3|3:3,0:0:0:0:
12,289,262828,2,0,L|55:285,1,44.0000013427735,0|0,3:3|3:3,0:0:0:0:
89,214,263004,2,0,B|123:229|126:266|126:266|123:229|152:209,1,132.00000402832,0|0,3:3|0:3,0:0:0:0:
163,180,263357,2,0,B|190:167|194:128|194:128|136:91|92:139,1,176.000005371094,8|0,0:3|0:3,0:0:0:0:
126,266,263886,1,0,3:3:0:0:
265,179,264063,6,0,P|306:190|338:220,1,88.000002685547,0|0,3:3|0:3,0:0:0:0:
259,357,264416,2,0,P|248:315|259:273,1,88.000002685547,0|0,0:3|3:3,0:0:0:0:
502,297,264769,2,0,B|399:271|440:340|334:315,1,176.000005371094,8|0,0:3|0:3,0:0:0:0:
259,272,265298,1,0,0:3:0:0:
421,161,265474,6,0,L|377:166,1,44.0000013427735,0|0,3:3|3:3,0:0:0:0:
190,186,265651,2,0,L|233:182,1,44.0000013427735,0|0,3:3|3:3,0:0:0:0:
267,111,265827,2,0,B|301:126|304:163|304:163|301:126|330:106,1,132.00000402832,0|0,3:3|0:3,0:0:0:0:
353,82,266180,2,0,P|417:85|467:45,1,132.00000402832,8|0,0:3|0:3,0:0:0:0:
486,15,266533,2,0,L|476:102,1,88.000002685547,0|0,0:3|0:3,0:0:0:0:
458,279,266886,6,0,P|416:290|374:279,1,88.000002685547,0|0,0:3|0:3,0:0:0:0:
304,163,267239,1,0,0:3:0:0:
239,222,267416,1,0,3:3:0:0:
74,153,267592,2,0,L|161:143,1,88.000002685547,8|0,0:3|0:3,0:0:0:0:
274,310,267945,2,0,L|186:300,1,88.000002685547,0|0,0:3|3:3,0:0:0:0:
69,109,268298,6,0,L|74:153,1,44.0000013427735,4|0,3:3|3:3,0:0:0:0:
94,340,268475,2,0,L|90:297,1,44.0000013427735,0|0,3:3|3:3,0:0:0:0:
20,230,268651,1,0,3:3:0:0:
50,227,268739,1,0,3:3:0:0:
81,224,268827,1,0,3:3:0:0:
112,221,268915,1,0,3:3:0:0:
142,218,269004,5,8,0:3:0:0:
159,140,269180,1,0,3:3:0:0:
219,235,269357,1,0,3:3:0:0:
236,158,269533,1,0,3:3:0:0:
430,276,269710,5,12,0:3:0:0:
202,312,269886,1,0,3:3:0:0:
454,270,270063,1,0,3:3:0:0:
236,158,270239,1,0,3:3:0:0:
228,196,270327,1,0,3:3:0:0:
219,235,270415,1,8,0:3:0:0:
261,43,270592,1,0,3:3:0:0:
305,303,270769,1,0,3:3:0:0:
256,18,270945,2,0,L|212:23,1,44.0000013427735,8|8,0:3|0:3,0:0:0:0:
65,176,271122,5,14,0:3:0:0:
107,171,271210,1,8,0:3:0:0:
150,167,271298,1,10,0:3:0:0:
193,162,271386,1,8,0:3:0:0:
236,158,271474,1,10,0:3:0:0:
245,169,271828,5,2,0:3:0:0:
150,179,272004,1,2,0:3:0:0:
57,188,272180,1,2,0:3:0:0:
48,200,272533,5,2,0:3:0:0:
150,191,272710,1,2,0:3:0:0:
255,180,272887,1,2,0:3:0:0:
28,202,273063,6,0,B|53:226|53:226|114:222,1,95.9999970703126,6|0,3:3|0:3,0:0:0:0:
320,113,273416,2,0,B|295:89|295:89|234:93,1,95.9999970703126,6|0,3:3|0:3,0:0:0:0:
167,283,273769,1,6,3:3:0:0:
255,180,273945,5,14,0:3:0:0:
293,199,274033,1,8,0:3:0:0:
337,202,274121,1,10,0:3:0:0:
376,185,274209,1,8,0:3:0:0:
406,153,274297,1,10,0:3:0:0:
414,156,274651,5,2,0:3:0:0:
338,210,274827,1,2,0:3:0:0:
248,186,275004,1,2,0:3:0:0:
423,154,275180,5,2,0:3:0:0:
167,283,275357,2,0,B|226:302|226:302|278:284|278:284|343:313|398:282,1,240,6|0,3:3|0:3,0:0:0:0:
438,210,276769,5,14,0:3:0:0:
433,168,276857,1,8,0:3:0:0:
429,125,276945,1,10,0:3:0:0:
424,82,277033,1,8,0:3:0:0:
420,39,277121,1,10,0:3:0:0:
431,30,277475,5,2,0:3:0:0:
441,125,277651,1,2,0:3:0:0:
450,218,277827,1,2,0:3:0:0:
462,227,278180,5,2,0:3:0:0:
453,125,278357,1,2,0:3:0:0:
442,20,278534,1,2,0:3:0:0:
464,247,278710,6,0,B|439:271|439:271|378:267,1,95.9999970703126,6|0,3:3|0:3,0:0:0:0:
335,24,279063,2,0,B|360:0|360:0|421:4,1,95.9999970703126,6|0,3:3|0:3,0:0:0:0:
324,179,279416,1,6,3:3:0:0:
59,146,279592,6,0,B|154:131|209:238|209:238|215:118|311:102|311:102|256:117|244:174,1,480,6|0,3:3|0:3,0:0:0:0:
273,195,281004,2,0,P|270:285|185:314,1,192,6|0,3:3|0:3,0:0:0:0:
99,238,281666,1,8,0:3:0:0:
99,238,281710,2,0,L|101:206,1,32,8|0,0:3|0:3,0:0:0:0:
56,266,281886,1,0,3:3:0:0:
29,248,282063,1,0,3:3:0:0:
19,256,282239,1,0,3:3:0:0:
16,251,282416,6,0,B|71:239|111:276|111:276|139:239|196:240|196:240|229:278|284:280|284:280|256:278|232:251,1,359.999989013672,4|0,0:3|0:3,0:0:0:0:
290,199,283827,5,8,0:3:0:0:
340,153,283916,1,8,0:3:0:0:
400,166,284004,1,8,0:3:0:0:
420,219,284092,1,8,0:3:0:0:
398,266,284180,1,8,0:3:0:0:
353,282,284269,1,8,0:3:0:0:
312,271,284357,1,0,3:0:0:0:
292,240,284445,1,0,3:0:0:0:
290,199,284533,5,0,3:3:0:0:
290,186,284621,1,0,3:3:0:0:
291,173,284709,1,0,3:3:0:0:
292,160,284797,1,0,3:3:0:0:
293,147,284887,1,0,3:3:0:0:
293,134,284975,1,0,3:3:0:0:
294,121,285063,1,0,3:3:0:0:
295,108,285151,1,0,3:3:0:0:
296,95,285239,5,6,3:3:0:0:
268,109,285327,1,0,3:3:0:0:
238,118,285415,1,0,3:3:0:0:
207,121,285503,1,0,3:3:0:0:
176,118,285592,5,10,0:3:0:0:
215,130,285680,1,0,3:3:0:0:
246,157,285768,1,0,3:3:0:0:
263,195,285856,1,0,3:3:0:0:
264,236,285945,5,2,3:3:0:0:
228,199,286033,1,0,3:3:0:0:
219,149,286121,1,0,3:3:0:0:
240,102,286209,1,0,3:3:0:0:
284,76,286298,5,10,0:3:0:0:
225,97,286386,1,0,3:3:0:0:
163,89,286474,1,0,3:3:0:0:
113,55,286562,1,0,3:3:0:0:
82,3,286651,5,2,3:3:0:0:
95,46,286739,1,0,3:3:0:0:
88,92,286827,1,0,3:3:0:0:
63,132,286915,1,0,3:3:0:0:
24,157,287004,2,0,P|11:181|9:206,1,51.999997619629,10|0,0:3|3:3,0:0:0:0:
83,329,287180,5,2,3:3:0:0:
123,370,287268,1,0,3:3:0:0:
173,384,287357,1,0,3:3:0:0:
219,372,287444,1,0,3:3:0:0:
252,345,287533,1,0,3:3:0:0:
281,323,287621,1,0,3:3:0:0:
311,314,287709,1,8,0:3:0:0:
337,319,287797,1,0,3:3:0:0:
354,331,287886,1,0,3:3:0:0:
361,345,287974,1,0,3:3:0:0:
361,345,288062,5,6,3:3:0:0:
330,297,288150,1,0,3:3:0:0:
332,250,288238,1,0,3:3:0:0:
352,219,288327,1,0,3:3:0:0:
372,201,288415,1,8,0:3:0:0:
382,188,288504,1,0,3:3:0:0:
387,178,288592,2,0,P|384:152|372:129,1,51.999997619629,2|0,3:3|3:3,0:0:0:0:
223,88,288769,5,2,3:3:0:0:
212,111,288857,1,0,3:3:0:0:
221,135,288945,2,0,P|244:147|270:150,1,51.999997619629,0|0,3:3|3:3,0:0:0:0:
435,55,289122,1,10,0:3:0:0:
406,12,289210,1,0,3:3:0:0:
355,5,289298,2,0,P|333:18|317:39,1,51.999997619629,0|0,3:3|3:3,0:0:0:0:
243,241,289474,5,2,3:3:0:0:
208,263,289563,1,0,3:3:0:0:
167,268,289651,1,0,3:3:0:0:
128,254,289739,1,0,3:3:0:0:
99,224,289827,5,10,0:3:0:0:
115,250,289916,1,0,3:3:0:0:
119,281,290004,1,0,3:3:0:0:
108,310,290092,1,0,3:3:0:0:
86,332,290180,5,2,3:3:0:0:
75,314,290269,1,0,3:3:0:0:
72,294,290357,1,0,3:3:0:0:
79,274,290445,1,0,3:3:0:0:
94,260,290533,5,10,0:3:0:0:
103,266,290622,1,0,3:3:0:0:
113,267,290710,1,0,3:3:0:0:
123,264,290798,1,0,3:3:0:0:
130,256,290886,5,6,3:3:0:0:
164,303,290974,1,0,3:3:0:0:
216,299,291062,1,0,3:3:0:0:
244,262,291150,1,0,3:3:0:0:
275,234,291239,1,8,0:3:0:0:
312,232,291327,1,0,3:3:0:0:
339,249,291415,1,0,3:3:0:0:
349,273,291503,1,0,3:3:0:0:
351,294,291592,5,2,3:3:0:0:
338,282,291679,1,0,3:3:0:0:
328,263,291769,1,0,3:3:0:0:
322,244,291857,1,0,3:3:0:0:
323,222,291945,2,0,L|326:170,1,51.999997619629,10|0,0:3|3:3,0:0:0:0:
423,182,292122,2,0,L|418:234,1,51.999997619629,2|0,0:3|3:3,0:0:0:0:
321,82,292298,5,2,3:3:0:0:
292,52,292386,1,0,3:3:0:0:
253,38,292474,1,0,3:3:0:0:
212,43,292562,1,0,3:3:0:0:
177,65,292651,2,0,P|165:88|162:114,1,51.999997619629,10|0,0:3|3:3,0:0:0:0:
235,232,292828,1,2,3:3:0:0:
237,207,292916,1,0,3:3:0:0:
239,181,293004,2,0,L|243:128,1,51.999997619629,0|0,3:3|3:3,0:0:0:0:
121,340,293180,1,2,3:0:0:0:
110,339,293269,1,0,3:3:0:0:
100,338,293356,1,8,0:3:0:0:
89,337,293444,1,0,3:3:0:0:
79,336,293533,1,0,3:3:0:0:
68,335,293621,1,0,3:3:0:0:
57,334,293710,5,2,3:3:0:0:
87,305,293798,1,0,3:3:0:0:
101,266,293886,1,0,3:3:0:0:
96,225,293974,1,0,3:3:0:0:
74,190,294063,2,0,P|51:178|25:175,1,51.999997619629,10|0,0:3|3:3,0:0:0:0:
143,29,294239,5,2,3:3:0:0:
179,8,294327,1,0,3:3:0:0:
219,0,294415,1,0,3:3:0:0:
260,7,294503,1,0,3:3:0:0:
295,29,294591,1,0,3:3:0:0:
320,61,294680,1,0,3:3:0:0:
345,93,294769,1,8,0:3:0:0:
380,115,294857,1,0,3:3:0:0:
421,122,294945,1,0,3:3:0:0:
461,114,295033,1,0,3:3:0:0:
497,93,295122,2,0,P|509:70|512:44,3,51.999997619629,0|0|0|0,3:3|3:3|3:3|3:3,0:0:0:0:
465,230,295474,5,8,0:3:0:0:
439,229,295562,1,0,3:3:0:0:
413,227,295650,1,0,3:3:0:0:
387,225,295738,1,0,3:3:0:0:
369,206,295827,1,0,3:3:0:0:
343,207,295915,1,0,3:3:0:0:
317,209,296003,1,0,3:3:0:0:
291,211,296091,1,0,3:3:0:0:
234,265,296180,5,8,0:3:0:0:
174,281,296268,1,8,0:3:0:0:
116,262,296357,2,0,P|104:239|101:213,1,51.999997619629,8|0,0:3|3:3,0:0:0:0:
114,53,296533,5,6,3:3:0:0:
145,51,296621,1,0,3:3:0:0:
174,59,296709,1,0,3:3:0:0:
200,76,296797,1,0,3:3:0:0:
219,101,296886,5,10,0:3:0:0:
247,70,296974,1,0,3:3:0:0:
284,52,297062,1,0,3:3:0:0:
325,47,297150,1,0,3:3:0:0:
365,57,297239,5,2,3:3:0:0:
322,85,297327,1,0,3:3:0:0:
271,84,297415,1,0,3:3:0:0:
230,53,297503,1,0,3:3:0:0:
214,4,297592,5,10,0:3:0:0:
253,50,297680,1,0,3:3:0:0:
253,111,297768,1,0,3:3:0:0:
215,158,297856,1,0,3:3:0:0:
154,170,297945,5,2,3:3:0:0:
193,146,298033,1,0,3:3:0:0:
239,140,298121,1,0,3:3:0:0:
284,154,298209,1,0,3:3:0:0:
318,186,298298,2,0,P|342:199|367:201,1,51.999997619629,10|0,0:3|3:3,0:0:0:0:
242,330,298474,5,2,3:3:0:0:
200,369,298562,1,0,3:3:0:0:
150,382,298650,1,0,3:3:0:0:
107,365,298738,1,0,3:3:0:0:
79,335,298827,1,0,3:3:0:0:
68,301,298915,1,0,3:3:0:0:
74,271,299003,1,8,0:3:0:0:
96,257,299091,1,0,3:3:0:0:
117,259,299179,1,0,3:3:0:0:
129,270,299268,1,0,3:3:0:0:
129,281,299356,5,2,3:3:0:0:
177,250,299444,1,0,3:3:0:0:
224,252,299532,1,0,3:3:0:0:
255,272,299621,1,0,3:3:0:0:
273,292,299709,1,10,0:3:0:0:
286,302,299797,1,0,3:3:0:0:
296,307,299886,2,0,P|322:304|345:292,1,51.999997619629,0|0,3:3|3:3,0:0:0:0:
421,106,300062,5,2,3:3:0:0:
412,103,300150,1,0,3:3:0:0:
398,110,300239,1,0,3:3:0:0:
386,127,300327,1,0,3:3:0:0:
381,153,300415,1,8,0:3:0:0:
390,183,300503,1,0,3:3:0:0:
412,212,300592,1,0,3:3:0:0:
439,245,300680,1,0,3:3:0:0:
451,291,300768,5,6,3:3:0:0:
426,251,300856,1,0,3:3:0:0:
421,205,300944,1,0,3:3:0:0:
436,161,301033,1,0,3:3:0:0:
469,129,301121,5,10,0:3:0:0:
437,150,301209,1,0,3:3:0:0:
398,155,301297,1,0,3:3:0:0:
362,142,301386,1,0,3:3:0:0:
335,113,301474,5,2,3:3:0:0:
352,139,301562,1,0,3:3:0:0:
355,170,301650,1,0,3:3:0:0:
345,199,301739,1,0,3:3:0:0:
323,221,301827,5,10,0:3:0:0:
307,205,301915,1,0,3:3:0:0:
285,197,302003,1,0,3:3:0:0:
262,200,302092,1,0,3:3:0:0:
242,212,302180,5,6,3:3:0:0:
264,158,302268,1,0,3:3:0:0:
235,115,302356,1,0,3:3:0:0:
189,110,302444,1,0,3:3:0:0:
150,96,302533,1,8,0:3:0:0:
129,66,302621,1,0,3:3:0:0:
131,33,302709,1,0,3:3:0:0:
146,13,302797,1,0,3:3:0:0:
163,1,302886,6,0,L|159:54,2,51.999997619629,2|0|0,3:3|3:3|3:3,0:0:0:0:
41,124,303150,2,0,L|37:71,2,51.999997619629,2|8|0,3:3|0:3|3:3,0:0:0:0:
185,19,303415,2,0,L|181:72,1,51.999997619629,2|0,3:3|3:3,0:0:0:0:
111,267,303592,6,0,L|115:214,2,51.999997619629,2|0|0,3:3|3:3|3:3,0:0:0:0:
233,144,303856,2,0,L|237:197,2,51.999997619629,2|8|0,3:3|0:3|3:3,0:0:0:0:
89,249,304121,2,0,L|93:196,1,51.999997619629,2|0,3:3|3:3,0:0:0:0:
263,65,304297,5,2,3:3:0:0:
289,48,304386,1,0,3:3:0:0:
320,44,304474,1,0,3:3:0:0:
349,55,304562,1,0,3:3:0:0:
382,45,304650,5,10,0:3:0:0:
404,67,304739,1,0,3:3:0:0:
433,78,304827,1,0,3:3:0:0:
464,74,304915,1,0,3:3:0:0:
490,57,305003,5,2,3:3:0:0:
458,58,305092,1,0,3:3:0:0:
430,72,305180,1,0,3:3:0:0:
406,92,305268,1,0,3:3:0:0:
391,119,305356,1,8,0:3:0:0:
385,150,305444,1,0,3:3:0:0:
389,181,305533,1,0,3:3:0:0:
402,208,305621,1,0,3:3:0:0:
424,231,305709,5,2,3:3:0:0:
389,207,305797,1,0,3:3:0:0:
350,195,305886,1,0,3:3:0:0:
308,195,305974,1,0,3:3:0:0:
269,207,306062,1,8,0:3:0:0:
235,230,306150,1,0,3:3:0:0:
209,263,306239,1,0,3:3:0:0:
194,302,306327,1,0,3:3:0:0:
191,343,306415,2,0,P|168:354|142:357,3,51.999997619629,2|0|0|0,3:3|3:3|3:3|3:3,0:0:0:0:
37,136,306768,5,8,0:3:0:0:
33,187,306856,1,8,0:3:0:0:
29,239,306944,2,0,L|25:292,1,51.999997619629,0|0,3:3|3:3,0:0:0:0:
129,63,307121,5,8,0:3:0:0:
133,114,307209,1,8,0:3:0:0:
137,166,307297,2,0,L|141:219,1,51.999997619629,0|0,3:3|3:3,0:0:0:0:
248,0,307474,5,8,0:3:0:0:
244,51,307562,1,8,0:3:0:0:
240,103,307650,2,0,L|236:156,1,51.999997619629,0|0,3:3|3:3,0:0:0:0:
310,290,307827,5,6,3:3:0:0:
339,299,307915,1,0,3:3:0:0:
370,298,308003,1,0,3:3:0:0:
399,288,308092,1,0,3:3:0:0:
423,268,308180,5,10,0:3:0:0:
382,263,308268,1,0,3:3:0:0:
346,282,308356,1,0,3:3:0:0:
328,319,308444,1,0,3:3:0:0:
336,359,308533,5,2,3:3:0:0:
362,314,308621,1,0,3:3:0:0:
370,263,308709,1,0,3:3:0:0:
359,212,308797,1,0,3:3:0:0:
330,169,308886,5,10,0:3:0:0:
379,204,308974,1,0,3:3:0:0:
440,198,309062,1,0,3:3:0:0:
483,155,309150,1,0,3:3:0:0:
487,94,309239,5,0,3:3:0:0:
463,133,309327,1,0,3:3:0:0:
457,179,309415,1,0,3:3:0:0:
471,224,309503,1,0,3:3:0:0:
503,258,309592,2,0,P|500:283|487:306,1,51.999997619629,10|0,0:3|3:3,0:0:0:0:
330,169,309768,5,2,3:3:0:0:
288,130,309856,1,0,3:3:0:0:
238,117,309944,1,0,3:3:0:0:
195,134,310033,1,0,3:3:0:0:
167,164,310121,1,0,3:3:0:0:
156,198,310209,1,0,3:3:0:0:
162,228,310297,1,8,0:3:0:0:
184,242,310386,1,0,3:3:0:0:
205,240,310474,1,0,3:3:0:0:
217,229,310562,1,0,3:3:0:0:
225,215,310650,5,2,3:3:0:0:
177,246,310739,1,0,3:3:0:0:
130,244,310827,1,0,3:3:0:0:
99,224,310915,1,0,3:3:0:0:
81,204,311003,1,8,0:3:0:0:
68,194,311092,1,0,3:3:0:0:
58,189,311180,2,0,P|32:192|9:204,1,51.999997619629,2|0,3:3|3:3,0:0:0:0:
188,349,311356,5,2,3:3:0:0:
211,360,311444,1,0,3:3:0:0:
235,350,311533,2,0,P|247:327|250:301,1,51.999997619629,0|0,3:3|3:3,0:0:0:0:
170,45,311709,1,10,0:3:0:0:
127,73,311797,1,0,3:3:0:0:
120,124,311886,2,0,P|133:145|154:161,1,51.999997619629,0|0,3:3|3:3,0:0:0:0:
351,202,312062,5,2,3:3:0:0:
381,173,312150,1,0,3:3:0:0:
395,134,312239,1,0,3:3:0:0:
390,93,312327,1,0,3:3:0:0:
368,58,312415,5,10,0:3:0:0:
346,80,312503,1,0,3:3:0:0:
317,91,312592,1,0,3:3:0:0:
286,87,312680,1,0,3:3:0:0:
260,70,312768,5,2,3:3:0:0:
275,85,312856,1,0,3:3:0:0:
282,104,312944,1,0,3:3:0:0:
279,125,313033,1,0,3:3:0:0:
268,142,313121,5,10,0:3:0:0:
260,135,313209,1,0,3:3:0:0:
251,131,313297,1,0,3:3:0:0:
240,133,313386,1,0,3:3:0:0:
232,138,313474,5,6,3:3:0:0:
279,172,313562,1,0,3:3:0:0:
275,224,313650,1,0,3:3:0:0:
238,252,313739,1,0,3:3:0:0:
210,283,313827,1,8,0:3:0:0:
208,320,313915,1,0,3:3:0:0:
225,347,314003,1,0,3:3:0:0:
249,357,314092,1,0,3:3:0:0:
270,359,314180,5,2,3:3:0:0:
256,349,314268,1,0,3:3:0:0:
237,339,314356,1,0,3:3:0:0:
216,336,314444,1,0,3:3:0:0:
195,339,314533,2,0,L|143:344,1,51.999997619629,10|0,0:3|3:3,0:0:0:0:
124,205,314709,2,0,L|177:201,1,51.999997619629,2|0,3:3|3:3,0:0:0:0:
328,294,314886,5,2,3:3:0:0:
357,324,314974,1,0,3:3:0:0:
396,338,315062,1,0,3:3:0:0:
437,333,315150,1,0,3:3:0:0:
472,311,315239,2,0,P|484:288|487:262,1,51.999997619629,10|0,0:3|3:3,0:0:0:0:
414,144,315415,1,2,3:3:0:0:
412,169,315503,1,0,3:3:0:0:
410,195,315592,2,0,L|406:248,1,51.999997619629,0|0,3:3|3:3,0:0:0:0:
268,132,315768,1,2,3:3:0:0:
267,121,315856,1,0,3:3:0:0:
266,111,315944,1,8,0:3:0:0:
265,100,316033,1,0,3:3:0:0:
264,90,316121,1,0,3:3:0:0:
263,79,316209,1,0,3:3:0:0:
262,68,316297,5,6,3:3:0:0:
235,112,316386,1,0,3:3:0:0:
193,141,316474,1,0,3:3:0:0:
142,150,316562,1,0,3:3:0:0:
93,135,316650,1,10,0:3:0:0:
54,101,316739,1,0,3:3:0:0:
32,53,316827,5,2,3:3:0:0:
80,68,316915,1,0,3:3:0:0:
112,108,317003,1,0,3:3:0:0:
119,159,317092,1,0,3:3:0:0:
125,210,317180,1,0,3:3:0:0:
158,250,317268,1,0,3:3:0:0:
206,266,317356,1,8,0:3:0:0:
256,252,317444,1,0,3:3:0:0:
290,215,317533,1,0,3:3:0:0:
299,164,317621,1,0,3:3:0:0:
279,118,317709,6,0,P|263:97|241:83,3,51.999997619629,6|0|0|0,3:3|3:3|3:3|3:3,0:0:0:0:
353,265,318062,2,0,P|339:287|319:303,3,51.999997619629,8|0|0|0,0:3|3:3|3:3|3:3,0:0:0:0:
204,166,318415,1,8,0:3:0:0:
167,148,318503,1,0,3:3:0:0:
128,163,318592,2,0,P|116:186|113:212,1,51.999997619629,0|0,3:3|3:3,0:0:0:0:
256,384,318768,1,8,0:3:0:0:
252,333,318856,1,8,0:3:0:0:
248,281,318944,2,0,L|244:228,1,51.999997619629,0|0,3:3|3:3,0:0:0:0:
326,111,319121,5,6,3:3:0:0:
357,105,319209,1,0,3:3:0:0:
388,108,319297,1,0,3:3:0:0:
416,121,319386,1,0,3:3:0:0:
440,141,319474,5,10,0:3:0:0:
419,106,319562,1,0,3:3:0:0:
419,65,319650,1,0,3:3:0:0:
439,29,319739,1,0,3:3:0:0:
475,9,319827,5,2,3:3:0:0:
442,49,319915,1,0,3:3:0:0:
397,74,320003,1,0,3:3:0:0:
346,79,320092,1,0,3:3:0:0:
296,65,320180,5,10,0:3:0:0:
343,104,320268,1,0,3:3:0:0:
358,163,320356,1,0,3:3:0:0:
335,220,320444,1,0,3:3:0:0:
284,253,320533,5,2,3:3:0:0:
323,229,320621,1,0,3:3:0:0:
369,223,320709,1,0,3:3:0:0:
414,237,320797,1,0,3:3:0:0:
448,269,320886,2,0,P|472:282|497:284,1,51.999997619629,10|0,0:3|3:3,0:0:0:0:
358,329,321062,5,2,3:3:0:0:
318,370,321150,1,0,3:3:0:0:
268,384,321239,1,0,3:3:0:0:
222,372,321327,1,0,3:3:0:0:
189,345,321415,1,0,3:3:0:0:
160,323,321503,1,0,3:3:0:0:
130,314,321592,1,8,0:3:0:0:
104,319,321680,1,0,3:3:0:0:
87,331,321768,1,0,3:3:0:0:
80,345,321856,1,0,3:3:0:0:
83,354,321944,5,6,3:3:0:0:
114,306,322033,1,0,3:3:0:0:
112,259,322121,1,0,3:3:0:0:
92,228,322209,1,0,3:3:0:0:
72,210,322297,1,8,0:3:0:0:
62,197,322386,1,0,3:3:0:0:
57,187,322474,2,0,P|60:161|72:138,1,51.999997619629,2|0,3:3|3:3,0:0:0:0:
235,76,322650,5,2,3:3:0:0:
256,90,322739,1,0,3:3:0:0:
259,115,322827,2,0,P|245:136|224:152,1,51.999997619629,0|0,3:3|3:3,0:0:0:0:
12,68,323003,1,10,0:3:0:0:
40,25,323092,1,0,3:3:0:0:
91,18,323180,2,0,P|112:31|128:52,1,51.999997619629,0|0,3:3|3:3,0:0:0:0:
205,241,323356,5,2,3:3:0:0:
245,266,323444,1,0,3:3:0:0:
291,271,323533,1,0,3:3:0:0:
335,256,323621,1,0,3:3:0:0:
367,223,323709,5,10,0:3:0:0:
346,255,323797,1,0,3:3:0:0:
341,294,323886,1,0,3:3:0:0:
354,330,323974,1,0,3:3:0:0:
383,357,324062,5,2,3:3:0:0:
405,335,324150,1,0,3:3:0:0:
434,325,324239,1,0,3:3:0:0:
465,328,324327,1,0,3:3:0:0:
491,345,324415,5,10,0:3:0:0:
479,325,324503,1,0,3:0:0:0:
476,302,324592,1,0,3:0:0:0:
484,280,324680,1,0,3:0:0:0:
494,266,324768,5,6,3:3:0:0:
441,234,324856,1,0,3:3:0:0:
445,182,324944,1,0,3:3:0:0:
482,154,325033,1,0,3:3:0:0:
510,123,325121,1,8,0:3:0:0:
512,86,325209,1,0,3:3:0:0:
495,59,325297,1,0,3:3:0:0:
471,49,325386,1,0,3:3:0:0:
450,47,325474,5,2,3:3:0:0:
438,60,325562,1,0,3:3:0:0:
419,70,325650,1,0,3:3:0:0:
400,76,325739,1,0,3:3:0:0:
378,75,325827,2,0,P|352:71|329:59,1,51.999997619629,10|0,0:3|3:3,0:0:0:0:
392,249,326003,2,0,P|415:237|440:233,1,51.999997619629,2|0,3:3|3:3,0:0:0:0:
235,186,326180,5,2,3:3:0:0:
206,156,326268,1,0,3:3:0:0:
167,142,326356,1,0,3:3:0:0:
126,147,326444,1,0,3:3:0:0:
91,169,326533,2,0,P|79:192|76:218,1,51.999997619629,10|0,0:3|3:3,0:0:0:0:
200,363,326709,5,2,3:3:0:0:
256,376,326797,1,0,3:3:0:0:
304,359,326886,1,0,3:3:0:0:
333,323,326974,1,0,3:3:0:0:
343,283,327062,1,0,3:3:0:0:
335,248,327150,1,0,3:3:0:0:
319,221,327239,1,8,0:3:0:0:
300,203,327327,1,0,3:3:0:0:
281,194,327415,1,0,3:3:0:0:
265,191,327503,1,0,3:3:0:0:
254,191,327592,5,14,0:3:0:0:
276,204,327680,1,0,3:3:0:0:
301,206,327768,1,0,3:3:0:0:
326,198,327856,1,0,3:3:0:0:
344,180,327944,1,8,0:3:0:0:
362,162,328033,1,0,3:3:0:0:
387,154,328121,1,0,3:3:0:0:
412,156,328209,1,0,3:3:0:0:
468,213,328297,5,10,0:3:0:0:
424,240,328386,1,0,3:3:0:0:
372,242,328474,1,0,3:3:0:0:
327,219,328562,1,0,3:3:0:0:
298,176,328650,1,8,0:3:0:0:
294,125,328739,1,0,3:3:0:0:
316,78,328827,1,0,3:3:0:0:
358,48,328915,1,0,3:3:0:0:
438,86,329003,5,10,0:3:0:0:
397,115,329092,1,0,3:3:0:0:
345,121,329180,1,0,3:3:0:0:
298,99,329268,1,0,3:3:0:0:
269,55,329356,5,8,0:3:0:0:
228,94,329444,1,0,3:3:0:0:
173,112,329533,1,0,3:3:0:0:
117,102,329621,1,0,3:3:0:0:
65,123,329709,1,10,0:3:0:0:
32,169,329797,1,8,0:3:0:0:
30,225,329886,1,0,3:3:0:0:
57,275,329974,1,0,3:3:0:0:
108,300,330062,5,10,0:3:0:0:
162,244,330150,1,8,0:3:0:0:
241,247,330239,1,2,3:3:0:0:
292,307,330327,1,0,3:3:0:0:
283,384,330415,6,0,B|338:404|404:375|353:346|417:314|480:329|480:329|444:345|443:384,1,287.999991210938,6|0,3:3|0:3,0:0:0:0:
