osu file format v14

[General]
AudioFilename: audio.mp3
AudioLeadIn: 0
PreviewTime: 285212
Countdown: 0
SampleSet: None
StackLeniency: 0.4
Mode: 0
LetterboxInBreaks: 0
WidescreenStoryboard: 0

[Editor]
Bookmarks: 11419,22713,34007,45301,56595,67889,90477,101772,113066,124360,146993,169536
DistanceSpacing: 1
BeatDivisor: 4
GridSize: 16
TimelineZoom: 2.2

[Metadata]
Title:Liar Liar (Wasteland Monarchy)
TitleUnicode:Liar Liar (Wasteland Monarchy)
Artist:KAMELOT
ArtistUnicode:KAMELOT
Creator:LMT
Version:Dark
Source:
Tags:haven power symphonic progressive metal Alissa White-Gluz arch enemy
BeatmapID:1329273
BeatmapSetID:629668

[Difficulty]
HPDrainRate:6
CircleSize:4.5
OverallDifficulty:9
ApproachRate:9
SliderMultiplier:2
SliderTickRate:1

[Events]
//Background and Video events
0,0,"bg_kamelot_1.jpg",0,0
//Break Periods
//Storyboard Layer 0 (Background)
//Storyboard Layer 1 (Fail)
//Storyboard Layer 2 (Pass)
//Storyboard Layer 3 (Foreground)
//Storyboard Sound Samples

[TimingPoints]
120,352.941176470588,4,2,1,10,1,0
120,-200,4,2,1,10,0,0
10002,-200,4,2,1,15,0,0
10355,-200,4,2,1,20,0,0
10708,-200,4,2,1,30,0,0
11061,-200,4,2,1,40,0,0
11414,-100,4,3,2,50,0,0
38590,-125,4,3,2,50,0,0
38943,-153.846153846154,4,3,2,50,0,0
39296,-200,4,3,2,50,0,0
39649,-100,4,3,2,50,0,0
42472,-133.333333333333,4,3,2,50,0,0
43884,-100,4,3,2,50,0,0
45296,-200,4,3,2,40,0,0
47414,-100,4,3,2,40,0,0
48119,-200,4,3,2,40,0,0
55884,-100,4,3,2,40,0,0
56590,-200,4,3,2,40,0,0
58708,-100,4,3,2,40,0,0
59414,-200,4,3,2,40,0,0
60825,-100,4,3,2,40,0,0
62237,-200,4,3,2,40,0,0
64355,-100,4,3,2,40,0,0
65767,-200,4,3,2,40,0,0
67178,-100,4,3,2,40,0,0
67531,-200,4,3,2,40,0,0
67884,-200,4,2,0,20,0,0
89061,-200,4,3,2,10,0,0
89767,-133.333333333333,4,3,2,20,0,0
90119,-100,4,3,2,40,0,0
90472,-100,4,3,2,50,0,1
113061,-100,4,3,2,50,0,0
117649,-125,4,3,2,50,0,0
118002,-153.846153846154,4,3,2,50,0,0
118355,-200,4,3,2,50,0,0
118708,-100,4,3,2,50,0,0
121531,-133.333333333333,4,3,2,50,0,0
122943,-100,4,3,2,50,0,0
124355,-200,4,3,2,50,0,0
126472,-100,4,3,2,50,0,0
127178,-200,4,3,2,50,0,0
128590,-100,4,3,2,50,0,0
130002,-200,4,3,2,50,0,0
132119,-100,4,3,2,50,0,0
134943,-200,4,3,2,50,0,0
135649,-100,4,3,2,50,0,0
136002,-200,4,3,2,50,0,0
137767,-100,4,3,2,50,0,0
138472,-200,4,3,2,50,0,0
139884,-100,4,3,2,50,0,0
141296,-200,4,3,2,50,0,0
143414,-100,4,3,2,50,0,0
146590,-225,4,3,2,50,0,0
146855,-225,4,3,2,5,0,0
146993,352.941176470588,4,2,1,20,1,0
146993,-200,4,2,1,20,0,0
168169,-200,4,3,2,10,0,0
168875,-133.333333333333,4,3,2,20,0,0
169228,-66.6666666666667,4,3,2,20,0,0
169493,-133.333333333333,4,3,2,20,0,0
169536,352.941176470588,4,3,2,50,1,1
169536,-100,4,3,2,50,0,1
192124,-80,4,3,2,50,0,1
214712,-100,4,3,2,50,0,0
225918,-100,4,3,2,5,0,0
226006,-100,4,3,2,50,0,0
226888,-100,4,3,2,5,0,0
226947,-100,4,3,2,50,0,0
227124,-100,4,3,2,5,0,0
227183,-100,4,3,2,50,0,0
227359,-100,4,3,2,5,0,0
227418,-100,4,3,2,50,0,0
227594,-100,4,3,2,5,0,0
227653,-100,4,3,2,50,0,0
227830,-100,4,3,2,5,0,0
227888,-100,4,3,2,50,0,0
228065,-100,4,3,2,5,0,0
228124,-100,4,3,2,50,0,0
237300,-80,4,3,2,50,0,1
242771,-66.6666666666667,4,3,2,50,0,1
243300,-80,4,3,2,50,0,1
248594,-100,4,3,2,50,0,0
271888,-200,4,3,2,50,0,0
273124,-80,4,3,2,50,0,0
274006,-100,4,3,2,50,0,0
274712,-200,4,3,2,50,0,0
275418,-100,4,3,2,50,0,0
275771,-125,4,3,2,50,0,0
276124,-153.846153846154,4,3,2,50,0,0
276477,-200,4,3,2,50,0,0
276830,-100,4,3,2,50,0,0
277535,-200,4,3,2,50,0,0
278771,-80,4,3,2,50,0,0
279653,-100,4,3,2,50,0,0
280359,-200,4,3,2,50,0,0
281065,-100,4,3,2,50,0,0
285300,-100,4,3,2,50,0,1
330477,-200,4,3,2,50,0,0
331535,-200,4,3,2,5,0,0

[Colours]
Combo1 : 85,85,255
Combo2 : 192,192,192
Combo3 : 186,220,220
Combo4 : 255,57,57

[HitObjects]
218,181,120,6,0,B|186:203|146:191|158:141|211:135|264:157|264:157|302:172|352:145|352:145|332:159|317:186,1,300
280,341,1531,2,0,B|262:313|198:289|198:289|253:289|308:262,1,200
458,352,2943,5,0,0:0:0:0:
452,333,4355,1,0,0:0:0:0:
418,148,5414,5,0,0:0:0:0:
340,192,5767,2,0,B|295:180|254:203|185:187|185:187|230:208,1,200
340,297,6825,1,0,0:0:0:0:
418,148,7178,2,0,B|410:120|417:82|417:82|432:43|399:21|399:21|363:38|379:92,1,200,0|0,0:0|0:0,0:0:0:0:
318,169,8237,5,0,0:0:0:0:
241,157,8414,1,0,0:0:0:0:
176,115,8590,2,0,P|217:208|132:216,1,200
28,48,10002,5,0,0:0:0:0:
104,41,10355,5,0,0:0:0:0:
204,63,10708,5,0,0:0:0:0:
329,150,11061,5,0,0:0:0:0:
374,344,11414,5,4,0:2:0:0:
360,327,11502,1,0,0:0:0:0:
343,314,11590,1,0,0:0:0:0:
324,305,11678,1,0,0:0:0:0:
303,301,11766,1,8,0:0:0:0:
281,302,11855,1,0,0:0:0:0:
261,307,11943,1,0,0:0:0:0:
242,317,12031,1,0,0:0:0:0:
228,333,12119,1,0,0:0:0:0:
211,346,12207,1,0,0:0:0:0:
192,355,12295,1,0,0:0:0:0:
171,359,12383,1,0,0:0:0:0:
147,356,12472,6,0,P|106:341|86:322,3,50,8|0|0|0,0:0|0:0|0:0|0:0,0:0:0:0:
161,248,12825,2,0,P|132:214|125:188,3,50,4|0|0|0,0:0|0:0|0:0|0:0,0:0:0:0:
261,168,13178,2,0,P|253:124|259:98,1,50,8|0,0:0|0:0,0:0:0:0:
414,174,13355,1,0,0:0:0:0:
402,217,13443,1,0,0:0:0:0:
374,249,13531,2,0,P|341:278|315:285,3,50,4|0|0|0,0:0|0:0|0:0|0:0,0:0:0:0:
261,168,13884,2,0,P|285:168|310:173,3,50
104,138,14237,5,4,0:0:0:0:
81,142,14325,1,0,0:0:0:0:
65,158,14413,1,0,0:0:0:0:
61,180,14501,1,0,0:0:0:0:
69,201,14589,1,8,0:0:0:0:
88,214,14678,1,0,0:0:0:0:
110,214,14766,1,0,0:0:0:0:
129,202,14854,1,0,0:0:0:0:
151,196,14943,1,0,0:0:0:0:
175,195,15031,1,0,0:0:0:0:
199,201,15119,1,0,0:0:0:0:
221,213,15207,1,0,0:0:0:0:
238,229,15296,6,0,P|249:243|263:293,3,50,8|0|0|0,0:0|0:0|0:0|0:0,0:0:0:0:
364,159,15649,2,0,P|347:178|337:200,3,50,4|0|0|0,0:0|0:0|0:0|0:0,0:0:0:0:
193,85,16002,2,0,P|168:82|143:86,1,50,8|0,0:0|0:0,0:0:0:0:
316,47,16178,1,0,0:0:0:0:
359,58,16266,1,0,0:0:0:0:
400,49,16354,2,0,P|440:34|460:15,3,50,4|0|0|0,0:0|0:0|0:0|0:0,0:0:0:0:
451,203,16708,2,0,P|494:210|520:204,3,50,8|0|0|0,0:0|0:0|0:0|0:0,0:0:0:0:
346,325,17061,5,12,0:0:0:0:
328,336,17149,1,0,0:0:0:0:
308,345,17237,1,0,0:0:0:0:
287,350,17325,1,0,0:0:0:0:
266,350,17413,1,8,0:0:0:0:
245,347,17502,1,0,0:0:0:0:
225,339,17590,1,0,0:0:0:0:
206,328,17678,1,0,0:0:0:0:
190,321,17767,1,0,0:0:0:0:
165,315,17855,1,0,0:0:0:0:
142,316,17943,1,0,0:0:0:0:
120,323,18031,1,0,0:0:0:0:
100,335,18119,6,0,P|53:351|20:345,3,50,8|0|0|0,0:0|0:0|0:0|0:0,0:0:0:0:
57,239,18472,2,0,P|19:206|8:174,3,50,4|0|0|0,0:0|0:0|0:0|0:0,0:0:0:0:
130,109,18825,2,0,P|128:140|111:169,1,50,8|0,0:0|0:0,0:0:0:0:
228,191,19002,1,0,0:0:0:0:
265,202,19090,1,0,0:0:0:0:
301,190,19178,2,0,P|336:181|392:192,3,50,8|0|0|0,0:0|0:0|0:0|0:0,0:0:0:0:
239,86,19531,2,0,P|251:56|279:25,3,50,8|0|0|0,0:0|0:0|0:0|0:0,0:0:0:0:
443,97,19884,5,4,0:0:0:0:
441,118,19972,1,0,0:0:0:0:
440,139,20060,1,0,0:0:0:0:
439,161,20148,1,0,0:0:0:0:
438,182,20236,1,8,0:0:0:0:
437,204,20325,1,0,0:0:0:0:
436,225,20413,1,0,0:0:0:0:
435,246,20501,1,0,0:0:0:0:
449,274,20590,5,0,0:0:0:0:
417,254,20678,1,0,0:0:0:0:
380,247,20766,1,0,0:0:0:0:
343,252,20854,1,0,0:0:0:0:
310,270,20943,1,8,0:0:0:0:
288,295,21032,1,0,0:0:0:0:
251,302,21120,1,0,0:0:0:0:
214,297,21208,1,0,0:0:0:0:
181,279,21296,5,4,0:0:0:0:
173,269,21384,1,0,0:0:0:0:
175,260,21472,1,0,0:0:0:0:
185,254,21561,1,0,0:0:0:0:
195,258,21649,1,8,0:0:0:0:
205,272,21737,1,0,0:0:0:0:
196,300,21825,1,2,0:0:0:0:
163,316,21914,1,0,0:0:0:0:
126,306,22002,5,6,0:0:0:0:
99,252,22090,1,0,0:0:0:0:
102,192,22178,2,0,P|116:159|145:134,1,50,0|0,0:0|0:0,0:0:0:0:
280,204,22355,2,0,P|266:171|237:146,1,50,12|0,0:0|0:0,0:0:0:0:
360,359,22531,1,0,0:0:0:0:
356,367,22619,1,0,0:0:0:0:
349,375,22708,5,4,0:2:0:0:
336,346,22796,1,0,0:0:0:0:
332,315,22884,1,0,0:0:0:0:
338,285,22972,1,0,0:0:0:0:
352,256,23060,1,8,0:0:0:0:
361,227,23149,1,0,0:0:0:0:
362,196,23237,1,0,0:0:0:0:
354,165,23325,1,0,0:0:0:0:
334,140,23413,1,0,0:0:0:0:
306,122,23502,1,0,0:0:0:0:
275,119,23590,1,0,0:0:0:0:
245,129,23678,1,0,0:0:0:0:
222,148,23767,6,0,P|186:158|140:156,3,50,8|0|0|0,0:0|0:0|0:0|0:0,0:0:0:0:
410,111,24119,2,0,P|446:120|492:117,3,50,4|0|0|0,0:0|0:0|0:0|0:0,0:0:0:0:
308,41,24472,2,0,P|272:32|226:35,1,50,8|0,0:0|0:0,0:0:0:0:
180,88,24649,1,0,0:0:0:0:
134,90,24737,1,0,0:0:0:0:
92,76,24825,2,0,P|70:74|20:97,3,50,4|0|0|0,0:0|0:0|0:0|0:0,0:0:0:0:
89,232,25178,2,0,P|70:219|16:214,3,50,8|0|0|0,0:0|0:0|0:0|0:0,0:0:0:0:
181,333,25531,5,4,0:0:0:0:
203,322,25619,1,0,0:0:0:0:
228,317,25707,1,0,0:0:0:0:
253,317,25795,1,0,0:0:0:0:
277,324,25884,6,0,L|343:346,1,50,4|0,0:2|0:0,0:0:0:0:
349,232,26061,2,0,L|415:210,1,50,4|0,0:2|0:0,0:0:0:0:
353,117,26237,2,0,L|399:64,3,50,0|0|0|0,0:2|0:0|0:0|0:0,0:0:0:0:
195,132,26590,6,0,P|152:127|131:117,3,50,8|0|0|0,0:0|0:0|0:0|0:0,0:0:0:0:
118,233,26943,2,0,P|83:207|70:188,3,50,4|0|0|0,0:0|0:0|0:0|0:0,0:0:0:0:
25,316,27296,2,0,P|7:276|5:253,1,50,8|0,0:0|0:0,0:0:0:0:
215,287,27472,1,0,0:0:0:0:
260,291,27561,1,0,0:0:0:0:
296,314,27649,2,0,P|320:334|341:363,3,50,4|0|0|0,0:0|0:0|0:0|0:0,0:0:0:0:
384,207,28002,2,0,P|394:236|398:271,3,50,8|0|0|0,0:0|0:0|0:0|0:0,0:0:0:0:
257,109,28355,5,4,0:0:0:0:
281,105,28443,1,0,0:0:0:0:
302,116,28531,1,0,0:0:0:0:
312,139,28619,1,0,0:0:0:0:
306,163,28707,1,8,0:0:0:0:
282,177,28796,1,0,0:0:0:0:
253,179,28884,1,0,0:0:0:0:
225,171,28972,1,0,0:0:0:0:
201,153,29061,1,0,0:0:0:0:
173,145,29149,1,0,0:0:0:0:
145,147,29237,1,0,0:0:0:0:
118,158,29325,1,0,0:0:0:0:
96,178,29414,6,0,P|78:211|73:244,3,50,8|0|0|0,0:0|0:0|0:0|0:0,0:0:0:0:
216,288,29767,2,0,P|190:250|188:218,3,50,4|0|0|0,0:0|0:0|0:0|0:0,0:0:0:0:
306,163,30119,2,0,P|309:197|292:237,1,50,8|0,0:0|0:0,0:0:0:0:
442,251,30296,1,0,0:0:0:0:
411,277,30384,1,0,0:0:0:0:
387,309,30472,2,0,P|374:345|376:387,3,50,4|0|0|0,0:0|0:0|0:0|0:0,0:0:0:0:
216,288,30825,2,0,P|223:326|245:361,3,50,8|0|0|0,0:0|0:0|0:0|0:0,0:0:0:0:
104,342,31178,5,4,0:0:0:0:
79,316,31266,1,0,0:0:0:0:
71,282,31354,1,0,0:0:0:0:
80,248,31442,1,0,0:0:0:0:
98,217,31530,1,8,0:0:0:0:
110,183,31619,1,0,0:0:0:0:
109,148,31707,1,0,0:0:0:0:
93,116,31795,1,0,0:0:0:0:
65,127,31884,5,0,0:0:0:0:
101,146,31972,1,0,0:0:0:0:
142,158,32060,1,0,0:0:0:0:
185,159,32148,1,0,0:0:0:0:
227,150,32236,1,8,0:0:0:0:
266,132,32325,1,0,0:0:0:0:
299,105,32413,1,0,0:0:0:0:
324,71,32501,1,0,0:0:0:0:
336,34,32590,6,4,P|332:65|352:104,1,50,4|0,0:0|0:0,0:0:0:0:
437,177,32767,1,0,0:0:0:0:
440,171,32855,1,0,0:0:0:0:
442,166,32943,1,8,0:0:0:0:
442,159,33031,1,0,0:0:0:0:
439,155,33119,6,0,P|426:126|390:102,1,50,8|0,0:0|0:0,0:0:0:0:
297,172,33296,1,12,0:0:0:0:
275,216,33384,1,0,0:0:0:0:
269,266,33472,1,0,0:0:0:0:
278,315,33560,1,0,0:0:0:0:
303,358,33649,6,0,P|278:339|234:336,1,50,8|0,0:0|0:0,0:0:0:0:
466,246,33825,2,0,P|437:258|413:294,1,50,8|0,0:0|0:0,0:0:0:0:
261,107,34002,5,12,0:0:0:0:
313,98,34090,1,8,0:0:0:0:
367,90,34178,1,8,0:0:0:0:
420,83,34266,1,8,0:0:0:0:
474,75,34354,1,8,0:0:0:0:
474,75,34708,5,0,0:0:0:0:
472,148,34885,1,0,0:0:0:0:
468,223,35061,2,0,L|462:329,1,100,0|0,0:0|0:0,0:0:0:0:
377,162,35414,5,0,0:0:0:0:
375,235,35591,1,0,0:0:0:0:
371,310,35767,1,0,0:0:0:0:
274,121,35943,6,0,L|259:224,1,100,2|0,0:0|0:0,0:0:0:0:
175,53,36296,2,0,L|190:156,1,100,2|0,0:0|0:0,0:0:0:0:
278,18,36649,1,0,0:0:0:0:
362,109,36825,5,12,0:0:0:0:
354,161,36913,1,8,0:0:0:0:
346,215,37001,1,8,0:0:0:0:
338,268,37089,1,8,0:0:0:0:
330,322,37177,1,8,0:0:0:0:
330,322,37531,5,0,0:0:0:0:
256,304,37708,1,0,0:0:0:0:
185,287,37884,1,0,0:0:0:0:
161,103,38061,5,8,0:0:0:0:
112,234,38237,6,0,L|78:345,1,100,4|0,0:0|0:0,0:0:0:0:
97,164,38590,2,0,L|69:242,1,80
85,97,38943,2,0,L|60:164,1,64.9999970245363
74,30,39296,2,0,L|55:80,1,50
235,81,39649,5,12,0:0:0:0:
243,133,39737,1,8,0:0:0:0:
251,187,39825,1,8,0:0:0:0:
258,240,39913,1,8,0:0:0:0:
266,294,40001,1,8,0:0:0:0:
266,294,40355,5,0,0:0:0:0:
336,274,40531,1,0,0:0:0:0:
405,255,40708,2,0,L|512:226,1,100,0|0,0:0|0:0,0:0:0:0:
354,183,41061,5,0,0:0:0:0:
424,163,41237,1,0,0:0:0:0:
493,144,41414,1,0,0:0:0:0:
258,88,41590,6,0,L|249:201,1,100,2|0,0:0|0:0,0:0:0:0:
156,22,41943,2,0,L|165:135,1,100,2|0,0:0|0:0,0:0:0:0:
349,51,42296,1,8,0:0:0:0:
117,232,42472,6,0,B|67:234|49:181|97:159|143:171|175:209|185:259|246:299|355:291|451:250|451:250|420:263|382:308,1,525.000020027161,4|0,0:0|0:0,0:0:0:0:
351,171,43884,6,0,B|381:133|392:79|392:79|404:122|452:169,1,200,4|0,0:0|0:0,0:0:0:0:
500,305,44414,1,8,0:0:0:0:
498,318,44502,1,8,0:0:0:0:
496,330,44590,1,8,0:0:0:0:
399,290,44767,1,0,0:0:0:0:
302,329,44943,1,0,0:0:0:0:
197,289,45119,1,0,0:0:0:0:
89,331,45296,5,4,0:0:0:0:
87,306,45384,1,0,0:0:0:0:
85,281,45472,1,0,0:0:0:0:
83,256,45560,1,0,0:0:0:0:
81,231,45648,1,0,0:0:0:0:
81,231,46002,6,0,B|118:215|145:228|145:228|167:215,2,83.3333333333333,0|0|0,0:0|0:0|0:0,0:0:0:0:
376,228,47237,5,0,0:0:0:0:
273,88,47414,2,0,B|279:144|279:144|251:224|251:224|257:282,1,200,8|0,0:0|0:0,0:0:0:0:
170,127,47943,1,0,0:0:0:0:
376,228,48119,5,4,0:0:0:0:
373,252,48207,1,0,0:0:0:0:
371,277,48295,1,0,0:0:0:0:
369,302,48383,1,0,0:0:0:0:
366,327,48471,1,0,0:0:0:0:
266,293,48649,1,0,0:0:0:0:
177,341,48825,2,0,P|120:351|73:344,1,100,8|0,0:0|0:0,0:0:0:0:
108,169,49355,5,0,0:0:0:0:
261,194,49531,2,0,B|273:250|273:250|262:313,1,100,4|0,0:0|0:0,0:0:0:0:
108,169,50061,1,0,0:0:0:0:
250,83,50237,2,12,B|305:70|305:70|364:77|364:77|342:86|329:102,1,150,4|0,0:0|0:0,0:0:0:0:
108,169,50943,5,4,0:0:0:0:
104,144,51031,1,0,0:0:0:0:
101,119,51119,1,0,0:0:0:0:
98,94,51207,1,0,0:0:0:0:
95,69,51296,2,0,L|85:12,1,50,0|0,0:0|0:0,0:0:0:0:
123,243,51649,5,8,0:0:0:0:
197,231,52355,1,0,0:0:0:0:
318,278,52884,5,0,0:0:0:0:
396,186,53061,2,0,P|414:129|405:72,1,100,8|0,0:0|0:0,0:0:0:0:
197,231,53590,1,0,0:0:0:0:
431,308,53767,6,0,P|485:283|520:244,1,100,4|0,0:0|0:0,0:0:0:0:
197,231,54472,1,8,0:0:0:0:
197,231,54825,1,0,0:0:0:0:
139,146,55002,1,0,0:0:0:0:
311,186,55178,6,0,P|314:242|302:293,1,100,4|0,0:0|0:0,0:0:0:0:
197,231,55708,2,0,L|234:228,1,25,0|0,0:0|0:0,0:0:0:0:
504,187,55884,6,0,B|474:177|474:177|443:190|443:190|373:164|303:188,1,200,8|0,0:0|0:0,0:0:0:0:
197,231,56414,1,0,0:0:0:0:
105,183,56590,5,4,0:0:0:0:
80,185,56678,1,0,0:0:0:0:
55,188,56766,1,0,0:0:0:0:
30,191,56854,1,0,0:0:0:0:
5,194,56942,1,0,0:0:0:0:
48,104,57119,1,0,0:0:0:0:
68,276,57296,6,0,L|62:344,1,50,8|0,0:0|0:0,0:0:0:0:
197,231,57649,2,0,L|191:163,1,50,0|0,0:0|0:0,0:0:0:0:
307,297,58002,2,0,L|301:365,2,50,0|0|0,0:0|0:0|0:0,0:0:0:0:
405,226,58531,5,0,0:0:0:0:
174,116,58708,2,0,B|204:106|204:106|235:119|235:119|305:93|367:114,1,200,8|0,0:0|0:0,0:0:0:0:
469,59,59237,1,0,0:0:0:0:
342,32,59414,5,4,0:0:0:0:
317,30,59502,1,0,0:0:0:0:
292,29,59590,1,0,0:0:0:0:
267,28,59678,1,0,0:0:0:0:
242,27,59766,1,0,0:0:0:0:
174,116,59943,1,0,0:0:0:0:
87,51,60119,2,0,P|51:53|24:47,2,50,8|0|0,0:0|0:0|0:0,0:0:0:0:
174,116,60649,1,0,0:0:0:0:
311,324,60825,6,0,B|301:294|301:294|314:263|314:263|288:193|309:130,1,200,4|0,0:0|0:0,0:0:0:0:
382,55,61355,1,0,0:0:0:0:
436,255,61531,2,0,B|374:234|304:260|304:260|273:247|273:247|243:257,1,200,12|0,0:0|0:0,0:0:0:0:
138,291,62061,1,0,0:0:0:0:
83,205,62237,5,4,0:0:0:0:
84,180,62325,1,0,0:0:0:0:
85,155,62413,1,0,0:0:0:0:
87,130,62501,1,0,0:0:0:0:
88,105,62589,5,2,0:0:0:0:
177,57,62767,2,0,P|216:50|245:33,1,50,2|8,0:0|0:0,0:0:0:0:
285,118,63119,2,0,P|312:86|321:58,1,50,2|0,0:0|0:0,0:0:0:0:
478,199,63472,2,0,B|451:210|409:187|409:187|374:207|317:205,1,150,2|0,0:0|0:0,0:0:0:0:
249,186,64178,1,0,0:0:0:0:
106,358,64355,6,0,B|136:348|136:348|167:361|167:361|237:335|299:356,1,200,8|0,0:0|0:0,0:0:0:0:
415,306,64884,1,0,0:0:0:0:
302,257,65061,2,0,B|239:278|169:252|169:252|138:265|138:265|108:255,1,200,4|0,0:0|0:0,0:0:0:0:
20,184,65590,1,0,0:0:0:0:
142,45,65767,6,0,P|145:76|140:102,1,50,8|0,0:0|0:0,0:0:0:0:
20,233,66119,2,0,P|17:201|22:176,1,50
253,178,66472,2,0,L|144:175,1,100,4|0,0:0|0:0,0:0:0:0:
326,60,67002,2,0,L|328:101,1,25,0|0,0:0|0:0,0:0:0:0:
402,288,67178,6,0,B|393:245|409:169|409:169|394:194|375:198,1,150,8|0,0:0|0:0,0:0:0:0:
389,191,67531,6,0,L|505:191,1,100,8|0,0:0|0:0,0:0:0:0:
149,134,68943,2,0,L|142:62,1,50
194,194,69296,2,0,P|150:183|81:203,1,100
231,257,69825,2,0,L|257:144,1,100
271,84,70355,1,0,0:0:0:0:
496,204,70708,6,0,P|447:216|385:192,1,100
107,331,71414,2,0,P|156:319|218:343,1,100
474,294,72119,6,0,P|431:306|371:288,1,100
311,367,72649,2,0,P|348:316|216:270,1,250
224,258,73884,2,0,P|216:292|218:314,1,50
142,232,74237,2,0,P|126:172|130:115,1,100
242,44,74943,5,0,0:0:0:0:
254,67,75296,1,0,0:0:0:0:
264,90,75649,1,0,0:0:0:0:
319,173,76002,5,0,0:0:0:0:
496,214,76355,2,0,P|415:219|362:283,1,150
221,225,77061,2,0,P|252:236|277:257,2,66.6666666666667
300,384,77767,2,0,P|321:338|316:296,2,66.6666666666667
103,331,78472,2,0,P|165:313|259:337,1,150
346,253,79178,6,0,P|333:205|343:149,1,100
389,88,79708,1,0,0:0:0:0:
324,39,79884,2,0,P|284:34|261:37,2,50
389,88,80414,1,0,0:0:0:0:
293,109,80590,6,0,P|220:122|143:161,1,150
12,254,81296,2,0,P|40:218|65:155,1,100
90,88,81825,1,0,0:0:0:0:
121,244,82002,6,0,P|122:291|97:358,1,100
201,145,82708,2,0,P|249:132|363:152,1,150
465,172,83414,6,0,P|424:120|412:65,1,100
390,284,83943,2,0,P|396:235|472:315,1,250
332,340,85178,6,0,P|292:324|271:322,1,50
194,359,85531,2,0,P|180:293|162:245,1,100
87,89,86237,6,0,P|96:118|98:153,1,50
102,64,86943,2,0,P|111:93|113:128,1,50
44,251,87649,5,0,0:0:0:0:
288,192,88355,6,0,L|297:82,1,100
251,26,88884,1,0,0:0:0:0:
197,78,89061,6,0,L|192:116,7,25,0|0|0|0|0|0|0|0,0:0|0:0|0:0|0:0|0:0|0:0|0:0|0:0,0:0:0:0:
107,124,89767,6,0,L|121:174,3,37.5000014305115,0|0|0|0,0:0|0:0|0:0|0:0,0:0:0:0:
50,229,90119,6,0,L|109:245,3,50,0|0|0|0,0:0|0:0|0:0|0:0,0:0:0:0:
191,321,90472,5,4,0:2:0:0:
236,341,90560,1,0,0:0:0:0:
285,341,90648,1,0,0:0:0:0:
331,322,90736,1,0,0:0:0:0:
370,290,90825,1,8,0:0:0:0:
401,275,90913,1,0,0:0:0:0:
436,275,91001,1,0,0:0:0:0:
468,289,91089,1,0,0:0:0:0:
480,323,91178,5,0,0:0:0:0:
449,338,91266,1,0,0:0:0:0:
414,338,91354,1,0,0:0:0:0:
382,324,91442,1,0,0:0:0:0:
355,301,91531,1,8,0:0:0:0:
310,281,91619,1,0,0:0:0:0:
261,281,91707,1,0,0:0:0:0:
215,300,91795,1,0,0:0:0:0:
178,329,91884,6,0,P|138:349|118:352,3,50,4|0|0|0,0:0|0:0|0:0|0:0,0:0:0:0:
100,227,92237,2,0,P|62:202|50:186,1,50,10|0,0:0|0:0,0:0:0:0:
159,108,92414,2,0,P|161:63|169:44,5,50,2|0|0|0|0|0,0:0|0:0|0:0|0:0|0:0|0:0,0:0:0:0:
291,136,92943,1,10,0:0:0:0:
293,130,93031,1,0,0:0:0:0:
298,126,93119,1,0,0:0:0:0:
303,123,93207,1,0,0:0:0:0:
310,124,93296,5,4,0:0:0:0:
308,148,93384,1,0,0:0:0:0:
299,172,93472,1,0,0:0:0:0:
285,192,93560,1,0,0:0:0:0:
265,208,93648,1,8,0:0:0:0:
242,217,93737,1,0,0:0:0:0:
217,220,93825,2,0,P|195:218|153:200,1,50,0|0,0:0|0:0,0:0:0:0:
325,285,94002,5,0,0:0:0:0:
356,274,94090,1,0,0:0:0:0:
389,272,94178,1,0,0:0:0:0:
421,280,94266,1,0,0:0:0:0:
444,305,94355,5,8,0:0:0:0:
399,318,94443,1,0,0:0:0:0:
353,321,94531,1,0,0:0:0:0:
308,310,94619,1,0,0:0:0:0:
267,285,94708,6,0,P|246:264|232:232,1,50,4|0,0:0|0:0,0:0:0:0:
146,234,94884,5,0,0:0:0:0:
96,215,94972,1,0,0:0:0:0:
42,216,95061,2,0,P|13:225|-10:240,1,50,8|0,0:0|0:0,0:0:0:0:
289,160,95237,5,0,0:0:0:0:
328,153,95325,1,0,0:0:0:0:
363,132,95414,2,0,P|378:115|394:84,1,50,4|0,0:0|0:0,0:0:0:0:
151,83,95590,5,0,0:0:0:0:
126,86,95678,1,0,0:0:0:0:
104,100,95767,2,0,P|94:110|71:152,1,50,8|0,0:0|0:0,0:0:0:0:
242,80,95943,5,0,0:0:0:0:
246,67,96031,1,0,0:0:0:0:
237,56,96119,5,4,0:0:0:0:
220,86,96207,1,0,0:0:0:0:
209,121,96295,1,0,0:0:0:0:
210,157,96383,1,0,0:0:0:0:
216,191,96472,1,8,0:0:0:0:
232,219,96561,1,0,0:0:0:0:
252,239,96649,1,0,0:0:0:0:
284,253,96737,1,0,0:0:0:0:
325,251,96825,5,0,0:0:0:0:
297,236,96913,1,0,0:0:0:0:
267,226,97001,1,0,0:0:0:0:
237,220,97089,1,0,0:0:0:0:
205,218,97177,1,8,0:0:0:0:
174,221,97266,1,0,0:0:0:0:
144,228,97354,1,0,0:0:0:0:
115,239,97442,1,0,0:0:0:0:
87,254,97531,6,0,P|57:279|30:311,3,50,4|0|0|0,0:0|0:0|0:0|0:0,0:0:0:0:
118,127,97884,2,0,P|79:132|39:146,1,50,10|0,0:0|0:0,0:0:0:0:
251,140,98061,1,2,0:0:0:0:
291,146,98149,1,0,0:0:0:0:
331,140,98237,2,0,P|361:134|383:111,3,50
444,220,98590,1,10,0:0:0:0:
443,232,98678,1,0,0:0:0:0:
442,244,98766,1,0,0:0:0:0:
441,257,98854,1,0,0:0:0:0:
440,268,98943,5,4,0:0:0:0:
399,254,99031,1,0,0:0:0:0:
356,254,99119,1,0,0:0:0:0:
316,266,99207,1,0,0:0:0:0:
275,279,99295,1,8,0:0:0:0:
232,276,99384,1,0,0:0:0:0:
192,263,99472,1,0,0:0:0:0:
153,244,99560,1,0,0:0:0:0:
137,213,99649,5,0,0:0:0:0:
178,205,99737,1,0,0:0:0:0:
217,222,99825,1,0,0:0:0:0:
239,257,99913,1,0,0:0:0:0:
237,300,100001,1,8,0:0:0:0:
212,333,100090,1,0,0:0:0:0:
172,347,100178,1,0,0:0:0:0:
131,335,100266,1,0,0:0:0:0:
108,303,100355,5,4,0:0:0:0:
115,300,100443,1,0,0:0:0:0:
120,305,100531,1,0,0:0:0:0:
121,312,100619,1,0,0:0:0:0:
115,316,100708,5,8,0:0:0:0:
139,278,100796,1,8,0:0:0:0:
183,258,100884,1,8,0:0:0:0:
231,261,100972,1,8,0:0:0:0:
276,277,101061,5,4,0:0:0:0:
326,290,101149,1,0,0:0:0:0:
375,272,101237,1,0,0:0:0:0:
405,227,101325,1,0,0:0:0:0:
403,175,101414,5,8,0:0:0:0:
367,132,101502,1,8,0:0:0:0:
310,113,101590,1,8,0:0:0:0:
248,131,101679,1,8,0:0:0:0:
199,170,101767,5,4,0:2:0:0:
142,187,101855,1,0,0:0:0:0:
91,178,101943,1,0,0:0:0:0:
57,148,102031,1,0,0:0:0:0:
54,113,102119,1,8,0:0:0:0:
68,87,102208,1,0,0:0:0:0:
101,78,102296,1,0,0:0:0:0:
127,98,102384,1,0,0:0:0:0:
120,118,102472,5,0,0:0:0:0:
92,104,102561,1,0,0:0:0:0:
89,70,102649,1,0,0:0:0:0:
104,35,102737,1,0,0:0:0:0:
142,25,102825,1,8,0:0:0:0:
192,39,102914,1,0,0:0:0:0:
230,73,103002,1,0,0:0:0:0:
281,91,103090,1,0,0:0:0:0:
334,72,103178,6,0,P|375:67|429:72,3,50,4|0|0|0,0:0|0:0|0:0|0:0,0:0:0:0:
393,201,103531,2,0,P|431:217|475:248,1,50,10|0,0:0|0:0,0:0:0:0:
341,317,103708,2,0,P|363:346|370:373,5,50,2|0|0|0|0|0,0:0|0:0|0:0|0:0|0:0|0:0,0:0:0:0:
163,325,104237,1,10,0:0:0:0:
157,328,104325,1,0,0:0:0:0:
153,332,104413,1,0,0:0:0:0:
152,338,104501,1,0,0:0:0:0:
155,345,104590,5,4,0:0:0:0:
174,323,104678,1,0,0:0:0:0:
188,299,104766,1,0,0:0:0:0:
196,271,104854,1,0,0:0:0:0:
199,243,104942,1,8,0:0:0:0:
194,215,105031,1,0,0:0:0:0:
184,188,105119,2,0,P|166:156|127:136,1,50,0|0,0:0|0:0,0:0:0:0:
310,139,105296,5,0,0:0:0:0:
316,144,105384,1,0,0:0:0:0:
323,148,105472,1,0,0:0:0:0:
331,151,105560,1,0,0:0:0:0:
339,153,105648,1,8,0:0:0:0:
347,153,105737,1,0,0:0:0:0:
355,152,105825,1,0,0:0:0:0:
362,148,105914,1,0,0:0:0:0:
368,143,106002,2,0,P|356:183|361:214,1,50,4|0,0:0|0:0,0:0:0:0:
479,240,106178,5,0,0:0:0:0:
487,198,106267,1,0,0:0:0:0:
484,151,106355,2,0,P|476:111|457:81,1,50,8|0,0:0|0:0,0:0:0:0:
241,210,106531,5,0,0:0:0:0:
234,241,106620,1,0,0:0:0:0:
237,276,106708,2,0,P|243:306|257:328,1,50,4|0,0:0|0:0,0:0:0:0:
375,309,106884,5,0,0:0:0:0:
378,293,106973,1,0,0:0:0:0:
377,276,107061,2,0,P|374:261|356:219,1,50,8|0,0:0|0:0,0:0:0:0:
113,268,107237,5,0,0:0:0:0:
109,279,107325,1,0,0:0:0:0:
111,293,107414,5,4,0:0:0:0:
127,269,107502,1,0,0:0:0:0:
137,243,107590,1,0,0:0:0:0:
140,214,107678,1,0,0:0:0:0:
136,186,107766,1,8,0:0:0:0:
125,160,107855,1,0,0:0:0:0:
108,137,107943,1,0,0:0:0:0:
85,120,108031,1,0,0:0:0:0:
61,114,108119,5,0,0:0:0:0:
84,129,108207,1,0,0:0:0:0:
111,141,108295,1,0,0:0:0:0:
138,147,108383,1,0,0:0:0:0:
167,149,108471,1,8,0:0:0:0:
195,146,108560,1,0,0:0:0:0:
223,138,108648,1,0,0:0:0:0:
248,126,108736,1,0,0:0:0:0:
266,105,108825,6,0,P|278:75|279:37,3,50,4|0|0|0,0:0|0:0|0:0|0:0,0:0:0:0:
362,210,109178,2,0,P|405:195|421:179,1,50,10|0,0:0|0:0,0:0:0:0:
221,290,109355,1,2,0:0:0:0:
187,296,109443,1,0,0:0:0:0:
147,298,109531,2,0,P|109:297|82:284,3,50,0|0|0|0,0:0|0:0|0:0|0:0,0:0:0:0:
285,222,109884,5,10,0:0:0:0:
300,241,109972,1,0,0:0:0:0:
309,264,110060,1,0,0:0:0:0:
312,289,110148,1,0,0:0:0:0:
308,314,110237,5,4,0:0:0:0:
285,277,110325,1,0,0:0:0:0:
275,236,110413,1,0,0:0:0:0:
279,193,110501,1,0,0:0:0:0:
297,154,110589,1,8,0:0:0:0:
326,123,110678,1,0,0:0:0:0:
363,103,110766,1,0,0:0:0:0:
405,95,110854,1,0,0:0:0:0:
439,109,110943,5,0,0:0:0:0:
396,135,111031,1,0,0:0:0:0:
350,154,111119,1,0,0:0:0:0:
301,163,111207,1,0,0:0:0:0:
251,162,111295,1,8,0:0:0:0:
202,153,111384,1,0,0:0:0:0:
156,134,111472,1,0,0:0:0:0:
114,107,111560,1,0,0:0:0:0:
104,61,111649,5,4,0:0:0:0:
110,61,111737,1,0,0:0:0:0:
115,66,111825,1,0,0:0:0:0:
116,73,111913,1,0,0:0:0:0:
112,79,112001,1,0,0:0:0:0:
106,81,112090,1,0,0:0:0:0:
99,80,112178,6,0,P|139:51|172:54,1,50,8|0,0:0|0:0,0:0:0:0:
93,271,112355,2,0,P|64:270|31:242,1,50,8|0,0:0|0:0,0:0:0:0:
309,153,112531,1,0,0:0:0:0:
336,203,112619,1,0,0:0:0:0:
338,257,112708,1,0,0:0:0:0:
315,297,112796,1,0,0:0:0:0:
281,311,112884,1,0,0:0:0:0:
248,306,112972,1,0,0:0:0:0:
232,291,113061,5,12,0:0:0:0:
281,295,113149,1,8,0:0:0:0:
331,299,113237,1,8,0:0:0:0:
381,304,113325,1,8,0:0:0:0:
431,308,113413,1,8,0:0:0:0:
431,308,113767,5,0,0:0:0:0:
437,232,113943,1,0,0:0:0:0:
439,157,114119,2,0,L|445:48,1,100,0|0,0:0|0:0,0:0:0:0:
354,266,114472,5,0,0:0:0:0:
360,190,114648,1,0,0:0:0:0:
362,115,114825,1,0,0:0:0:0:
239,207,115002,6,0,L|220:84,1,100,2|0,0:0|0:0,0:0:0:0:
137,288,115355,2,0,L|156:176,1,100,2|0,0:0|0:0,0:0:0:0:
248,330,115708,1,0,0:0:0:0:
363,242,115884,5,12,0:0:0:0:
359,193,115972,1,8,0:0:0:0:
355,143,116060,1,8,0:0:0:0:
350,93,116148,1,8,0:0:0:0:
346,43,116236,1,8,0:0:0:0:
346,43,116590,5,0,0:0:0:0:
270,37,116766,1,0,0:0:0:0:
195,35,116943,1,0,0:0:0:0:
275,186,117119,5,8,0:0:0:0:
132,334,117296,6,0,L|21:300,1,100,4|0,0:0|0:0,0:0:0:0:
202,319,117649,2,0,L|124:291,1,80
269,307,118002,2,0,L|202:282,1,64.9999970245363
336,296,118355,2,0,L|286:277,1,50
474,151,118708,5,12,0:0:0:0:
470,200,118796,1,8,0:0:0:0:
466,250,118884,1,8,0:0:0:0:
461,300,118972,1,8,0:0:0:0:
457,350,119060,1,8,0:0:0:0:
457,350,119414,5,0,0:0:0:0:
382,340,119590,1,0,0:0:0:0:
308,332,119767,2,0,L|188:313,1,100,0|0,0:0|0:0,0:0:0:0:
355,243,120119,5,0,0:0:0:0:
280,233,120295,1,0,0:0:0:0:
206,225,120472,1,0,0:0:0:0:
302,47,120649,6,0,L|290:163,1,100,2|0,0:0|0:0,0:0:0:0:
446,34,121002,2,0,L|392:119,1,100,2|0,0:0|0:0,0:0:0:0:
218,13,121355,1,8,0:0:0:0:
101,147,121531,6,0,B|42:153|28:198|28:198|48:226|82:245|131:215|131:215|182:188|240:213|240:213|302:240|347:207|347:207|336:157|281:142,1,525.000020027161,4|0,0:0|0:0,0:0:0:0:
107,319,122943,6,0,B|171:331|217:322|230:297|230:297|197:258|134:290,1,200,4|0,0:0|0:0,0:0:0:0:
19,355,123472,5,8,0:0:0:0:
17,342,123561,1,8,0:0:0:0:
15,327,123649,1,8,0:0:0:0:
42,230,123825,1,0,0:0:0:0:
14,128,124002,1,0,0:0:0:0:
69,45,124178,1,0,0:0:0:0:
145,123,124355,5,4,0:0:0:0:
169,125,124443,1,0,0:0:0:0:
194,127,124531,1,0,0:0:0:0:
219,129,124619,1,0,0:0:0:0:
245,132,124708,1,0,0:0:0:0:
245,132,125061,6,0,B|250:98|268:74|268:74|262:42,2,83.3333333333333,8|0|0,0:0|0:0|0:0,0:0:0:0:
223,339,126296,5,0,0:0:0:0:
0,230,126472,2,0,B|29:234|29:234|105:190|199:234,1,200,8|0,0:0|0:0,0:0:0:0:
223,339,127002,1,0,0:0:0:0:
303,270,127178,5,4,0:0:0:0:
305,245,127266,1,0,0:0:0:0:
308,220,127354,1,0,0:0:0:0:
311,195,127442,1,0,0:0:0:0:
313,170,127531,2,0,L|317:103,1,50,0|0,0:0|0:0,0:0:0:0:
373,28,127884,2,0,P|314:36|266:20,1,100,8|0,0:0|0:0,0:0:0:0:
188,11,128414,5,0,0:0:0:0:
121,129,128590,2,0,B|108:169|108:169|144:219|81:276|130:338,1,200,4|0,0:0|0:0,0:0:0:0:
192,373,129119,1,0,0:0:0:0:
245,209,129296,2,0,B|205:195|205:195|155:231|98:168|36:217,1,200,12|0,0:0|0:0,0:0:0:0:
1,274,129825,1,0,0:0:0:0:
144,285,130002,5,4,0:0:0:0:
168,285,130090,1,0,0:0:0:0:
193,286,130178,1,0,0:0:0:0:
218,287,130266,1,0,0:0:0:0:
242,287,130355,2,0,L|312:287,1,50,0|0,0:0|0:0,0:0:0:0:
387,334,130708,2,0,P|370:280|378:220,1,100,8|0,0:0|0:0,0:0:0:0:
372,237,131414,5,2,0:0:0:0:
253,183,131590,2,0,P|254:207|262:231,1,50,2|0,0:0|0:0,0:0:0:0:
182,85,131943,1,0,0:0:0:0:
95,347,132119,6,0,B|82:307|82:307|118:257|55:200|104:138,1,200,8|0,0:0|0:0,0:0:0:0:
182,85,132649,1,0,0:0:0:0:
376,239,132825,6,0,L|161:228,1,200,4|0,0:0|0:0,0:0:0:0:
339,102,133355,1,0,0:0:0:0:
504,153,133531,2,0,L|494:356,1,200,12|0,0:0|0:0,0:0:0:0:
348,384,134061,1,0,0:0:0:0:
263,233,134237,5,4,0:0:0:0:
401,242,134414,2,0,L|521:250,1,100,8|0,0:0|0:0,0:0:0:0:
348,384,134767,2,8,L|344:320,1,50
334,71,134943,6,0,B|328:103|328:103|342:136|342:136|334:186,1,100,8|0,0:0|0:0,0:0:0:0:
119,302,135649,5,4,0:0:0:0:
117,277,135737,1,0,0:0:0:0:
116,252,135825,1,0,0:0:0:0:
115,227,135913,1,0,0:0:0:0:
116,201,136002,5,2,0:0:0:0:
228,113,136178,2,0,B|195:137|154:118|154:118|116:100|68:121,1,150,2|0,0:0|0:0,0:0:0:0:
312,61,136884,1,2,0:0:0:0:
361,145,137061,6,0,P|427:155|478:144,1,100,2|0,0:0|0:0,0:0:0:0:
221,124,137590,1,0,0:0:0:0:
127,346,137767,6,0,B|125:285|125:285|105:224|105:224|110:145,1,200,12|0,0:0|0:0,0:0:0:0:
188,57,138296,1,0,0:0:0:0:
350,206,138472,5,4,0:0:0:0:
325,203,138560,1,0,0:0:0:0:
300,201,138648,1,0,0:0:0:0:
275,198,138736,1,0,0:0:0:0:
249,194,138825,2,0,L|181:185,1,50,0|0,0:0|0:0,0:0:0:0:
344,92,139178,2,0,B|374:76|401:92|401:92|430:106|458:84,1,100,8|0,0:0|0:0,0:0:0:0:
504,35,139708,5,0,0:0:0:0:
474,178,139884,2,0,B|462:253|462:253|490:317|490:317|484:389,1,200,4|0,0:0|0:0,0:0:0:0:
380,246,140414,2,8,L|393:178,1,50
331,122,140590,1,8,0:0:0:0:
242,172,140767,1,0,0:0:0:0:
160,117,140943,1,0,0:0:0:0:
25,231,141119,1,0,0:0:0:0:
163,356,141296,5,4,0:0:0:0:
187,354,141384,1,0,0:0:0:0:
212,353,141472,1,0,0:0:0:0:
237,351,141560,1,0,0:0:0:0:
262,350,141649,5,2,0:0:0:0:
352,247,141825,2,0,L|357:181,1,50,2|8,0:0|0:0,0:0:0:0:
262,216,142178,1,2,0:0:0:0:
440,228,142355,2,0,L|500:230,1,50,2|0,0:0|0:0,0:0:0:0:
362,121,142708,1,2,0:0:0:0:
348,331,142884,2,0,L|344:396,1,50,2|0,0:0|0:0,0:0:0:0:
262,216,143237,5,0,0:0:0:0:
29,276,143414,2,0,B|81:267|81:267|166:293|166:293|238:280,1,200,12|0,0:0|0:0,0:0:0:0:
286,142,143943,1,0,0:0:0:0:
157,9,144119,6,0,L|146:221,1,200,4|0,0:0|0:0,0:0:0:0:
146,208,144825,2,0,P|210:231|286:137,1,200,8|0,0:0|0:0,0:0:0:0:
157,9,145355,1,0,0:0:0:0:
146,208,145531,5,4,0:0:0:0:
286,142,145708,2,0,L|414:157,1,100,8|0,0:0|0:0,0:0:0:0:
503,272,146061,2,0,L|445:264,1,50,8|0,0:0|0:0,0:0:0:0:
351,343,146237,2,0,L|293:351,1,50,8|0,0:0|0:0,0:0:0:0:
146,208,146414,2,0,L|204:216,1,50
9,366,146590,6,0,L|15:257,1,100,4|0,0:0|0:0,0:0:0:0:
289,200,148051,2,0,P|245:195|217:199,1,50
331,258,148404,2,0,L|348:154,1,100
314,97,148934,2,0,P|358:113|417:105,1,100
479,79,149463,1,0,0:0:0:0:
255,33,149816,6,0,P|212:24|148:36,1,100
0,174,150522,2,0,P|47:183|100:218,1,100
145,286,151051,1,0,0:0:0:0:
221,235,151228,6,0,P|261:222|336:243,1,100
391,257,151757,1,0,0:0:0:0:
396,326,151934,2,0,P|321:257|390:188,1,200
367,191,152993,2,0,P|404:188|434:202,1,50
322,118,153345,2,0,P|267:114|221:98,1,100
34,228,154051,6,0,P|80:207|132:159,1,100
270,310,154757,2,0,P|239:273|222:204,1,100
512,257,155463,6,0,P|448:257|377:321,1,150
337,128,156169,2,0,P|358:156|368:200,2,66.6666666666667
503,67,156875,2,0,P|471:89|455:119,2,66.6666666666667
281,17,157581,2,0,P|339:18|392:48,1,100
173,244,158287,6,0,P|160:194|155:133,1,100
161,68,158816,1,0,0:0:0:0:
88,102,158993,2,0,P|50:116|26:119,2,50
161,68,159522,1,0,0:0:0:0:
252,99,159698,6,0,P|298:90|358:66,1,100
468,84,160228,2,0,P|420:117|374:205,1,150
399,269,160934,1,0,0:0:0:0:
294,209,161110,6,0,P|247:205|185:224,1,100
27,252,161816,2,0,P|47:211|52:149,1,100
117,66,162345,5,0,0:0:0:0:
270,124,162522,2,0,P|226:143|161:155,1,100
336,231,163051,2,0,P|297:207|407:157,1,250
400,140,164287,2,0,P|437:146|457:144,1,50
491,265,164640,2,0,P|440:276|393:306,1,100
187,343,165345,6,0,L|179:288,1,50,0|0,0:0|0:0,0:0:0:0:
214,359,166051,2,0,L|206:304,1,50,0|0,0:0|0:0,0:0:0:0:
135,215,166757,5,0,0:0:0:0:
202,104,167463,6,0,P|245:98|301:113,1,100
352,167,167993,1,0,0:0:0:0:
384,234,168169,6,0,L|394:281,7,25,0|0|0|0|0|0|0|0,0:0|0:0|0:0|0:0|0:0|0:0|0:0|0:0,0:0:0:0:
283,275,168875,6,0,L|244:315,3,37.5000014305115,0|0|0|0,0:0|0:0|0:0|0:0,0:0:0:0:
179,243,169228,6,0,P|71:263|52:161,1,225.000008583069
79,109,169536,5,4,0:2:0:0:
124,89,169624,1,0,0:0:0:0:
173,89,169712,1,0,0:0:0:0:
219,108,169800,1,0,0:0:0:0:
258,140,169888,1,8,0:0:0:0:
289,155,169977,1,0,0:0:0:0:
324,155,170065,1,0,0:0:0:0:
356,141,170153,1,0,0:0:0:0:
368,107,170242,5,0,0:0:0:0:
337,92,170330,1,0,0:0:0:0:
302,92,170418,1,0,0:0:0:0:
270,106,170506,1,0,0:0:0:0:
243,129,170595,1,8,0:0:0:0:
198,149,170683,1,0,0:0:0:0:
149,149,170771,1,0,0:0:0:0:
103,130,170859,1,0,0:0:0:0:
66,101,170948,6,0,P|26:81|6:78,3,50,4|0|0|0,0:0|0:0|0:0|0:0,0:0:0:0:
85,235,171300,2,0,P|72:273|44:306,1,50,10|0,0:0|0:0,0:0:0:0:
234,280,171477,2,0,P|249:314|249:358,5,50,2|0|0|0|0|0,0:0|0:0|0:0|0:0|0:0|0:0,0:0:0:0:
386,234,172006,1,10,0:0:0:0:
392,223,172094,1,0,0:0:0:0:
394,210,172182,1,0,0:0:0:0:
392,198,172270,1,0,0:0:0:0:
383,186,172359,5,4,0:0:0:0:
370,211,172447,1,0,0:0:0:0:
365,239,172535,1,0,0:0:0:0:
369,267,172623,1,0,0:0:0:0:
380,293,172711,1,8,0:0:0:0:
399,315,172800,1,0,0:0:0:0:
424,327,172888,2,0,P|451:332|495:331,1,50,0|0,0:0|0:0,0:0:0:0:
238,251,173065,5,0,0:0:0:0:
211,252,173153,1,0,0:0:0:0:
186,264,173241,1,0,0:0:0:0:
173,279,173330,1,0,0:0:0:0:
167,294,173418,5,8,0:0:0:0:
191,266,173506,1,0,0:0:0:0:
206,231,173594,1,0,0:0:0:0:
209,194,173682,1,0,0:0:0:0:
200,158,173771,2,0,P|184:123|153:96,1,50,4|0,0:0|0:0,0:0:0:0:
244,36,173947,5,0,0:0:0:0:
279,57,174036,1,0,0:0:0:0:
321,67,174124,2,0,P|355:70|408:53,1,50,8|0,0:0|0:0,0:0:0:0:
467,146,174300,5,0,0:0:0:0:
435,145,174389,1,0,0:0:0:0:
404,154,174477,2,0,P|380:164|352:195,1,50,4|0,0:0|0:0,0:0:0:0:
390,344,174653,5,0,0:0:0:0:
403,336,174742,1,0,0:0:0:0:
415,324,174830,2,0,P|422:313|430:265,1,50,8|0,0:0|0:0,0:0:0:0:
246,275,175006,5,0,0:0:0:0:
242,284,175094,1,0,0:0:0:0:
245,291,175183,5,4,0:0:0:0:
246,262,175271,1,0,0:0:0:0:
242,234,175359,1,0,0:0:0:0:
232,207,175447,1,0,0:0:0:0:
217,183,175535,1,8,0:0:0:0:
197,162,175624,1,0,0:0:0:0:
174,146,175712,1,0,0:0:0:0:
148,135,175800,1,0,0:0:0:0:
118,136,175888,5,0,0:0:0:0:
151,149,175976,1,0,0:0:0:0:
185,156,176064,1,0,0:0:0:0:
221,158,176152,1,0,0:0:0:0:
257,153,176240,1,8,0:0:0:0:
291,143,176329,1,0,0:0:0:0:
323,127,176417,1,0,0:0:0:0:
351,106,176505,1,0,0:0:0:0:
370,84,176594,6,0,P|388:59|396:26,3,50,4|0|0|0,0:0|0:0|0:0|0:0,0:0:0:0:
397,211,176947,2,0,P|428:201|460:174,1,50,10|0,0:0|0:0,0:0:0:0:
312,326,177124,2,0,P|345:333|378:329,5,50,2|0|0|0|0|0,0:0|0:0|0:0|0:0|0:0|0:0,0:0:0:0:
151,252,177653,1,10,0:0:0:0:
144,262,177741,1,0,0:0:0:0:
140,274,177829,1,0,0:0:0:0:
140,286,177917,1,0,0:0:0:0:
141,300,178006,5,4,0:0:0:0:
163,263,178094,1,0,0:0:0:0:
177,223,178182,1,0,0:0:0:0:
181,180,178270,1,0,0:0:0:0:
174,138,178358,1,8,0:0:0:0:
158,99,178447,1,0,0:0:0:0:
133,64,178535,1,0,0:0:0:0:
100,36,178623,1,0,0:0:0:0:
61,37,178712,5,0,0:0:0:0:
93,73,178800,1,0,0:0:0:0:
141,88,178888,1,0,0:0:0:0:
188,75,178976,1,0,0:0:0:0:
228,46,179065,1,8,0:0:0:0:
274,29,179153,1,0,0:0:0:0:
323,40,179241,1,0,0:0:0:0:
357,75,179329,1,0,0:0:0:0:
363,122,179418,5,4,0:0:0:0:
349,120,179506,1,0,0:0:0:0:
339,110,179594,1,0,0:0:0:0:
338,96,179682,1,0,0:0:0:0:
346,85,179771,1,8,0:0:0:0:
360,82,179859,1,8,0:0:0:0:
372,88,179947,1,8,0:0:0:0:
377,101,180035,1,8,0:0:0:0:
382,113,180124,5,4,0:0:0:0:
359,133,180212,1,0,0:0:0:0:
308,137,180300,1,0,0:0:0:0:
259,114,180388,1,0,0:0:0:0:
204,120,180477,1,8,0:0:0:0:
170,167,180565,1,8,0:0:0:0:
183,226,180653,1,8,0:0:0:0:
241,251,180741,1,8,0:0:0:0:
306,232,180830,5,4,0:2:0:0:
369,237,180918,1,0,0:0:0:0:
410,273,181006,1,0,0:0:0:0:
400,322,181094,1,0,0:0:0:0:
359,334,181183,1,8,0:0:0:0:
335,317,181271,1,0,0:0:0:0:
340,297,181359,1,0,0:0:0:0:
356,290,181448,1,0,0:0:0:0:
365,296,181536,5,0,0:0:0:0:
374,309,181624,1,0,0:0:0:0:
411,326,181712,1,0,0:0:0:0:
444,315,181800,1,0,0:0:0:0:
460,278,181888,1,8,0:0:0:0:
449,229,181977,1,0,0:0:0:0:
413,189,182065,1,0,0:0:0:0:
359,181,182153,1,0,0:0:0:0:
304,194,182241,6,0,P|263:207|236:206,3,50,4|0|0|0,0:0|0:0|0:0|0:0,0:0:0:0:
218,295,182594,2,0,P|177:290|150:277,1,50,10|0,0:0|0:0,0:0:0:0:
60,346,182771,2,0,P|37:314|32:274,5,50,2|0|0|0|0|0,0:0|0:0|0:0|0:0|0:0|0:0,0:0:0:0:
156,138,183300,1,10,0:0:0:0:
150,149,183388,1,0,0:0:0:0:
143,159,183476,1,0,0:0:0:0:
132,166,183564,1,0,0:0:0:0:
118,168,183653,5,4,0:0:0:0:
148,153,183741,1,0,0:0:0:0:
180,145,183829,1,0,0:0:0:0:
213,143,183917,1,0,0:0:0:0:
246,146,184005,1,8,0:0:0:0:
278,156,184094,1,0,0:0:0:0:
308,171,184183,2,0,P|349:196|367:223,1,50,0|0,0:0|0:0,0:0:0:0:
444,103,184359,5,0,0:0:0:0:
436,104,184447,1,0,0:0:0:0:
430,101,184535,1,0,0:0:0:0:
425,96,184623,1,0,0:0:0:0:
424,90,184711,1,8,0:0:0:0:
426,83,184800,1,0,0:0:0:0:
431,78,184888,1,0,0:0:0:0:
438,77,184976,1,0,0:0:0:0:
444,77,185065,2,0,P|403:71|372:41,1,50,4|0,0:0|0:0,0:0:0:0:
281,28,185241,5,0,0:0:0:0:
239,20,185330,1,0,0:0:0:0:
192,23,185418,2,0,P|152:31|122:50,1,50,8|0,0:0|0:0,0:0:0:0:
247,228,185594,5,0,0:0:0:0:
278,235,185683,1,0,0:0:0:0:
313,232,185771,2,0,P|343:226|365:212,1,50,4|0,0:0|0:0,0:0:0:0:
237,127,185947,5,0,0:0:0:0:
221,124,186036,1,0,0:0:0:0:
204,125,186124,2,0,P|189:128|147:146,1,50,8|0,0:0|0:0,0:0:0:0:
299,352,186300,5,0,0:0:0:0:
310,356,186388,1,0,0:0:0:0:
323,353,186477,5,4,0:0:0:0:
295,330,186565,1,0,0:0:0:0:
263,315,186653,1,0,0:0:0:0:
228,306,186741,1,0,0:0:0:0:
192,304,186829,1,8,0:0:0:0:
157,311,186918,1,0,0:0:0:0:
124,324,187006,1,0,0:0:0:0:
95,344,187094,1,0,0:0:0:0:
81,368,187183,5,0,0:0:0:0:
112,351,187271,1,0,0:0:0:0:
138,326,187359,1,0,0:0:0:0:
157,296,187447,1,0,0:0:0:0:
168,262,187535,1,8,0:0:0:0:
169,227,187624,1,0,0:0:0:0:
162,192,187712,1,0,0:0:0:0:
146,160,187800,1,0,0:0:0:0:
123,136,187888,6,0,P|91:119|51:116,3,50,4|0|0|0,0:0|0:0|0:0|0:0,0:0:0:0:
250,117,188241,2,0,P|242:75|227:45,1,50,10|0,0:0|0:0,0:0:0:0:
321,243,188418,1,2,0:0:0:0:
336,281,188506,1,0,0:0:0:0:
324,322,188594,5,0,0:0:0:0:
299,278,188682,1,0,0:0:0:0:
292,229,188770,1,0,0:0:0:0:
302,181,188858,1,0,0:0:0:0:
340,156,188947,5,10,0:0:0:0:
376,189,189035,1,0,0:0:0:0:
398,234,189123,1,0,0:0:0:0:
404,283,189211,1,0,0:0:0:0:
392,332,189300,5,4,0:0:0:0:
374,292,189388,1,0,0:0:0:0:
365,251,189476,1,0,0:0:0:0:
363,208,189564,1,0,0:0:0:0:
370,166,189652,1,8,0:0:0:0:
385,125,189741,1,0,0:0:0:0:
407,89,189829,1,0,0:0:0:0:
436,57,189917,1,0,0:0:0:0:
474,45,190006,5,0,0:0:0:0:
438,80,190094,1,0,0:0:0:0:
392,97,190182,1,0,0:0:0:0:
343,93,190270,1,0,0:0:0:0:
299,72,190359,1,8,0:0:0:0:
251,56,190447,1,0,0:0:0:0:
202,60,190535,1,0,0:0:0:0:
160,85,190623,1,0,0:0:0:0:
131,126,190712,5,4,0:0:0:0:
128,139,190800,1,0,0:0:0:0:
133,152,190888,1,0,0:0:0:0:
145,159,190976,1,0,0:0:0:0:
159,158,191064,1,8,0:0:0:0:
170,149,191153,1,0,0:0:0:0:
172,142,191241,1,0,0:0:0:0:
165,138,191330,1,0,0:0:0:0:
152,142,191418,5,8,0:0:0:0:
155,178,191506,1,8,0:0:0:0:
174,223,191594,1,8,0:0:0:0:
221,248,191683,1,0,0:0:0:0:
278,241,191771,1,8,0:0:0:0:
322,201,191859,1,8,0:0:0:0:
319,139,191947,1,8,0:0:0:0:
288,87,192036,1,0,0:0:0:0:
230,69,192124,6,0,P|198:61|140:66,3,62.5,4|0|0|0,0:0|0:0|0:0|0:0,0:0:0:0:
383,78,192477,2,0,P|423:66|449:44,1,62.5,8|0,0:0|0:0,0:0:0:0:
420,212,192653,2,0,P|451:181|464:143,1,62.5,0|0,0:0|0:0,0:0:0:0:
335,276,192830,5,0,0:0:0:0:
321,283,192918,1,0,0:0:0:0:
321,297,193006,1,0,0:0:0:0:
334,304,193094,1,0,0:0:0:0:
348,293,193183,2,0,P|330:332|330:380,1,62.5,8|0,0:0|0:0,0:0:0:0:
239,206,193359,2,0,P|242:257|259:289,1,62.5,0|0,0:0|0:0,0:0:0:0:
162,73,193536,5,0,0:0:0:0:
199,97,193624,1,0,0:0:0:0:
247,96,193712,1,0,0:0:0:0:
294,71,193800,1,0,0:0:0:0:
351,56,193888,1,8,0:0:0:0:
408,69,193977,1,0,0:0:0:0:
446,120,194065,1,0,0:0:0:0:
437,184,194153,1,0,0:0:0:0:
376,211,194241,6,0,P|323:226|231:182,1,125
200,164,194506,1,0,0:0:0:0:
127,155,194594,2,0,P|85:156|34:183,1,62.5,8|0,0:0|0:0,0:0:0:0:
294,71,194771,2,0,P|317:38|319:10,1,62.5
212,259,194947,5,4,0:0:0:0:
208,265,195035,2,0,P|147:285|49:249,1,125
329,343,195300,6,0,B|373:311|373:311|424:359|496:354|532:295|525:239|486:181|399:178|360:254,1,375,8|0,0:0|0:0,0:0:0:0:
324,246,195918,2,0,B|272:280|272:280|177:247,1,125,0|0,0:0|0:0,0:0:0:0:
154,215,196183,2,0,B|125:210|125:210|85:218,1,62.5,0|0,0:0|0:0,0:0:0:0:
22,254,196359,6,0,B|12:300|12:300|28:350,2,83.3333333333333,2|2|2,0:0|0:0|0:0,0:0:0:0:
37,159,196712,5,10,0:0:0:0:
115,110,196830,1,2,0:0:0:0:
202,125,196947,1,2,0:0:0:0:
275,189,197065,5,2,0:0:0:0:
312,206,197153,1,0,0:0:0:0:
353,210,197241,1,0,0:0:0:0:
394,201,197329,1,0,0:0:0:0:
427,181,197418,6,0,P|457:167|492:164,2,41.6666666666667,8|0|0,0:0|0:0|0:0,0:0:0:0:
473,234,197594,2,0,P|503:248|538:251,2,41.6666666666667,8|0|0,0:0|0:0|0:0,0:0:0:0:
466,305,197771,6,0,P|484:326|495:357,2,41.6666666666667,4|0|0,0:0|0:0|0:0,0:0:0:0:
423,361,197947,2,0,P|361:377|278:358,1,125,0|8,0:0|0:0,0:0:0:0:
129,246,198300,5,0,0:0:0:0:
127,253,198359,1,0,0:0:0:0:
127,260,198418,1,0,0:0:0:0:
129,268,198477,2,0,P|161:216|160:126,1,125,0|0,0:0|0:0,0:0:0:0:
65,12,198830,1,8,0:0:0:0:
97,25,198918,1,0,0:0:0:0:
134,32,199006,2,0,P|184:27|230:7,1,62.5,0|0,0:0|0:0,0:0:0:0:
429,68,199183,6,0,P|382:81|334:69,1,62.5,0|0,0:0|0:0,0:0:0:0:
255,163,199359,2,0,P|309:153|407:183,1,125,0|8,0:0|0:0,0:0:0:0:
355,334,199712,5,0,0:0:0:0:
357,341,199771,1,0,0:0:0:0:
357,348,199830,1,0,0:0:0:0:
355,356,199889,2,0,P|323:304|324:214,1,125,0|0,0:0|0:0,0:0:0:0:
215,344,200241,1,8,0:0:0:0:
169,352,200330,1,0,0:0:0:0:
125,346,200418,1,0,0:0:0:0:
90,324,200506,1,0,0:0:0:0:
70,285,200594,6,0,P|63:215|70:183,1,62.5,4|0,0:0|0:0,0:0:0:0:
162,39,200771,2,0,P|169:109|162:141,1,62.5,0|0,0:0|0:0,0:0:0:0:
167,263,200947,5,8,0:0:0:0:
179,234,201035,2,0,P|189:212|192:168,1,62.5,2|0,0:0|0:0,0:0:0:0:
237,272,201212,1,0,0:0:0:0:
264,260,201300,2,0,P|311:243|343:242,1,62.5,2|0,0:0|0:0,0:0:0:0:
372,140,201477,1,0,0:0:0:0:
407,142,201565,1,0,0:0:0:0:
435,167,201653,5,2,0:0:0:0:
381,179,201741,1,0,0:0:0:0:
329,159,201830,2,0,P|286:147|232:117,1,62.5,0|0,0:0|0:0,0:0:0:0:
133,93,202006,5,0,0:0:0:0:
121,116,202094,1,0,0:0:0:0:
116,143,202183,1,0,0:0:0:0:
117,170,202271,1,0,0:0:0:0:
124,196,202359,1,0,0:0:0:0:
137,219,202447,1,0,0:0:0:0:
157,239,202535,2,0,P|185:259|241:271,1,62.5
454,271,202712,5,0,0:0:0:0:
431,259,202800,1,0,0:0:0:0:
404,254,202889,1,0,0:0:0:0:
377,255,202977,1,0,0:0:0:0:
351,262,203065,1,0,0:0:0:0:
328,275,203153,1,0,0:0:0:0:
308,295,203241,2,0,P|288:323|276:379,1,62.5,8|0,0:0|0:0,0:0:0:0:
235,134,203418,5,4,0:0:0:0:
259,70,203506,1,0,0:0:0:0:
224,12,203594,2,0,P|220:82|237:104,1,62.5,0|0,0:0|0:0,0:0:0:0:
339,140,203771,1,8,0:0:0:0:
365,153,203859,1,0,0:0:0:0:
401,158,203947,1,0,0:0:0:0:
435,154,204035,1,0,0:0:0:0:
466,138,204124,2,0,P|486:115|509:67,1,62.5
320,71,204300,2,0,P|278:66|247:76,1,62.5
251,213,204477,6,0,P|243:171|251:132,1,62.5,8|0,0:0|0:0,0:0:0:0:
399,13,204653,2,0,B|405:48|405:48|399:75,1,62.5
359,214,204830,2,0,P|367:172|359:133,1,62.5
184,16,205006,2,0,B|177:50|177:50|195:97,1,62.5
359,214,205183,6,0,P|401:222|440:214,1,62.5,8|0,0:0|0:0,0:0:0:0:
186,75,205359,2,0,B|151:69|151:69|124:75,1,62.5
251,213,205536,2,0,P|209:221|170:213,1,62.5
401,75,205712,2,0,B|435:82|435:82|482:64,1,62.5
359,214,205888,6,0,P|367:256|359:295,1,62.5,8|0,0:0|0:0,0:0:0:0:
260,121,206065,2,0,P|302:113|341:121,1,62.5
369,351,206241,6,0,P|459:305|412:231,1,187.5,4|0,0:0|0:0,0:0:0:0:
359,215,206594,2,0,L|168:207,1,187.5,8|0,0:0|0:0,0:0:0:0:
101,200,206947,6,0,L|18:197,1,62.5
214,290,207124,2,0,L|296:292,1,62.5
101,200,207300,2,0,L|103:117,1,62.5,8|0,0:0|0:0,0:0:0:0:
214,290,207477,2,0,L|211:372,1,62.5
72,296,207653,6,0,P|120:291|154:303,1,62.5
279,211,207830,2,0,P|231:216|197:204,1,62.5
72,296,208006,2,0,P|77:344|65:378,1,62.5,8|0,0:0|0:0,0:0:0:0:
279,211,208183,2,0,P|274:163|286:129,1,62.5
37,208,208359,6,0,P|85:213|119:201,1,62.5
279,211,208535,2,0,P|231:206|197:218,1,62.5
37,208,208712,6,0,P|32:160|44:126,1,62.5,8|0,0:0|0:0,0:0:0:0:
279,211,208888,2,0,P|283:241|277:272,1,62.5
34,362,209065,6,0,P|32:325|38:288,5,62.5,4|0|0|0|8|0,0:0|0:0|0:0|0:0|0:0|0:0,0:0:0:0:
125,330,209594,5,0,0:0:0:0:
118,332,209653,1,0,0:0:0:0:
111,333,209712,1,0,0:0:0:0:
105,331,209771,2,0,B|174:287|237:318|237:318|314:355|380:303,1,250,0|8,0:0|0:0,0:0:0:0:
413,161,210300,2,0,L|425:81,1,62.5
314,223,210477,5,0,0:0:0:0:
272,202,210565,1,0,0:0:0:0:
222,192,210653,1,0,0:0:0:0:
175,197,210741,1,0,0:0:0:0:
133,224,210830,5,8,0:0:0:0:
177,237,210918,1,0,0:0:0:0:
218,230,211006,2,0,P|254:189|266:153,1,62.5,0|0,0:0|0:0,0:0:0:0:
183,68,211183,5,0,0:0:0:0:
154,56,211271,1,0,0:0:0:0:
119,54,211359,1,0,0:0:0:0:
89,65,211447,1,0,0:0:0:0:
67,86,211535,5,8,0:0:0:0:
112,113,211624,1,0,0:0:0:0:
163,116,211712,1,0,0:0:0:0:
213,105,211800,1,0,0:0:0:0:
254,74,211888,6,0,P|322:43|410:61,1,125,4|0,0:0|0:0,0:0:0:0:
430,87,212153,1,0,0:0:0:0:
467,152,212241,2,0,B|482:194|482:194|469:229|479:258|479:258|467:298|479:342,1,187.5,8|0,0:0|0:0,0:0:0:0:
408,370,212594,2,0,P|396:316|402:270,1,62.5,2|0,0:0|0:0,0:0:0:0:
293,163,212771,1,0,0:0:0:0:
300,202,212859,1,0,0:0:0:0:
295,236,212947,2,0,P|279:289|251:326,1,62.5,8|0,0:0|0:0,0:0:0:0:
15,348,213124,5,0,0:0:0:0:
83,336,213212,1,0,0:0:0:0:
152,340,213300,2,0,P|204:356|241:384,1,62.5,0|0,0:0|0:0,0:0:0:0:
48,224,213477,5,0,0:0:0:0:
118,230,213565,2,0,P|155:244|215:237,1,62.5,8|0,0:0|0:0,0:0:0:0:
106,74,213741,5,0,0:0:0:0:
149,126,213830,2,0,P|179:147|227:164,1,62.5,8|0,0:0|0:0,0:0:0:0:
262,28,214006,6,0,P|289:64|299:97,1,62.5,8|0,0:0|0:0,0:0:0:0:
430,33,214183,5,0,0:0:0:0:
423,104,214271,1,0,0:0:0:0:
391,164,214359,2,0,P|363:203|325:229,1,62.5,8|0,0:0|0:0,0:0:0:0:
426,302,214535,5,0,0:0:0:0:
364,339,214624,1,0,0:0:0:0:
291,323,214712,5,12,0:0:0:0:
340,309,214800,1,8,0:0:0:0:
389,298,214888,1,8,0:0:0:0:
438,288,214976,1,8,0:0:0:0:
487,277,215064,1,8,0:0:0:0:
256,192,215153,12,0,216477,0:0:0:0:
205,145,216653,5,2,0:0:0:0:
205,145,217006,1,2,0:0:0:0:
205,145,217359,1,2,0:0:0:0:
310,57,217535,5,12,0:0:0:0:
305,106,217623,1,8,0:0:0:0:
300,156,217711,1,8,0:0:0:0:
295,206,217799,1,8,0:0:0:0:
291,256,217887,1,8,0:0:0:0:
256,192,217977,12,4,218947,0:0:0:0:
256,192,219035,12,0,220183,0:0:0:0:
184,98,220359,5,12,0:0:0:0:
187,147,220447,1,8,0:0:0:0:
191,197,220535,1,8,0:0:0:0:
195,247,220623,1,8,0:0:0:0:
199,297,220711,1,8,0:0:0:0:
256,192,220800,12,0,222124,0:0:0:0:
336,120,222300,5,2,0:0:0:0:
336,120,222653,1,2,0:0:0:0:
336,120,223006,1,2,0:0:0:0:
92,40,223183,5,12,0:0:0:0:
256,192,223271,12,4,224594,0:0:0:0:
95,191,224947,6,0,B|134:183|134:183|175:190|175:190|231:165,1,100,0|0,0:0|0:0,0:0:0:0:
245,138,225212,1,0,0:0:0:0:
254,131,225300,2,0,B|306:117|306:117|379:131,1,100,8|0,0:0|0:0,0:0:0:0:
455,247,225653,2,0,P|392:209|384:293,1,150,0|0,0:0|0:0,0:0:0:0:
403,336,226006,6,0,P|357:332|322:340,1,50,4|0,0:0|0:0,0:0:0:0:
221,229,226183,2,0,P|267:225|302:233,1,50,0|0,0:0|0:0,0:0:0:0:
108,344,226359,2,0,L|94:216,1,100,0|0,0:0|0:0,0:0:0:0:
199,29,226712,6,0,B|218:73|218:73|210:135,1,100,8|0,0:0|0:0,0:0:0:0:
211,124,226947,2,0,B|261:104|261:104|319:114,1,100,0|0,0:0|0:0,0:0:0:0:
306,111,227183,2,0,B|358:122|358:122|414:102,1,100,0|0,0:0|0:0,0:0:0:0:
402,107,227418,2,0,B|423:157|423:157|409:226,1,100
413,201,227653,2,0,B|360:188|360:188|295:212,1,100,0|0,0:0|0:0,0:0:0:0:
317,203,227888,2,0,B|274:218|274:218|221:205,1,100,0|0,0:0|0:0,0:0:0:0:
221,205,228124,6,0,B|246:255|246:255|230:321,1,100,8|0,0:0|0:0,0:0:0:0:
128,258,228477,1,0,0:0:0:0:
149,88,228653,1,0,0:0:0:0:
128,258,228830,6,0,L|123:316,1,50,12|0,0:0|0:0,0:0:0:0:
221,205,229006,2,0,L|226:147,1,50,0|0,0:0|0:0,0:0:0:0:
284,95,229183,2,0,B|321:105|321:105|379:89,2,66.6666666666667,2|2|2,0:0|0:0|0:0,0:0:0:0:
226,46,229535,5,10,0:0:0:0:
150,65,229653,2,2,B|66:59,1,66.6666666666667,2|0,0:0|0:0,0:0:0:0:
228,32,229888,1,2,0:0:0:0:
212,137,230006,2,2,L|203:219,1,66.6666666666667,2|0,0:0|0:0,0:0:0:0:
232,22,230241,6,0,P|267:17|298:23,3,50
340,76,230594,2,0,P|375:81|406:75,3,50
467,106,230947,5,10,0:0:0:0:
483,145,231035,1,0,0:0:0:0:
480,189,231124,1,0,0:0:0:0:
450,232,231212,1,0,0:0:0:0:
402,263,231300,1,0,0:0:0:0:
340,260,231388,1,0,0:0:0:0:
283,235,231477,1,0,0:0:0:0:
222,225,231565,1,0,0:0:0:0:
163,230,231653,6,0,P|108:249|87:269,1,50,4|0,0:0|0:0,0:0:0:0:
231,139,231830,2,0,P|270:144|295:139,1,50,0|0,0:0|0:0,0:0:0:0:
142,39,232006,2,0,L|129:167,1,100,0|0,0:0|0:0,0:0:0:0:
352,30,232359,5,8,0:0:0:0:
447,104,232535,2,0,P|429:140|398:162,1,50,0|0,0:0|0:0,0:0:0:0:
455,250,232712,2,0,P|419:273|379:278,1,50,0|0,0:0|0:0,0:0:0:0:
331,351,232888,6,0,B|266:354|266:354|202:322|202:322|136:327,1,200,0|0,0:0|0:0,0:0:0:0:
42,218,233418,5,0,0:0:0:0:
76,219,233506,1,0,0:0:0:0:
110,213,233594,1,0,0:0:0:0:
145,197,233683,2,0,P|184:179|206:151,1,50,2|0,0:0|0:0,0:0:0:0:
455,271,234124,5,0,0:0:0:0:
421,272,234212,1,0,0:0:0:0:
387,266,234300,1,0,0:0:0:0:
352,250,234389,2,0,P|319:234|294:204,1,50,2|0,0:0|0:0,0:0:0:0:
37,333,234830,5,0,0:0:0:0:
135,301,235006,2,0,P|189:286|264:299,1,100
317,335,235359,1,0,0:0:0:0:
190,197,235535,2,0,P|175:165|172:125,1,50,8|0,0:0|0:0,0:0:0:0:
313,80,235712,2,0,P|292:108|259:131,1,50,0|0,0:0|0:0,0:0:0:0:
111,82,235888,6,0,B|164:69|164:69|242:88,1,100,0|0,0:0|0:0,0:0:0:0:
272,197,236153,1,0,0:0:0:0:
281,206,236241,2,0,B|336:223|336:223|398:201,1,100,0|0,0:0|0:0,0:0:0:0:
478,121,236594,5,8,0:0:0:0:
472,145,236683,1,8,0:0:0:0:
464,175,236771,1,8,0:0:0:0:
484,285,236947,1,8,0:0:0:0:
461,304,237035,1,8,0:0:0:0:
434,327,237124,1,8,0:0:0:0:
308,293,237300,6,0,P|266:302|197:285,1,62.5,4|0,0:0|0:0,0:0:0:0:
64,236,237477,2,0,P|112:226|156:190,1,62.5,0|0,0:0|0:0,0:0:0:0:
243,143,237653,5,8,0:0:0:0:
237,140,237712,1,0,0:0:0:0:
232,135,237771,1,0,0:0:0:0:
226,131,237830,2,0,P|207:98|203:44,1,62.5,0|0,0:0|0:0,0:0:0:0:
485,146,238006,6,0,P|468:193|437:223,1,62.5,0|0,0:0|0:0,0:0:0:0:
248,221,238183,2,0,P|285:208|344:217,1,62.5,0|0,0:0|0:0,0:0:0:0:
427,353,238359,5,8,0:0:0:0:
420,350,238418,1,0,0:0:0:0:
415,345,238477,1,0,0:0:0:0:
409,341,238536,2,0,P|390:308|386:254,1,62.5,0|0,0:0|0:0,0:0:0:0:
405,106,238712,5,0,0:0:0:0:
360,80,238800,1,0,0:0:0:0:
307,65,238888,1,0,0:0:0:0:
249,73,238977,1,0,0:0:0:0:
190,96,239065,6,0,P|179:117|158:136,2,41.6666666666667,8|0|0,0:0|0:0|0:0,0:0:0:0:
98,81,239241,1,0,0:0:0:0:
47,65,239330,1,0,0:0:0:0:
20,21,239418,6,0,B|42:77|42:77|12:163,1,125
2,264,239771,2,0,B|69:249|69:249|165:267,1,125,8|0,0:0|0:0,0:0:0:0:
276,346,240124,5,4,0:0:0:0:
351,130,240300,2,0,P|353:174|336:212,1,62.5,0|0,0:0|0:0,0:0:0:0:
196,212,240477,2,0,P|246:186|280:185,1,62.5,8|0,0:0|0:0,0:0:0:0:
412,287,240653,2,0,P|368:289|330:272,1,62.5,0|0,0:0|0:0,0:0:0:0:
79,112,240830,6,0,B|127:106|127:106|204:120|204:120|275:102,2,187.5,0|0|0,0:0|0:0|0:0,0:0:0:0:
52,238,241535,6,0,P|84:196|107:294,1,187.5
67,332,241888,1,0,0:0:0:0:
51,356,241977,2,0,B|88:345|88:345|140:362|140:362|228:349,1,125,4|0,0:3|0:0,0:0:0:0:
382,208,242241,1,0,0:0:0:0:
405,227,242330,2,0,B|338:204|338:204|271:225|271:225|192:208,1,187.5,4|0,0:0|0:0,0:0:0:0:
65,106,242683,1,0,0:0:0:0:
42,131,242771,6,0,B|134:103|134:103|261:143|261:143|382:113,1,300.000011444092,4|0,0:0|0:0,0:0:0:0:
483,142,243300,6,0,P|485:96|468:48,1,62.5,8|0,0:0|0:0,0:0:0:0:
384,288,243477,1,0,0:0:0:0:
333,289,243565,1,0,0:0:0:0:
289,305,243653,1,0,0:0:0:0:
248,308,243741,1,0,0:0:0:0:
210,288,243830,1,0,0:0:0:0:
202,252,243918,1,0,0:0:0:0:
222,219,244006,1,8,0:0:0:0:
248,209,244094,1,0,0:0:0:0:
273,213,244183,1,0,0:0:0:0:
288,229,244271,1,0,0:0:0:0:
295,243,244359,5,0,0:0:0:0:
283,251,244447,1,0,0:0:0:0:
266,255,244535,1,0,0:0:0:0:
242,253,244624,1,0,0:0:0:0:
222,247,244712,1,8,0:0:0:0:
193,238,244800,1,0,0:0:0:0:
166,234,244888,1,0,0:0:0:0:
137,240,244977,1,0,0:0:0:0:
107,262,245065,6,0,P|88:280|74:308,2,41.6666666666667,0|0|0,0:0|0:0|0:0,0:0:0:0:
142,320,245241,1,0,0:0:0:0:
167,329,245330,2,0,P|232:340|327:308,1,125,0|0,0:0|0:0,0:0:0:0:
343,269,245594,2,0,P|361:298|373:349,1,62.5,0|0,0:0|0:0,0:0:0:0:
421,133,245771,6,0,P|362:79|328:167,1,187.5,4|0,0:0|0:0,0:0:0:0:
373,194,246124,6,0,P|331:187|292:202,1,62.5,8|0,0:0|0:0,0:0:0:0:
105,173,246300,2,0,P|143:176|184:204,1,62.5,0|0,0:0|0:0,0:0:0:0:
405,278,246477,2,0,L|329:267,1,62.5,0|0,0:0|0:0,0:0:0:0:
57,260,246653,2,0,L|133:249,1,62.5,0|0,0:0|0:0,0:0:0:0:
211,335,246830,5,8,0:0:0:0:
237,270,246918,1,0,0:0:0:0:
238,198,247006,2,0,P|234:144|222:114,1,62.5,0|0,0:0|0:0,0:0:0:0:
28,4,247183,5,4,0:0:0:0:
36,67,247271,1,0,0:0:0:0:
67,123,247359,2,0,P|94:163|117:181,1,62.5,0|0,0:0|0:0,0:0:0:0:
391,98,247535,5,8,0:0:0:0:
361,59,247623,1,0,0:0:0:0:
320,34,247711,2,0,P|287:18|254:17,1,62.5,0|0,0:0|0:0,0:0:0:0:
345,241,247888,5,4,0:0:0:0:
380,256,247976,1,0,0:0:0:0:
416,256,248064,2,0,P|443:253|490:233,1,62.5,0|0,0:0|0:0,0:0:0:0:
206,97,248241,5,8,0:0:0:0:
173,156,248330,1,0,0:0:0:0:
166,223,248418,1,0,0:0:0:0:
181,287,248506,1,0,0:0:0:0:
217,342,248594,6,0,P|253:369|279:378,3,50,4|0|0|0,0:2|0:0|0:0|0:0,0:0:0:0:
110,272,248947,2,0,P|63:274|8:295,1,100
292,257,249300,5,8,0:0:0:0:
383,258,249477,1,0,0:0:0:0:
338,189,249653,1,0,0:0:0:0:
337,323,249830,1,0,0:0:0:0:
412,190,250006,5,0,0:0:0:0:
414,180,250183,1,0,0:0:0:0:
415,168,250359,1,0,0:0:0:0:
416,157,250535,1,0,0:0:0:0:
306,59,250712,5,8,0:0:0:0:
233,136,250888,1,0,0:0:0:0:
231,61,251065,1,0,0:0:0:0:
309,133,251241,1,0,0:0:0:0:
114,101,251418,6,0,P|101:140|102:166,1,50,4|0,0:0|0:0,0:0:0:0:
213,235,251594,2,0,P|185:204|162:192,1,50,0|0,0:0|0:0,0:0:0:0:
15,284,251771,2,0,P|55:275|110:216,1,100,0|0,0:0|0:0,0:0:0:0:
191,31,252124,5,8,0:0:0:0:
264,68,252300,1,0,0:0:0:0:
333,25,252477,1,0,0:0:0:0:
401,71,252653,1,0,0:0:0:0:
331,130,252830,5,0,0:0:0:0:
329,140,253007,1,0,0:0:0:0:
328,152,253183,1,0,0:0:0:0:
327,163,253359,1,0,0:0:0:0:
221,222,253535,5,8,0:0:0:0:
375,277,253712,1,0,0:0:0:0:
325,174,253888,1,0,0:0:0:0:
269,324,254065,1,0,0:0:0:0:
185,132,254241,6,0,P|149:125|108:133,1,50,4|0,0:0|0:0,0:0:0:0:
7,191,254418,2,0,P|43:198|84:190,1,50,0|0,0:0|0:0,0:0:0:0:
67,15,254594,2,0,P|57:77|68:151,1,100,0|0,0:0|0:0,0:0:0:0:
157,302,254947,5,8,0:0:0:0:
166,227,255124,1,0,0:0:0:0:
148,374,255300,1,0,0:0:0:0:
166,227,255477,1,0,0:0:0:0:
230,308,255653,5,0,0:0:0:0:
240,306,255830,1,0,0:0:0:0:
252,305,256006,1,0,0:0:0:0:
263,304,256182,1,0,0:0:0:0:
333,239,256359,5,8,0:0:0:0:
356,126,256535,1,0,0:0:0:0:
438,202,256712,1,0,0:0:0:0:
254,161,256888,1,0,0:0:0:0:
372,52,257065,5,4,0:0:0:0:
279,26,257241,1,0,0:0:0:0:
196,58,257418,1,0,0:0:0:0:
109,31,257594,1,0,0:0:0:0:
16,176,257771,5,8,0:0:0:0:
71,98,257947,1,0,0:0:0:0:
148,272,258124,1,0,0:0:0:0:
109,181,258300,1,0,0:0:0:0:
301,157,258477,5,4,0:0:0:0:
207,189,258653,1,0,0:0:0:0:
396,127,258830,1,0,0:0:0:0:
346,284,259006,2,0,L|363:349,1,50,0|0,0:0|0:0,0:0:0:0:
221,103,259183,1,0,0:0:0:0:
214,146,259271,1,0,0:0:0:0:
207,189,259359,1,0,0:0:0:0:
396,127,259535,5,0,0:0:0:0:
84,81,259712,1,0,0:0:0:0:
169,367,259888,6,0,L|182:292,1,50,4|0,0:0|0:0,0:0:0:0:
207,189,260065,2,0,L|194:256,1,50
343,318,260241,2,0,B|317:306|317:306|268:309|268:309|218:294,1,100
33,221,260594,2,0,B|59:233|59:233|108:230|108:230|158:245,1,100,8|0,0:0|0:0,0:0:0:0:
247,377,260947,1,0,0:0:0:0:
139,164,261124,1,0,0:0:0:0:
453,72,261300,5,0,0:0:0:0:
433,254,261477,2,0,B|437:290|437:290|429:334|429:334|432:371,1,100,0|0,0:0|0:0,0:0:0:0:
139,164,261830,1,0,0:0:0:0:
414,160,262006,2,0,B|450:164|450:164|494:156|494:156|531:159,1,100,8|0,0:0|0:0,0:0:0:0:
241,345,262359,1,0,0:0:0:0:
304,74,262535,1,0,0:0:0:0:
241,345,262712,6,0,P|232:310|234:283,1,50,4|0,0:0|0:0,0:0:0:0:
414,160,262888,2,0,P|407:193|381:219,1,50,0|0,0:0|0:0,0:0:0:0:
139,164,263065,2,0,B|197:157|197:157|265:172,1,100,0|0,0:0|0:0,0:0:0:0:
430,299,263418,2,0,B|372:292|372:292|304:307,1,100,8|0,0:0|0:0,0:0:0:0:
139,164,263771,1,0,0:0:0:0:
96,300,263947,1,0,0:0:0:0:
83,48,264124,6,0,B|138:41|138:41|215:52,1,100,0|0,0:0|0:0,0:0:0:0:
361,155,264477,2,0,B|306:162|306:162|229:151,1,100,0|0,0:0|0:0,0:0:0:0:
479,43,264830,2,0,B|476:115|476:115|494:178|494:178|485:265,1,200,8|0,0:0|0:0,0:0:0:0:
408,352,265359,1,0,0:0:0:0:
196,276,265535,6,0,P|185:240|190:196,1,50,4|0,0:0|0:0,0:0:0:0:
250,107,265712,2,0,P|261:143|256:187,1,50,0|0,0:0|0:0,0:0:0:0:
64,40,265888,2,0,B|116:28|116:28|168:32,1,100,0|0,0:0|0:0,0:0:0:0:
85,196,266241,1,8,0:0:0:0:
121,102,266418,1,0,0:0:0:0:
266,232,266594,6,0,B|278:284|278:284|264:340,1,100,0|0,0:0|0:0,0:0:0:0:
353,171,266947,2,0,B|404:186|404:186|445:226,1,100,0|0,0:0|0:0,0:0:0:0:
315,61,267300,2,0,B|354:24|354:24|409:8,1,100,0|0,0:0|0:0,0:0:0:0:
213,116,267653,2,0,B|155:110|155:110|72:132|72:132|-9:121,1,200,8|0,0:0|0:0,0:0:0:0:
162,184,268183,1,0,0:0:0:0:
13,53,268359,6,0,L|80:61,1,50,4|0,0:0|0:0,0:0:0:0:
211,189,268535,2,0,L|144:181,1,50,0|0,0:0|0:0,0:0:0:0:
6,190,268712,2,0,L|76:199,1,50,0|0,0:0|0:0,0:0:0:0:
226,51,268888,2,0,L|154:42,1,50,0|0,0:0|0:0,0:0:0:0:
115,259,269065,5,8,0:0:0:0:
297,128,269241,1,0,0:0:0:0:
341,337,269418,1,0,0:0:0:0:
115,259,269594,1,0,0:0:0:0:
508,194,269771,5,4,0:0:0:0:
341,337,269947,1,0,0:0:0:0:
297,128,270124,1,0,0:0:0:0:
508,194,270300,1,0,0:0:0:0:
459,207,270388,1,0,0:0:0:0:
409,222,270477,1,8,0:0:0:0:
419,22,270653,1,0,0:0:0:0:
499,362,270830,1,0,0:0:0:0:
193,261,271006,2,0,L|237:216,1,50,0|0,0:0|0:0,0:0:0:0:
419,22,271183,5,12,0:0:0:0:
416,71,271271,1,8,0:0:0:0:
413,121,271359,1,8,0:0:0:0:
411,171,271447,1,8,0:0:0:0:
408,221,271535,1,8,0:0:0:0:
178,145,271888,6,0,L|182:81,2,50,0|0|0,0:0|0:0|0:0,0:0:0:0:
153,164,272594,2,0,L|157:100,2,50
372,183,273124,6,0,B|334:215|241:193|241:193|263:156|314:177,1,187.5,6|0,0:0|0:0,0:0:0:0:
283,169,273477,2,0,L|276:359,1,187.5,2|0,0:0|0:0,0:0:0:0:
276,356,273830,1,2,0:0:0:0:
94,349,274006,5,12,0:0:0:0:
90,299,274094,1,8,0:0:0:0:
86,249,274182,1,8,0:0:0:0:
82,199,274270,1,8,0:0:0:0:
78,149,274358,1,8,0:0:0:0:
289,69,274712,6,0,L|282:138,2,50,0|0|0,0:0|0:0|0:0,0:0:0:0:
99,306,275418,6,0,L|-12:340,1,100,4|0,0:0|0:0,0:0:0:0:
169,321,275771,2,0,L|91:349,1,80
236,333,276124,2,0,L|169:358,1,64.9999970245363
303,344,276477,2,0,L|253:363,1,50
427,285,276830,5,12,0:0:0:0:
431,235,276918,1,8,0:0:0:0:
435,185,277006,1,8,0:0:0:0:
439,135,277094,1,8,0:0:0:0:
443,85,277182,1,8,0:0:0:0:
225,163,277535,6,0,L|230:104,2,50,0|0|0,0:0|0:0|0:0,0:0:0:0:
196,190,278241,2,0,L|201:131,2,50,0|0|0,0:0|0:0|0:0,0:0:0:0:
121,292,278771,6,0,B|178:277|178:277|238:297|238:297|318:274,1,187.5,6|0,0:0|0:0,0:0:0:0:
300,278,279124,2,0,P|356:234|270:226,1,187.5,2|0,0:0|0:0,0:0:0:0:
279,208,279477,1,2,0:0:0:0:
460,356,279653,1,4,0:0:0:0:
176,145,280359,6,0,L|294:125,1,100,0|0,0:0|0:0,0:0:0:0:
120,107,281065,6,0,L|338:76,1,200,4|0,0:0|0:0,0:0:0:0:
274,310,281771,5,8,0:0:0:0:
197,259,281947,1,0,0:0:0:0:
346,359,282124,1,0,0:0:0:0:
197,259,282300,1,0,0:0:0:0:
452,61,282477,5,4,0:0:0:0:
256,192,282565,12,0,283712,0:0:0:0:
309,192,283888,5,12,0:0:0:0:
263,175,283977,1,8,0:0:0:0:
226,173,284065,1,8,0:0:0:0:
191,178,284153,1,8,0:0:0:0:
164,194,284241,1,8,0:0:0:0:
160,219,284330,1,0,0:0:0:0:
179,233,284418,1,0,0:0:0:0:
201,228,284506,1,0,0:0:0:0:
210,206,284594,5,0,0:0:0:0:
196,168,284683,1,0,0:0:0:0:
161,138,284771,1,0,0:0:0:0:
109,132,284859,1,0,0:0:0:0:
59,157,284947,1,0,0:0:0:0:
28,208,285035,1,0,0:0:0:0:
35,270,285124,1,0,0:0:0:0:
72,321,285212,1,0,0:0:0:0:
137,326,285300,5,4,0:2:0:0:
191,303,285388,1,0,0:0:0:0:
224,268,285477,1,0,0:0:0:0:
259,245,285565,1,0,0:0:0:0:
296,241,285653,1,8,0:0:0:0:
328,252,285741,1,0,0:0:0:0:
347,275,285830,1,0,0:0:0:0:
339,296,285918,1,0,0:0:0:0:
315,294,286006,5,0,0:0:0:0:
288,264,286094,1,0,0:0:0:0:
277,217,286183,1,0,0:0:0:0:
292,164,286271,1,0,0:0:0:0:
342,134,286359,1,8,0:0:0:0:
403,133,286447,1,0,0:0:0:0:
459,158,286535,1,0,0:0:0:0:
492,210,286624,1,0,0:0:0:0:
487,273,286712,6,0,P|477:314|461:338,3,50,4|0|0|0,0:0|0:0|0:0|0:0,0:0:0:0:
369,360,287065,2,0,P|331:367|304:367,1,50,10|0,0:0|0:0,0:0:0:0:
210,328,287241,2,0,P|185:307|164:267,5,50,2|0|0|0|0|0,0:0|0:0|0:0|0:0|0:0|0:0,0:0:0:0:
80,129,287771,1,10,0:0:0:0:
84,140,287859,1,0,0:0:0:0:
86,153,287947,1,0,0:0:0:0:
84,165,288035,1,0,0:0:0:0:
80,177,288123,5,0,0:0:0:0:
105,155,288212,1,0,0:0:0:0:
136,146,288300,1,0,0:0:0:0:
169,150,288388,1,0,0:0:0:0:
200,167,288477,1,8,0:0:0:0:
232,172,288565,1,0,0:0:0:0:
263,164,288653,2,0,P|292:144|323:101,1,50,0|0,0:0|0:0,0:0:0:0:
394,258,288830,5,0,0:0:0:0:
361,254,288918,1,0,0:0:0:0:
328,262,289006,1,0,0:0:0:0:
301,281,289094,1,0,0:0:0:0:
284,308,289183,5,8,0:0:0:0:
332,320,289271,1,0,0:0:0:0:
381,317,289359,1,0,0:0:0:0:
427,298,289447,1,0,0:0:0:0:
464,265,289535,2,0,P|477:238|483:192,1,50,4|0,0:0|0:0,0:0:0:0:
438,39,289712,5,0,0:0:0:0:
417,74,289801,1,0,0:0:0:0:
407,116,289889,2,0,P|404:150|421:203,1,50,8|0,0:0|0:0,0:0:0:0:
328,262,290065,5,0,0:0:0:0:
329,230,290154,1,0,0:0:0:0:
320,199,290242,2,0,P|310:175|279:147,1,50,4|0,0:0|0:0,0:0:0:0:
130,185,290418,5,0,0:0:0:0:
138,198,290507,1,0,0:0:0:0:
150,210,290595,2,0,P|161:217|209:225,1,50,8|0,0:0|0:0,0:0:0:0:
152,32,290771,5,0,0:0:0:0:
143,28,290859,1,0,0:0:0:0:
134,30,290947,5,4,0:0:0:0:
158,45,291035,1,0,0:0:0:0:
184,56,291123,1,0,0:0:0:0:
212,63,291211,1,0,0:0:0:0:
240,66,291299,1,8,0:0:0:0:
268,64,291388,1,0,0:0:0:0:
296,58,291476,1,0,0:0:0:0:
323,47,291564,1,0,0:0:0:0:
342,30,291653,5,0,0:0:0:0:
307,38,291741,1,0,0:0:0:0:
276,56,291829,1,0,0:0:0:0:
251,81,291917,1,0,0:0:0:0:
235,113,292005,1,8,0:0:0:0:
229,148,292094,1,0,0:0:0:0:
232,183,292182,1,0,0:0:0:0:
246,216,292270,1,0,0:0:0:0:
267,246,292359,6,0,P|290:277|324:295,3,50,4|0|0|0,0:0|0:0|0:0|0:0,0:0:0:0:
388,218,292712,2,0,P|416:229|452:227,1,50,10|0,0:0|0:0,0:0:0:0:
446,134,292888,2,0,P|484:131|523:112,3,50,2|0|0|0,0:0|0:0|0:0|0:0,0:0:0:0:
452,39,293241,2,0,P|474:25|493:1,1,50,2|0,0:0|0:0,0:0:0:0:
222,47,293418,1,10,0:0:0:0:
215,57,293506,1,0,0:0:0:0:
204,64,293594,1,0,0:0:0:0:
192,65,293682,1,0,0:0:0:0:
186,60,293771,5,4,0:0:0:0:
204,90,293859,1,0,0:0:0:0:
216,124,293947,1,2,0:0:0:0:
221,159,294035,1,2,0:0:0:0:
220,195,294123,1,10,0:0:0:0:
212,229,294212,1,0,0:0:0:0:
198,262,294300,1,2,0:0:0:0:
178,292,294388,1,0,0:0:0:0:
149,314,294477,5,2,0:0:0:0:
192,290,294565,1,0,0:0:0:0:
242,287,294653,1,0,0:0:0:0:
288,304,294741,1,0,0:0:0:0:
325,338,294830,1,8,0:0:0:0:
371,353,294918,1,0,0:0:0:0:
421,347,295006,1,0,0:0:0:0:
463,322,295094,1,0,0:0:0:0:
473,275,295183,5,4,0:0:0:0:
454,284,295271,1,0,0:0:0:0:
446,304,295359,1,0,0:0:0:0:
452,324,295447,1,0,0:0:0:0:
469,335,295535,1,8,0:0:0:0:
490,333,295624,1,8,0:0:0:0:
505,318,295712,1,8,0:0:0:0:
507,298,295800,1,8,0:0:0:0:
495,280,295888,5,0,0:0:0:0:
468,262,295977,1,0,0:0:0:0:
424,248,296065,1,0,0:0:0:0:
373,255,296153,1,0,0:0:0:0:
320,274,296241,1,8,0:0:0:0:
259,280,296330,1,8,0:0:0:0:
197,263,296418,1,8,0:0:0:0:
152,214,296506,1,8,0:0:0:0:
137,149,296594,5,4,0:2:0:0:
161,91,296683,1,0,0:0:0:0:
210,64,296771,1,0,0:0:0:0:
261,67,296859,1,0,0:0:0:0:
298,87,296947,1,8,0:0:0:0:
329,108,297036,1,0,0:0:0:0:
363,117,297124,1,0,0:0:0:0:
392,112,297212,1,0,0:0:0:0:
416,92,297300,5,0,0:0:0:0:
385,79,297389,1,0,0:0:0:0:
346,88,297477,1,0,0:0:0:0:
314,115,297565,1,0,0:0:0:0:
298,162,297653,1,8,0:0:0:0:
301,216,297742,1,0,0:0:0:0:
325,270,297830,1,0,0:0:0:0:
379,301,297918,1,0,0:0:0:0:
441,313,298006,6,0,P|474:311|520:294,3,50,4|0|0|0,0:0|0:0|0:0|0:0,0:0:0:0:
447,178,298359,2,0,P|475:146|480:108,1,50,10|0,0:0|0:0,0:0:0:0:
346,88,298535,2,0,P|348:68|340:31,5,50,2|0|0|0|0|0,0:0|0:0|0:0|0:0|0:0|0:0,0:0:0:0:
177,123,299065,1,10,0:0:0:0:
165,128,299153,1,0,0:0:0:0:
153,131,299241,1,0,0:0:0:0:
141,129,299329,1,0,0:0:0:0:
128,125,299418,5,4,0:0:0:0:
163,122,299506,1,0,0:0:0:0:
198,130,299594,1,0,0:0:0:0:
228,148,299682,1,0,0:0:0:0:
252,175,299771,2,0,P|263:198|281:252,1,50,10|0,0:0|0:0,0:0:0:0:
156,324,299947,5,2,0:0:0:0:
186,311,300035,1,0,0:0:0:0:
219,307,300123,1,0,0:0:0:0:
252,313,300211,1,0,0:0:0:0:
278,329,300300,1,0,0:0:0:0:
308,341,300388,1,0,0:0:0:0:
341,345,300476,1,8,0:0:0:0:
374,339,300564,1,0,0:0:0:0:
400,317,300653,1,0,0:0:0:0:
412,288,300741,1,0,0:0:0:0:
404,253,300830,2,0,P|386:224|351:201,1,50,4|0,0:0|0:0,0:0:0:0:
208,183,301006,5,0,0:0:0:0:
180,150,301095,1,0,0:0:0:0:
159,108,301183,2,0,P|145:69|147:33,1,50,8|0,0:0|0:0,0:0:0:0:
341,52,301359,5,0,0:0:0:0:
348,82,301448,1,0,0:0:0:0:
345,117,301536,2,0,P|339:146|324:168,1,50
308,341,301712,5,0,0:0:0:0:
298,329,301801,1,0,0:0:0:0:
290,313,301889,2,0,P|285:298|279:253,1,50,8|0,0:0|0:0,0:0:0:0:
445,235,302065,5,0,0:0:0:0:
450,246,302153,1,0,0:0:0:0:
448,258,302241,5,4,0:0:0:0:
433,233,302329,1,0,0:0:0:0:
423,206,302417,1,0,0:0:0:0:
418,178,302505,1,0,0:0:0:0:
417,150,302593,1,8,0:0:0:0:
421,121,302682,1,0,0:0:0:0:
431,94,302770,1,0,0:0:0:0:
444,69,302858,1,0,0:0:0:0:
462,50,302947,6,0,P|422:55|389:47,1,50,2|0,0:0|0:0,0:0:0:0:
340,33,303124,1,0,0:0:0:0:
313,28,303212,2,0,P|278:24|243:33,1,50,2|0,0:0|0:0,0:0:0:0:
180,77,303388,2,0,P|155:78|130:74,1,50,2|0,0:0|0:0,0:0:0:0:
86,150,303565,1,0,0:0:0:0:
58,144,303653,6,0,P|33:143|8:147,1,50,6|0,0:0|0:0,0:0:0:0:
149,212,303830,1,0,0:0:0:0:
176,217,303918,2,0,P|211:221|246:212,1,50,2|8,0:0|0:0,0:0:0:0:
292,157,304094,1,0,0:0:0:0:
319,152,304183,2,0,P|354:148|389:157,3,50,2|0|0|0,0:0|0:0|0:0|0:0,0:0:0:0:
431,224,304535,2,0,P|472:231|503:223,1,50,2|0,0:0|0:0,0:0:0:0:
311,311,304712,1,10,0:0:0:0:
299,314,304800,1,0,0:0:0:0:
288,321,304888,1,0,0:0:0:0:
279,330,304976,1,0,0:0:0:0:
274,344,305065,5,4,0:0:0:0:
287,310,305153,1,0,0:0:0:0:
292,275,305241,1,0,0:0:0:0:
290,240,305329,1,0,0:0:0:0:
280,206,305417,1,8,0:0:0:0:
263,174,305506,1,0,0:0:0:0:
239,148,305594,1,0,0:0:0:0:
209,128,305682,1,0,0:0:0:0:
174,118,305771,5,0,0:0:0:0:
197,153,305859,1,0,0:0:0:0:
229,181,305947,1,0,0:0:0:0:
269,198,306035,1,0,0:0:0:0:
311,202,306123,1,8,0:0:0:0:
353,194,306212,1,0,0:0:0:0:
391,175,306300,1,0,0:0:0:0:
421,145,306388,1,0,0:0:0:0:
437,107,306477,5,4,0:0:0:0:
391,127,306565,1,0,0:0:0:0:
358,163,306653,1,0,0:0:0:0:
342,211,306741,1,0,0:0:0:0:
346,260,306830,5,8,0:0:0:0:
356,199,306918,1,8,0:0:0:0:
346,137,307006,1,8,0:0:0:0:
316,83,307094,1,8,0:0:0:0:
269,41,307183,5,4,0:0:0:0:
242,98,307271,1,0,0:0:0:0:
233,159,307359,1,0,0:0:0:0:
243,221,307447,1,0,0:0:0:0:
270,277,307535,5,8,0:0:0:0:
281,213,307624,1,8,0:0:0:0:
242,158,307712,1,8,0:0:0:0:
171,145,307800,1,8,0:0:0:0:
108,173,307888,5,4,0:2:0:0:
74,219,307977,1,0,0:0:0:0:
67,265,308065,1,0,0:0:0:0:
76,303,308153,1,0,0:0:0:0:
101,327,308241,1,8,0:0:0:0:
133,332,308330,1,0,0:0:0:0:
153,313,308418,1,0,0:0:0:0:
141,287,308506,1,0,0:0:0:0:
122,305,308594,5,0,0:0:0:0:
160,320,308683,1,0,0:0:0:0:
209,315,308771,1,0,0:0:0:0:
260,290,308859,1,0,0:0:0:0:
312,262,308947,1,8,0:0:0:0:
375,259,309035,1,0,0:0:0:0:
434,285,309124,1,0,0:0:0:0:
435,349,309212,1,0,0:0:0:0:
375,374,309300,6,0,P|324:367|307:349,3,50,4|0|0|0,0:0|0:0|0:0|0:0,0:0:0:0:
245,183,309653,2,0,P|214:167|196:145,1,50,10|0,0:0|0:0,0:0:0:0:
391,67,309830,2,0,P|405:29|423:8,5,50,2|0|0|0|0|0,0:0|0:0|0:0|0:0|0:0|0:0,0:0:0:0:
439,190,310359,1,8,0:0:0:0:
448,182,310447,1,0,0:0:0:0:
460,177,310535,1,0,0:0:0:0:
472,176,310623,1,0,0:0:0:0:
485,182,310712,5,4,0:0:0:0:
449,187,310800,1,0,0:0:0:0:
414,185,310888,1,0,0:0:0:0:
379,177,310976,1,0,0:0:0:0:
346,162,311064,1,8,0:0:0:0:
317,142,311153,1,0,0:0:0:0:
293,116,311241,2,0,P|277:82|267:39,1,50,0|0,0:0|0:0,0:0:0:0:
162,149,311418,5,0,0:0:0:0:
132,134,311506,1,0,0:0:0:0:
99,129,311594,1,0,0:0:0:0:
66,135,311682,1,0,0:0:0:0:
40,150,311771,5,8,0:0:0:0:
72,167,311859,1,0,0:0:0:0:
108,178,311947,1,0,0:0:0:0:
146,181,312035,1,0,0:0:0:0:
183,176,312124,2,0,P|223:163|257:165,1,50,4|0,0:0|0:0,0:0:0:0:
496,234,312300,5,0,0:0:0:0:
461,213,312389,1,0,0:0:0:0:
419,203,312477,2,0,P|385:200|332:217,1,50,8|0,0:0|0:0,0:0:0:0:
171,300,312653,5,0,0:0:0:0:
203,301,312742,1,0,0:0:0:0:
234,292,312830,2,0,P|258:282|286:251,1,50,4|0,0:0|0:0,0:0:0:0:
363,41,313006,5,0,0:0:0:0:
350,49,313095,1,0,0:0:0:0:
338,61,313183,2,0,P|331:72|323:120,1,50,8|0,0:0|0:0,0:0:0:0:
453,317,313359,5,0,0:0:0:0:
464,320,313447,1,0,0:0:0:0:
474,318,313535,5,4,0:0:0:0:
445,312,313623,1,0,0:0:0:0:
417,310,313711,1,0,0:0:0:0:
389,312,313799,1,0,0:0:0:0:
361,318,313887,1,8,0:0:0:0:
334,327,313976,1,0,0:0:0:0:
308,340,314064,1,0,0:0:0:0:
285,356,314152,1,0,0:0:0:0:
267,379,314241,5,0,0:0:0:0:
302,375,314329,1,0,0:0:0:0:
335,362,314417,1,0,0:0:0:0:
363,340,314505,1,0,0:0:0:0:
384,312,314594,1,8,0:0:0:0:
397,278,314682,1,0,0:0:0:0:
399,243,314770,1,0,0:0:0:0:
392,208,314858,1,0,0:0:0:0:
378,180,314947,6,0,P|359:150|332:130,3,50,4|0|0|0,0:0|0:0|0:0|0:0,0:0:0:0:
192,269,315300,2,0,P|232:285|283:284,1,50,10|0,0:0|0:0,0:0:0:0:
104,136,315477,2,0,P|136:127|165:132,5,50,2|0|0|0|0|0,0:0|0:0|0:0|0:0|0:0|0:0,0:0:0:0:
84,333,316006,1,10,0:0:0:0:
76,323,316094,1,0,0:0:0:0:
65,316,316182,1,0,0:0:0:0:
53,315,316270,1,0,0:0:0:0:
39,316,316359,5,4,0:0:0:0:
68,339,316447,1,0,0:0:0:0:
102,353,316535,1,0,0:0:0:0:
139,353,316623,1,0,0:0:0:0:
174,339,316711,1,8,0:0:0:0:
206,320,316800,1,0,0:0:0:0:
241,306,316888,1,0,0:0:0:0:
278,302,316976,1,0,0:0:0:0:
313,314,317065,5,0,0:0:0:0:
275,331,317153,1,0,0:0:0:0:
233,323,317241,1,0,0:0:0:0:
203,294,317329,1,0,0:0:0:0:
194,253,317417,1,8,0:0:0:0:
210,213,317506,1,0,0:0:0:0:
245,190,317594,1,0,0:0:0:0:
287,189,317682,1,0,0:0:0:0:
327,205,317771,5,4,0:0:0:0:
328,226,317859,1,0,0:0:0:0:
316,237,317947,1,0,0:0:0:0:
293,238,318035,1,0,0:0:0:0:
266,225,318123,1,8,0:0:0:0:
262,189,318212,1,8,0:0:0:0:
281,171,318300,1,8,0:0:0:0:
312,172,318388,1,8,0:0:0:0:
333,192,318477,5,0,0:0:0:0:
344,221,318565,1,0,0:0:0:0:
341,254,318653,1,0,0:0:0:0:
310,283,318741,1,0,0:0:0:0:
259,286,318830,1,8,0:0:0:0:
209,266,318918,1,8,0:0:0:0:
189,215,319006,1,8,0:0:0:0:
196,155,319094,1,8,0:0:0:0:
235,101,319183,5,4,0:2:0:0:
288,79,319271,1,0,0:0:0:0:
339,82,319359,1,0,0:0:0:0:
380,108,319447,1,0,0:0:0:0:
395,145,319535,1,8,0:0:0:0:
386,173,319624,1,0,0:0:0:0:
364,185,319712,1,0,0:0:0:0:
346,175,319800,1,0,0:0:0:0:
355,151,319889,5,0,0:0:0:0:
402,158,319977,1,0,0:0:0:0:
426,207,320065,1,0,0:0:0:0:
405,261,320153,1,0,0:0:0:0:
364,287,320241,1,8,0:0:0:0:
310,282,320330,1,0,0:0:0:0:
255,269,320418,1,0,0:0:0:0:
198,281,320506,1,0,0:0:0:0:
161,323,320594,6,0,P|157:349|161:379,3,50,4|0|0|0,0:0|0:0|0:0|0:0,0:0:0:0:
89,193,320947,2,0,P|60:223|46:253,1,50,10|0,0:0|0:0,0:0:0:0:
188,54,321124,2,0,P|148:51|110:57,5,50,2|0|0|0|0|0,0:0|0:0|0:0|0:0|0:0|0:0,0:0:0:0:
315,123,321653,1,10,0:0:0:0:
326,127,321741,1,0,0:0:0:0:
338,128,321829,1,0,0:0:0:0:
351,126,321917,1,0,0:0:0:0:
363,119,322006,5,4,0:0:0:0:
327,123,322094,1,0,0:0:0:0:
295,137,322182,1,0,0:0:0:0:
268,160,322270,1,0,0:0:0:0:
249,190,322358,1,8,0:0:0:0:
239,225,322447,1,0,0:0:0:0:
240,260,322535,2,0,P|245:295|263:332,1,50,0|0,0:0|0:0,0:0:0:0:
100,258,322712,5,0,0:0:0:0:
69,271,322800,1,0,0:0:0:0:
44,294,322888,1,0,0:0:0:0:
30,324,322976,1,0,0:0:0:0:
29,356,323065,5,8,0:0:0:0:
77,342,323153,1,0,0:0:0:0:
118,315,323241,1,0,0:0:0:0:
148,276,323329,1,0,0:0:0:0:
164,229,323417,2,0,P|161:199|143:156,1,50,4|0,0:0|0:0,0:0:0:0:
72,55,323594,5,0,0:0:0:0:
107,76,323683,1,0,0:0:0:0:
149,86,323771,2,0,P|183:89|236:72,1,50,8|0,0:0|0:0,0:0:0:0:
443,60,323947,5,0,0:0:0:0:
411,59,324036,1,0,0:0:0:0:
380,68,324124,2,0,P|356:78|328:109,1,50,4|0,0:0|0:0,0:0:0:0:
164,229,324300,5,0,0:0:0:0:
179,228,324389,1,0,0:0:0:0:
195,224,324477,2,0,P|206:217|237:180,1,50,8|0,0:0|0:0,0:0:0:0:
369,275,324653,5,0,0:0:0:0:
359,284,324741,1,0,0:0:0:0:
355,296,324830,5,4,0:0:0:0:
358,267,324918,1,0,0:0:0:0:
357,239,325006,1,0,0:0:0:0:
349,211,325094,1,0,0:0:0:0:
336,186,325182,1,8,0:0:0:0:
318,164,325271,1,0,0:0:0:0:
295,146,325359,1,0,0:0:0:0:
270,133,325447,1,0,0:0:0:0:
244,127,325535,5,0,0:0:0:0:
269,152,325623,1,0,0:0:0:0:
298,171,325711,1,0,0:0:0:0:
331,185,325799,1,0,0:0:0:0:
366,192,325887,1,8,0:0:0:0:
402,192,325976,1,0,0:0:0:0:
437,186,326064,1,0,0:0:0:0:
470,172,326152,1,0,0:0:0:0:
494,145,326241,6,0,P|505:119|506:72,3,50,4|0|0|0,0:0|0:0|0:0|0:0,0:0:0:0:
416,320,326594,2,8,P|445:321|477:309,1,50,10|0,0:0|0:0,0:0:0:0:
234,282,326771,1,2,0:0:0:0:
183,291,326859,1,0,0:0:0:0:
143,322,326947,5,0,0:0:0:0:
185,317,327035,1,0,0:0:0:0:
222,296,327123,1,0,0:0:0:0:
248,263,327211,1,0,0:0:0:0:
257,221,327300,1,10,0:0:0:0:
208,215,327388,1,0,0:0:0:0:
159,225,327476,1,0,0:0:0:0:
116,251,327564,1,0,0:0:0:0:
84,289,327653,5,4,0:0:0:0:
134,287,327741,1,0,0:0:0:0:
181,271,327829,1,0,0:0:0:0:
223,244,327917,1,0,0:0:0:0:
255,206,328005,1,8,0:0:0:0:
277,161,328094,1,0,0:0:0:0:
285,112,328182,1,0,0:0:0:0:
280,62,328270,1,0,0:0:0:0:
252,26,328359,5,8,0:0:0:0:
241,82,328447,1,0,0:0:0:0:
245,138,328535,1,0,0:0:0:0:
264,192,328623,1,0,0:0:0:0:
295,240,328711,1,8,0:0:0:0:
337,278,328800,1,0,0:0:0:0:
387,305,328888,1,0,0:0:0:0:
443,318,328976,1,0,0:0:0:0:
498,308,329065,5,4,0:0:0:0:
495,287,329153,1,0,0:0:0:0:
480,272,329241,1,0,0:0:0:0:
459,271,329329,1,0,0:0:0:0:
442,283,329417,1,8,0:0:0:0:
437,304,329506,1,0,0:0:0:0:
446,322,329594,1,0,0:0:0:0:
465,331,329682,1,0,0:0:0:0:
487,327,329771,5,8,0:0:0:0:
433,314,329859,1,8,0:0:0:0:
378,325,329947,1,8,0:0:0:0:
324,349,330036,1,0,0:0:0:0:
264,361,330124,5,8,0:0:0:0:
198,352,330212,1,8,0:0:0:0:
142,310,330300,1,8,0:0:0:0:
136,241,330389,1,0,0:0:0:0:
184,189,330477,6,0,B|226:146|283:184|283:184|352:224|384:202|398:182|398:182|357:183|325:156,1,300,4|0,0:2|0:0,0:0:0:0:
