osu file format v14

[General]
AudioFilename: shbb.mp3
AudioLeadIn: 0
PreviewTime: 15372
Countdown: 0
SampleSet: Normal
StackLeniency: 0.6
Mode: 0
LetterboxInBreaks: 0
WidescreenStoryboard: 0

[Editor]
Bookmarks: 54845
DistanceSpacing: 1.4
BeatDivisor: 4
GridSize: 4
TimelineZoom: 1.5

[Metadata]
Title:Big Brother
TitleUnicode:Big Brother
Artist:KAKU P-MODEL
ArtistUnicode:核P-MODEL
Creator:Voli
Version:Voraigon Collab Advanced
Source:
Tags:susumu hirasawa diraimur arphimigon
BeatmapID:1021109
BeatmapSetID:472440

[Difficulty]
HPDrainRate:4
CircleSize:3.5
OverallDifficulty:6
ApproachRate:7
SliderMultiplier:1.4
SliderTickRate:1

[Events]
//Background and Video events
0,0,"bg.jpg",0,0
//Break Periods
2,82835,86787
//Storyboard Layer 0 (Background)
//Storyboard Layer 1 (Fail)
//Storyboard Layer 2 (Pass)
//Storyboard Layer 3 (Foreground)
//Storyboard Sound Samples

[TimingPoints]
530,315.789473684211,4,1,1,70,1,0
35898,-125,4,1,1,60,0,0
43477,-125,4,1,1,50,0,0
44740,-100,4,1,1,70,0,0
75056,-125,4,1,1,60,0,0
82635,-100,4,1,1,50,0,0
87056,-100,4,1,1,60,0,0
87687,-100,4,1,1,70,0,1
97793,-125,4,1,1,55,0,0
107898,-100,4,1,1,5,0,0

[Colours]
Combo1 : 160,163,224
Combo2 : 157,122,250
Combo3 : 164,164,164
Combo4 : 14,216,210

[HitObjects]
176,152,15687,6,0,B|176:232|176:232|224:296,1,140,2|8,0:0|0:0,0:0:0:0:
300,280,16161,2,0,B|336:232|336:232|336:152,1,140,2|0,0:0|0:0,0:0:0:0:
256,116,16635,1,8,0:0:0:0:
88,160,16951,2,0,L|88:232,1,70,2|0,0:0|0:0,0:0:0:0:
144,296,17266,2,0,P|169:264|173:225,1,70,10|0,0:0|0:0,0:0:0:0:
185,150,17582,2,0,P|122:168|88:232,1,140,2|8,0:0|0:0,0:0:0:0:
256,280,18214,6,0,B|296:280|296:280|328:256,1,70,2|0,0:0|0:0,0:0:0:0:
314,175,18530,2,0,B|274:175|274:175|242:199,1,70,10|2,0:0|0:0,0:0:0:0:
174,236,18845,2,0,P|166:172|215:114,1,140,2|10,0:0|0:0,0:0:0:0:
296,96,19319,1,2,0:0:0:0:
380,120,19477,2,0,B|416:168|416:168|416:248,1,140,2|10,0:0|0:0,0:0:0:0:
372,324,19951,1,0,0:0:0:0:
286,321,20108,2,0,B|250:273|250:273|250:193,1,140,8|4,0:3|0:3,0:0:0:0:
250,105,20582,1,0,0:0:0:0:
163,102,20740,6,0,P|188:166|250:193,1,140,6|10,0:0|0:0,0:0:0:0:
250,17,21372,2,0,P|312:44|337:107,1,140,2|10,0:0|0:0,0:0:0:0:
163,102,22003,2,0,B|155:67|155:67|165:29,2,70,2|2|10,0:0|0:0|0:0,0:0:0:0:
192,185,22477,1,2,0:0:0:0:
275,160,22635,2,0,P|247:118|163:102,1,140,2|8,0:0|0:0,0:0:0:0:
128,272,23266,6,0,B|185:312|185:312|256:312,1,140,2|10,0:0|0:0,0:0:0:0:
343,312,23740,1,2,0:0:0:0:
402,248,23898,2,0,B|442:191|442:191|442:120,1,140,2|10,0:0|0:0,0:0:0:0:
384,54,24372,1,2,0:0:0:0:
304,88,24530,2,0,B|316:116|344:132|344:132|332:168|332:168|332:216,1,140,2|10,0:0|0:0,0:0:0:0:
256,252,25003,1,2,0:0:0:0:
180,209,25161,2,0,B|180:168|180:168|168:132|168:132|196:116|208:88,1,140,2|8,0:0|0:0,0:0:0:0:
89,217,25793,6,0,P|129:286|195:300,1,140,6|8,0:0|0:0,0:0:0:0:
256,252,26266,1,2,0:0:0:0:
328,301,26424,2,0,P|392:278|422:216,1,140,2|8,0:0|0:0,0:0:0:0:
404,44,27056,2,0,B|344:72|344:72|344:116|319:140,1,140,2|10,0:0|0:0,0:0:0:0:
256,80,27530,1,2,0:0:0:0:
193,140,27687,2,0,B|168:116|168:72|168:72|108:44,1,140,2|8,0:0|0:0,0:0:0:0:
17,194,28319,6,0,P|18:234|33:266,1,70,2|2,0:0|0:0,0:0:0:0:
103,212,28635,2,0,P|102:172|87:140,1,70,10|2,0:0|0:0,0:0:0:0:
8,116,28951,2,0,B|25:48|25:48|89:15,1,140,2|10,0:0|0:0,0:0:0:0:
172,35,29424,1,2,0:0:0:0:
193,120,29582,2,0,P|253:146|319:120,1,140,2|10,0:0|0:0,0:0:0:0:
256,58,30056,1,2,0:0:0:0:
340,35,30214,2,0,P|392:73|398:157,1,140,8|4,0:3|0:3,0:0:0:0:
314,294,30845,6,0,B|271:319|223:311|223:311|228:340|218:362,1,140,6|10,0:0|0:0,0:0:0:0:
226,182,31477,2,0,B|269:157|317:165|317:165|312:136|322:114,1,140,2|10,0:0|0:0,0:0:0:0:
152,72,32108,2,0,B|136:104|136:104|136:144,1,70,2|2,0:0|0:0,0:0:0:0:
96,216,32424,2,0,B|76:186|76:186|41:166,1,70,10|0,0:0|0:0,0:0:0:0:
16,251,32740,2,0,P|75:301|149:286,1,140,2|8,0:0|0:0,0:0:0:0:
96,216,33214,1,2,0:0:0:0:
136,138,33372,6,0,B|198:106|198:106|272:106,1,140,2|10,0:0|0:0,0:0:0:0:
355,115,33845,1,2,0:0:0:0:
424,168,34003,2,0,B|424:240|424:240|392:266|389:309,1,140,2|10,0:0|0:0,0:0:0:0:
477,310,34477,1,2,0:0:0:0:
508,229,34635,2,0,B|508:141|508:141|472:93,1,140,2|10,0:0|0:0,0:0:0:0:
312,44,35266,2,0,B|280:53|256:84|256:84|232:53|200:44,1,140,2|8,0:0|0:0,0:0:0:0:
96,162,35898,6,0,L|102:244,2,56,4|0|8,0:3|0:0|0:0,0:0:0:0:
171,137,36372,1,4,0:3:0:0:
171,137,36530,2,0,L|179:253,1,112,4|8,0:3|0:0,0:0:0:0:
325,304,37161,2,0,P|384:289|438:310,2,112,4|8|4,0:3|0:0|0:3,0:0:0:0:
372,154,38108,2,0,L|380:90,1,56,8|4,0:0|0:3,0:0:0:0:
335,32,38424,6,0,P|359:21|395:20,2,56,6|6|6,0:3|0:3|0:3,0:0:0:0:
177,32,39056,2,0,P|153:21|117:20,2,56,6|6|6,0:3|0:3|0:3,0:0:0:0:
196,188,39687,2,0,B|228:233|228:233|256:223|283:233|283:233|315:188,1,168,2|2,0:0|0:0,0:0:0:0:
370,131,40319,2,0,P|391:164|394:186,1,56,2|2,0:0|0:0,0:0:0:0:
472,179,40635,2,0,P|480:153|497:131,1,56,10|2,0:0|0:0,0:0:0:0:
438,77,40951,6,0,P|374:44|315:64,1,112,2|10,0:0|0:0,0:0:0:0:
279,104,41424,1,2,0:0:0:0:
204,127,41582,2,0,B|148:146|148:146|79:130,1,112,2|10,0:0|0:0,0:0:0:0:
21,113,42056,1,2,0:0:0:0:
21,113,42214,2,0,L|30:53,2,56,6|6|6,0:3|0:3|0:3,0:0:0:0:
21,271,42845,2,0,L|30:331,2,56,6|6|6,0:3|0:3|0:3,0:0:0:0:
156,192,43477,6,0,B|208:216|208:216|208:160,1,112,0|0,0:0|0:0,0:0:0:0:
256,99,43951,1,0,0:0:0:0:
304,161,44108,2,0,B|304:216|304:216|356:192,1,112,0|0,0:0|0:0,0:0:0:0:
475,319,44740,6,0,L|402:319,1,70,4|0,0:3|0:0,0:0:0:0:
326,284,45056,2,0,L|256:284,1,70,8|2,0:0|0:0,0:0:0:0:
177,319,45372,2,0,L|37:319,1,140,2|8,0:0|0:0,0:0:0:0:
37,232,45845,1,2,0:0:0:0:
37,145,46003,2,0,L|177:145,1,140,2|8,0:0|0:0,0:0:0:0:
264,145,46477,1,2,0:0:0:0:
320,210,46635,2,0,P|349:158|315:74,1,140,2|8,0:0|0:0,0:0:0:0:
210,213,47266,6,0,L|210:304,1,70,2|0,0:0|0:0,0:0:0:0:
266,349,47582,2,0,L|336:349,1,70,8|2,0:0|0:0,0:0:0:0:
414,309,47898,2,0,L|414:155,1,140,2|10,0:0|0:0,0:0:0:0:
256,95,48530,6,0,B|237:96|222:104|222:104|207:98|190:94|190:94|152:111|121:100,1,140,0|10,0:0|0:0,0:0:0:0:
256,95,49161,2,0,B|274:96|289:104|289:104|304:98|321:94|321:94|359:111|390:100,1,140,8|4,0:3|0:3,0:0:0:0:
460,153,49635,1,4,0:3:0:0:
424,232,49793,6,0,P|420:271|427:306,1,70,12|0,0:3|0:0,0:0:0:0:
364,362,50108,2,0,P|325:358|290:365,1,70,8|2,0:0|0:0,0:0:0:0:
208,348,50424,2,0,P|216:282|200:201,1,140,2|8,0:0|0:0,0:0:0:0:
185,124,50898,1,2,0:0:0:0:
100,144,51056,2,0,P|166:152|247:136,1,140,2|8,0:0|0:0,0:0:0:0:
300,77,51530,1,2,0:0:0:0:
359,139,51687,2,0,P|427:151|496:143,1,140,2|8,0:0|0:0,0:0:0:0:
392,283,52319,6,0,L|320:259,1,70,2|0,0:0|0:0,0:0:0:0:
238,260,52635,2,0,L|171:282,1,70,8|2,0:0|0:0,0:0:0:0:
216,358,52951,2,0,B|283:338|283:338|353:360,1,140,2|10,0:0|0:0,0:0:0:0:
449,217,53582,6,0,B|449:199|455:185|455:185|443:170|443:170|455:152|455:152|442:141|442:141|452:122|446:76,1,140,0|10,0:0|0:0,0:0:0:0:
273,89,54214,2,0,B|273:107|267:121|267:121|279:136|279:136|267:154|267:154|280:165|280:165|270:184|276:230,1,140,8|4,0:3|0:3,0:0:0:0:
213,275,54687,1,4,0:3:0:0:
154,339,54845,6,0,P|127:283|158:209,1,140,12|8,0:3|0:0,0:0:0:0:
213,275,55319,1,2,0:0:0:0:
274,213,55477,2,0,P|301:269|270:343,1,140,2|8,0:0|0:0,0:0:0:0:
213,275,55951,1,2,0:0:0:0:
152,213,56108,2,0,L|169:46,1,140,2|10,0:0|0:0,0:0:0:0:
338,74,56740,2,0,L|360:213,1,140,2|8,0:0|0:0,0:0:0:0:
223,321,57372,6,0,P|141:337|80:326,1,140,2|10,0:0|0:0,0:0:0:0:
28,263,57845,1,2,0:0:0:0:
86,198,58003,2,0,P|100:142|88:59,1,140,2|10,0:0|0:0,0:0:0:0:
255,113,58635,2,0,L|397:100,2,140,2|10|2,0:0|0:0|0:0,0:0:0:0:
173,267,59582,2,0,L|173:358,1,70,10|2,0:0|0:0,0:0:0:0:
256,363,59898,6,0,L|256:221,2,140,6|10|2,0:0|0:0|0:0,0:0:0:0:
414,292,60845,2,0,P|422:233|417:206,1,70,10|2,0:0|0:0,0:0:0:0:
386,142,61161,2,0,L|311:131,1,70,2|2,0:0|0:0,0:0:0:0:
243,84,61477,2,0,L|168:95,1,70,10|0,0:0|0:0,0:0:0:0:
96,135,61793,2,0,B|107:203|107:203|88:271,1,140,2|8,0:0|0:0,0:0:0:0:
252,328,62424,6,0,B|231:258|269:266|247:184,1,140,2|10,0:0|0:0,0:0:0:0:
306,124,62898,1,2,0:0:0:0:
368,184,63056,2,0,B|389:254|351:246|373:328,1,140,2|10,0:0|0:0,0:0:0:0:
449,361,63530,1,2,0:0:0:0:
510,300,63687,2,0,L|509:157,1,140,2|8,0:0|0:0,0:0:0:0:
467,83,64161,1,2,0:0:0:0:
386,50,64319,2,0,L|243:51,1,140,2|8,0:0|0:0,0:0:0:0:
72,62,64951,6,0,L|82:201,1,140,6|8,0:0|0:0,0:0:0:0:
89,288,65424,1,2,0:0:0:0:
38,358,65582,2,0,B|105:374|105:374|164:335,1,140,2|8,0:0|0:0,0:0:0:0:
236,285,66056,1,2,0:0:0:0:
308,332,66214,2,0,B|367:371|367:371|434:355,1,140,2|10,0:0|0:0,0:0:0:0:
461,183,66845,2,0,B|402:144|402:144|335:160,1,140,2|8,0:0|0:0,0:0:0:0:
178,237,67477,6,0,L|84:233,1,70,2|2,0:0|0:0,0:0:0:0:
70,155,67793,2,0,L|74:61,1,70,10|2,0:0|0:0,0:0:0:0:
142,32,68108,2,0,P|202:51|279:22,1,140,2|10,0:0|0:0,0:0:0:0:
358,8,68582,1,2,0:0:0:0:
433,50,68740,2,0,L|429:201,2,140,2|10|2,0:0|0:0|0:0,0:0:0:0:
347,201,69687,6,0,P|356:234|380:259,1,70,10|2,0:0|0:0,0:0:0:0:
465,271,70003,2,0,P|431:329|365:346,1,140,6|10,0:0|0:0,0:0:0:0:
190,345,70635,2,0,P|123:328|89:269,1,140,2|10,0:0|0:0,0:0:0:0:
119,98,71266,2,0,L|216:90,1,70,2|2,0:0|0:0,0:0:0:0:
233,167,71582,2,0,L|93:177,2,140,10|2|8,0:0|0:0|0:0,0:0:0:0:
297,107,72372,1,2,0:0:0:0:
373,147,72530,6,0,P|365:212|386:291,1,140,2|10,0:0|0:0,0:0:0:0:
391,370,73003,1,2,0:0:0:0:
308,343,73161,2,0,P|263:295|189:260,1,140,2|10,0:0|0:0,0:0:0:0:
111,247,73635,1,2,0:0:0:0:
25,262,73793,2,0,L|35:115,1,140,2|10,0:0|0:0,0:0:0:0:
94,59,74266,1,2,0:0:0:0:
177,33,74424,2,0,P|235:43|318:32,1,140,2|8,0:0|0:0,0:0:0:0:
409,158,75056,6,0,L|409:234,2,56,4|0|8,0:3|0:0|0:0,0:0:0:0:
334,132,75530,1,4,0:3:0:0:
334,132,75687,2,0,L|334:245,1,112,4|8,0:3|0:0,0:0:0:0:
180,278,76319,2,0,B|134:265|134:265|106:281|106:281|50:265,1,112,4|8,0:3|0:0,0:0:0:0:
75,111,76951,2,0,B|106:103|106:103|134:119|134:119|180:106,1,112,4|8,0:3|0:0,0:0:0:0:
336,108,77582,6,0,L|359:54,2,56,6|6|6,0:3|3:0|0:3,0:0:0:0:
336,276,78214,2,0,L|359:330,2,56,6|6|6,0:3|0:3|0:3,0:0:0:0:
204,192,78845,2,0,B|148:172|136:208|80:184,1,112,2|10,0:0|0:0,0:0:0:0:
119,114,79319,1,2,0:0:0:0:
194,92,79477,2,0,L|252:76,1,56,2|2,0:0|0:0,0:0:0:0:
279,149,79793,2,0,L|332:163,1,56,10|2,0:0|0:0,0:0:0:0:
395,211,80108,6,0,P|415:275|386:330,1,112,2|10,0:0|0:0,0:0:0:0:
336,266,80582,1,2,0:0:0:0:
336,266,80740,2,0,B|283:284|283:284|222:267,1,112,2|10,0:0|0:0,0:0:0:0:
154,242,81214,1,4,0:3:0:0:
154,242,81372,2,0,P|151:284|158:303,2,56,6|6|6,0:3|0:3|0:3,0:0:0:0:
278,145,82003,2,0,P|283:117|279:90,2,56,6|6|6,0:3|0:3|0:3,0:0:0:0:
379,265,82635,5,0,0:0:0:0:
307,181,87687,6,0,B|369:196|369:196|455:179,2,140,6|10|8,0:0|0:0|0:3,0:0:0:0:
256,110,88477,1,8,0:3:0:0:
179,151,88635,2,0,L|101:195,1,70,4|2,0:3|0:0,0:0:0:0:
53,244,88951,2,0,P|109:218|185:250,1,140,2|8,0:0|0:0,0:0:0:0:
117,305,89424,1,2,0:0:0:0:
201,324,89582,2,0,B|250:334|250:334|279:323|279:323|338:335,1,140,2|8,0:0|0:0,0:0:0:0:
432,192,90214,6,0,L|461:120,2,70,2|2|10,0:0|0:0|0:0,0:0:0:0:
367,134,90687,1,2,0:0:0:0:
367,134,90845,2,0,P|310:113|230:137,1,140,8|4,0:3|0:3,0:0:0:0:
178,199,91319,1,0,0:0:0:0:
117,136,91477,2,0,P|90:197|129:272,1,140,2|10,0:0|0:0,0:0:0:0:
275,330,92108,2,0,L|435:306,1,140,8|10,0:0|0:0,0:0:0:0:
450,139,92740,6,0,B|435:96|435:96|469:57|441:2,2,140,6|10|8,0:0|0:0|0:3,0:0:0:0:
476,222,93530,1,8,0:3:0:0:
404,270,93687,2,0,P|366:277|324:264,1,70,4|2,0:3|0:0,0:0:0:0:
305,188,94003,2,0,P|302:257|248:300,1,140,2|8,0:0|0:0,0:0:0:0:
223,216,94477,1,2,0:0:0:0:
146,174,94635,2,0,B|132:105|132:105|146:32,1,140,2|8,0:0|0:0,0:0:0:0:
302,111,95266,6,0,P|340:118|375:109,2,70,2|2|10,0:0|0:0|0:0,0:0:0:0:
334,29,95740,1,2,0:0:0:0:
334,29,95898,2,0,P|399:31|453:90,1,140,8|4,0:3|0:3,0:0:0:0:
450,168,96372,1,0,0:0:0:0:
388,229,96530,2,0,L|378:316,1,70,2|0,0:0|0:0,0:0:0:0:
297,271,96845,2,0,L|226:218,1,70,10|0,0:0|0:0,0:0:0:0:
304,169,97161,2,0,L|384:134,1,70,8|8,0:0|0:0,0:0:0:0:
450,168,97477,1,8,0:0:0:0:
352,44,97793,6,0,B|302:21|302:21|279:40|279:40|256:24|256:24|233:40|233:40|211:21|211:21|161:44,1,224,4|4,0:3|0:3,0:0:0:0:
28,124,98740,1,8,0:0:0:0:
67,192,98898,1,4,0:3:0:0:
67,192,99056,2,0,P|76:257|65:313,1,112,4|8,0:3|0:0,0:0:0:0:
134,345,99530,1,4,0:3:0:0:
134,345,99688,2,0,P|199:336|255:347,1,112,4|8,0:3|0:0,0:0:0:0:
315,311,100161,1,4,0:3:0:0:
315,311,100319,6,0,L|303:240,1,56,4|0,0:3|0:0,0:0:0:0:
228,238,100635,2,0,L|240:167,1,56,8|4,0:0|0:3,0:0:0:0:
254,105,100951,2,0,P|277:67|346:62,1,112,4|8,0:3|0:0,0:0:0:0:
475,137,101582,2,0,P|452:175|383:180,1,112,4|0,0:3|0:0,0:0:0:0:
237,225,102214,2,0,B|248:266|236:307|236:307|264:335|320:322,1,168,4|4,0:3|0:3,0:0:0:0:
380,280,102845,6,0,P|411:275|439:280,1,56,4|0,0:3|0:0,0:0:0:0:
484,217,103161,2,0,P|487:189|482:161,1,56,8|4,0:0|0:3,0:0:0:0:
434,99,103477,2,0,P|390:115|325:98,1,112,4|8,0:3|0:0,0:0:0:0:
256,68,103951,1,4,0:3:0:0:
256,68,104108,2,0,P|252:120|296:172,1,112,4|8,0:3|0:0,0:0:0:0:
347,216,104582,1,4,0:3:0:0:
347,216,104740,2,0,L|335:333,1,112,4|8,0:3|0:0,0:0:0:0:
264,292,105214,1,4,0:3:0:0:
264,292,105372,6,0,L|269:236,2,56,4|0|8,0:3|0:0|0:0,0:0:0:0:
188,154,106003,2,0,P|247:120|309:131,1,112,4|8,0:3|0:0,0:0:0:0:
256,192,106635,12,0,107898,0:0:0:0:
