osu file format v14

[General]
AudioFilename: shbb.mp3
AudioLeadIn: 0
PreviewTime: 15372
Countdown: 0
SampleSet: Normal
StackLeniency: 0.6
Mode: 0
LetterboxInBreaks: 0
WidescreenStoryboard: 0

[Editor]
Bookmarks: 15687,106003,152740,153372
DistanceSpacing: 1.1
BeatDivisor: 4
GridSize: 4
TimelineZoom: 1.5

[Metadata]
Title:Big Brother
TitleUnicode:Big Brother
Artist:KAKU P-MODEL
ArtistUnicode:核P-MODEL
Creator:Voli
Version:Hard
Source:
Tags:susumu hirasawa diraimur arphimigon
BeatmapID:1010448
BeatmapSetID:472440

[Difficulty]
HPDrainRate:5
CircleSize:3.8
OverallDifficulty:7
ApproachRate:8.3
SliderMultiplier:1.8
SliderTickRate:1

[Events]
//Background and Video events
0,0,"bg.jpg",0,0
//Break Periods
//Storyboard Layer 0 (Background)
//Storyboard Layer 1 (Fail)
//Storyboard Layer 2 (Pass)
//Storyboard Layer 3 (Foreground)
//Storyboard Sound Samples

[TimingPoints]
530,315.789473684211,4,1,1,70,1,0
35898,-133.333333333333,4,1,1,60,0,0
43477,-133.333333333333,4,1,1,50,0,0
44740,-100,4,1,1,70,0,0
75056,-133.333333333333,4,1,1,60,0,0
82635,-133.333333333333,4,1,1,50,0,0
87056,-133.333333333333,4,1,1,60,0,0
87687,-100,4,1,1,70,0,1
97793,-133.333333333333,4,1,1,55,0,0
107898,-133.333333333333,4,1,1,5,0,0

[Colours]
Combo1 : 160,163,224
Combo2 : 157,122,250
Combo3 : 164,164,164
Combo4 : 14,216,210

[HitObjects]
13,175,15687,6,0,P|77:143|185:183,1,180,2|8,0:0|0:0,0:0:0:0:
217,251,16161,1,2,0:0:0:0:
294,296,16319,2,0,P|305:237|290:200,1,90,2|0,0:0|0:0,0:0:0:0:
250,131,16635,2,0,P|239:72|254:35,1,90,8|2,0:0|0:0,0:0:0:0:
393,89,16951,6,0,B|422:140|422:140|415:200|415:200|449:257,1,180,2|10,0:0|0:0,0:0:0:0:
436,341,17424,1,0,0:0:0:0:
446,252,17582,2,0,P|385:265|360:291,1,90,2|0,0:0|0:0,0:0:0:0:
302,347,17898,2,0,L|195:326,1,90,8|0,0:0|0:0,0:0:0:0:
130,205,18214,6,0,P|138:272|49:339,1,180,2|10,0:0|0:0,0:0:0:0:
51,248,18687,1,2,0:0:0:0:
58,158,18845,2,0,P|101:124|150:123,1,90,2|0,0:0|0:0,0:0:0:0:
211,168,19161,2,0,L|222:78,1,90,10|2,0:0|0:0,0:0:0:0:
347,29,19477,6,0,P|339:96|428:163,1,180,2|10,0:0|0:0,0:0:0:0:
426,72,19950,1,0,0:0:0:0:
490,134,20108,2,0,P|490:189|465:222,1,90,8|8,0:3|0:3,0:0:0:0:
394,264,20424,2,0,P|394:319|419:352,1,90,4|0,0:3|0:0,0:0:0:0:
276,315,20740,6,0,B|253:281|253:281|231:325|209:325|187:281|187:281|165:315,1,180,6|10,0:0|0:0,0:0:0:0:
106,242,21214,1,0,0:0:0:0:
162,171,21372,2,0,B|184:204|184:204|205:160|228:160|250:204|250:204|272:171,1,180,2|10,0:0|0:0,0:0:0:0:
328,242,21845,1,2,0:0:0:0:
453,179,22003,6,0,P|486:130|489:97,1,90,2|2,0:0|0:0,0:0:0:0:
397,105,22319,2,0,L|374:12,1,90,10|2,0:0|0:0,0:0:0:0:
283,70,22635,2,0,B|307:161|307:161|342:206|324:253,1,180,2|8,0:0|0:0,0:0:0:0:
239,222,23108,1,0,0:0:0:0:
367,305,23266,6,0,P|311:314|280:298,1,90,2|0,0:0|0:0,0:0:0:0:
152,228,23582,2,0,B|201:237|201:237|238:221,1,90,10|2,0:0|0:0,0:0:0:0:
92,158,23898,2,0,P|63:204|111:310,1,180,2|10,0:0|0:0,0:0:0:0:
152,228,24372,1,2,0:0:0:0:
174,140,24530,6,0,P|141:91|19:114,1,180,2|10,0:0|0:0,0:0:0:0:
92,158,25003,1,2,0:0:0:0:
152,228,25161,2,0,B|220:236|220:236|261:215|261:215|353:225,1,180,2|8,0:0|0:0,0:0:0:0:
454,25,25793,6,0,P|440:115|463:204,1,180,6|8,0:0|0:0,0:0:0:0:
425,282,26266,1,2,0:0:0:0:
461,200,26424,2,0,P|377:206|337:292,1,180,2|8,0:0|0:0,0:0:0:0:
256,336,26898,1,2,0:0:0:0:
154,227,27056,6,0,L|133:128,1,90,2|0,0:0|0:0,0:0:0:0:
242,64,27372,2,0,L|224:153,1,90,10|2,0:0|0:0,0:0:0:0:
135,138,27687,2,0,L|116:49,1,90,2|0,0:0|0:0,0:0:0:0:
49,111,28003,1,8,0:0:0:0:
129,311,28319,6,0,P|172:317|210:294,1,90,2|2,0:0|0:0,0:0:0:0:
301,294,28635,2,0,P|338:316|382:310,1,90,10|2,0:0|0:0,0:0:0:0:
443,242,28951,2,0,B|428:150|428:150|460:108|446:61,1,180,2|10,0:0|0:0,0:0:0:0:
360,88,29424,1,2,0:0:0:0:
342,192,29582,6,0,B|254:229|254:167|167:192,1,180,2|10,0:0|0:0,0:0:0:0:
207,273,30056,1,2,0:0:0:0:
116,246,30214,2,0,P|92:198|104:153,1,90,8|8,0:3|0:3,0:0:0:0:
172,104,30530,2,0,L|162:9,1,90,4|0,0:3|0:0,0:0:0:0:
291,128,30845,6,0,B|330:143|341:194|341:194|349:143|399:126,1,180,6|10,0:0|0:0,0:0:0:0:
423,204,31319,1,0,0:0:0:0:
489,277,31477,2,0,P|496:335|423:288,1,180,2|10,0:0|0:0,0:0:0:0:
423,204,31951,1,2,0:0:0:0:
326,292,32108,6,0,P|277:304|226:282,1,90,2|2,0:0|0:0,0:0:0:0:
188,218,32424,2,0,B|149:250|152:298|152:298|103:297|69:255,2,180,10|2|8,0:0|0:0|0:0,0:0:0:0:
283,220,33214,1,2,0:0:0:0:
168,130,33372,6,0,L|189:226,1,90,2|0,0:0|0:0,0:0:0:0:
227,79,33687,2,0,P|184:54|139:58,1,90,10|2,0:0|0:0,0:0:0:0:
262,146,34003,2,0,B|315:113|297:50|297:50|329:58|383:50,1,180,2|10,0:0|0:0,0:0:0:0:
454,34,34477,1,2,0:0:0:0:
425,167,34635,6,0,B|415:232|415:232|440:277|440:277|428:351,1,180,2|10,0:0|0:0,0:0:0:0:
353,291,35108,1,0,0:0:0:0:
271,329,35266,2,0,P|229:317|183:331,1,90,2|0,0:0|0:0,0:0:0:0:
140,250,35582,2,0,L|19:232,1,90,8|8,0:0|0:3,0:0:0:0:
64,128,35898,5,4,0:3:0:0:
128,48,36056,1,0,0:0:0:0:
192,128,36214,2,0,B|224:138|224:138|256:128,1,67.5000025749208,8|4,0:0|0:3,0:0:0:0:
317,51,36530,2,0,P|349:100|323:197,1,135.000005149842,4|8,0:3|0:0,0:0:0:0:
269,242,37003,1,4,0:3:0:0:
364,321,37161,6,0,L|442:337,1,67.5000025749208,4|0,0:3|0:0,0:0:0:0:
494,218,37477,2,0,L|416:234,1,67.5000025749208,8|4,0:0|0:3,0:0:0:0:
450,118,37793,2,0,P|455:68|431:30,1,67.5000025749208,4|0,0:3|0:0,0:0:0:0:
330,52,38108,2,0,P|322:85|330:118,1,67.5000025749208,8|4,0:0|0:3,0:0:0:0:
320,272,38424,5,6,0:3:0:0:
256,192,38582,1,6,0:3:0:0:
192,272,38740,2,0,P|168:244|157:208,1,67.5000025749208,6|0,0:3|0:0,0:0:0:0:
32,128,39056,5,6,0:3:0:0:
96,48,39214,1,6,0:3:0:0:
160,128,39372,2,0,P|184:100|195:64,1,67.5000025749208,6|0,0:3|0:0,0:0:0:0:
304,32,39687,5,2,0:0:0:0:
336,112,39845,1,2,0:0:0:0:
304,192,40003,1,10,0:0:0:0:
272,272,40161,1,2,0:0:0:0:
304,352,40319,2,0,L|383:331,1,67.5000025749208,2|2,0:0|0:0,0:0:0:0:
272,272,40635,2,0,L|193:251,1,67.5000025749208,10|2,0:0|0:0,0:0:0:0:
110,165,40951,6,0,P|123:214|94:293,1,135.000005149842,2|10,0:0|0:0,0:0:0:0:
20,220,41424,1,2,0:0:0:0:
53,107,41582,2,0,P|94:85|186:134,1,135.000005149842,2|10,0:0|0:0,0:0:0:0:
206,206,42056,1,2,0:0:0:0:
304,112,42214,5,6,0:3:0:0:
368,192,42372,1,6,0:3:0:0:
432,112,42530,2,0,P|464:160|466:191,1,67.5000025749208,6|0,0:3|0:0,0:0:0:0:
432,272,42845,5,6,0:3:0:0:
368,192,43003,1,6,0:3:0:0:
303,272,43161,2,0,P|280:247|269:215,1,67.5000025749208,6|0,0:3|0:0,0:0:0:0:
304,112,43477,5,0,0:0:0:0:
224,48,43635,2,0,L|176:32,2,33.7500012874604,0|0|0,0:0|0:0|0:0,0:0:0:0:
160,112,43951,2,0,L|112:128,2,33.7500012874604,0|0|0,0:0|0:0|0:0,0:0:0:0:
96,48,44266,2,0,L|48:32,2,33.7500012874604,0|0|0,0:0|0:0|0:0,0:0:0:0:
48,128,44582,1,0,0:0:0:0:
142,244,44740,6,0,P|215:280|305:235,1,180,4|8,0:3|0:0,0:0:0:0:
221,183,45214,1,2,0:0:0:0:
310,170,45372,2,0,P|356:193|373:234,1,90,2|0,0:0|0:0,0:0:0:0:
447,176,45687,2,0,L|474:82,1,90,8|2,0:0|0:0,0:0:0:0:
380,1,46003,6,0,B|357:79|357:79|304:56|245:89,1,180,2|8,0:0|0:0,0:0:0:0:
310,170,46477,1,2,0:0:0:0:
304,259,46635,2,0,B|302:288|313:316|313:316|297:354,1,90,2|0,0:0|0:0,0:0:0:0:
211,345,46951,2,0,B|199:316|199:316|209:288|208:259,1,90,8|2,0:0|0:0,0:0:0:0:
165,117,47266,6,0,P|150:200|64:232,1,180,2|8,0:0|0:0,0:0:0:0:
80,143,47740,1,2,0:0:0:0:
110,58,47898,2,0,P|160:38|205:48,1,90,2|0,0:0|0:0,0:0:0:0:
263,102,48214,6,0,B|291:102|291:102|303:106|303:106|307:98|307:98|319:102|319:102|355:102,1,90,10|2,0:0|0:0,0:0:0:0:
448,28,48530,5,0,0:0:0:0:
474,113,48687,2,0,L|493:172,2,45,2|2|10,0:0|0:0|0:0,0:0:0:0:
409,177,49003,2,0,L|390:236,2,45,2|2|8,0:0|0:0|0:3,0:0:0:0:
473,241,49319,2,0,L|492:300,2,45,8|8|4,0:3|0:3|0:3,0:0:0:0:
393,306,49635,1,4,0:3:0:0:
269,324,49793,6,0,P|197:284|223:193,1,180,12|8,0:3|0:0,0:0:0:0:
302,177,50266,1,2,0:0:0:0:
268,88,50424,2,0,B|183:70|183:70|86:90,1,180,2|8,0:0|0:0,0:0:0:0:
15,138,50898,1,2,0:0:0:0:
92,265,51056,6,0,B|110:180|110:180|90:83,1,180,2|8,0:0|0:0,0:0:0:0:
181,71,51530,1,2,0:0:0:0:
238,139,51687,2,0,B|320:164|320:164|359:127|410:141,1,180,2|8,0:0|0:0,0:0:0:0:
384,228,52161,1,2,0:0:0:0:
238,139,52319,6,0,B|201:227|263:227|238:314,1,180,2|8,0:0|0:0,0:0:0:0:
156,273,52793,1,2,0:0:0:0:
75,312,52951,2,0,B|65:270|65:270|78:212,1,90,2|0,0:0|0:0,0:0:0:0:
55,136,53266,6,0,B|55:108|55:108|59:96|59:96|51:92|51:92|55:80|55:80|55:52,1,90,10|2,0:0|0:0,0:0:0:0:
205,48,53582,5,0,0:0:0:0:
289,22,53740,2,0,L|347:2,2,45,2|2|0,0:0|0:0|0:0,0:0:0:0:
353,87,54056,2,0,L|411:106,2,45,2|2|0,0:0|0:0|0:0,0:0:0:0:
417,23,54372,2,0,L|475:3,2,45,8|8|0,0:3|0:3|0:0,0:0:0:0:
482,103,54687,1,4,0:3:0:0:
456,234,54845,6,0,P|406:277|411:182,1,180,12|8,0:3|0:0,0:0:0:0:
380,106,55319,1,2,0:0:0:0:
297,139,55477,2,0,P|269:185|263:239,1,90,2|0,0:0|0:0,0:0:0:0:
218,299,55793,2,0,B|172:314|172:314|114:294,1,90,8|2,0:0|0:0,0:0:0:0:
35,197,56108,6,0,P|53:146|39:22,1,180,2|10,0:0|0:0,0:0:0:0:
129,27,56582,1,0,0:0:0:0:
202,79,56740,2,0,B|250:100|295:75,1,90,2|0,0:0|0:0,0:0:0:0:
369,36,57056,2,0,B|390:84|369:123,1,90,8|0,0:0|0:0,0:0:0:0:
357,280,57372,6,0,B|353:232|381:199|381:199|323:201|302:157,1,180,2|10,0:0|0:0,0:0:0:0:
256,242,57845,1,2,0:0:0:0:
208,159,58003,2,0,B|189:201|131:199|131:199|159:232|155:280,1,180,2|10,0:0|0:0,0:0:0:0:
256,242,58477,1,2,0:0:0:0:
143,123,58635,6,0,B|122:84|143:36,1,90,2|0,0:0|0:0,0:0:0:0:
233,36,58951,2,0,L|326:24,1,90,10|0,0:0|0:0,0:0:0:0:
305,113,59266,2,0,L|394:124,1,90,2|0,0:0|0:0,0:0:0:0:
463,180,59582,1,10,0:0:0:0:
479,92,59740,1,2,0:0:0:0:
379,202,59898,6,0,P|408:247|525:242,2,180,6|10|2,0:0|0:0|0:0,0:0:0:0:
463,180,60687,1,0,0:0:0:0:
430,260,60845,2,0,P|379:279|341:269,1,90,10|2,0:0|0:0,0:0:0:0:
249,185,61161,6,0,L|253:278,1,90,2|2,0:0|0:0,0:0:0:0:
154,319,61477,2,0,L|161:139,1,180,10|2,0:0|0:0,0:0:0:0:
226,76,61951,1,0,0:0:0:0:
160,139,62108,2,0,P|116:151|73:141,1,90,8|2,0:0|0:0,0:0:0:0:
226,76,62424,6,0,P|251:129|233:190,1,90,2|0,0:0|0:0,0:0:0:0:
357,258,62740,2,0,B|366:214|366:214|352:171,1,90,10|2,0:0|0:0,0:0:0:0:
300,314,63056,2,0,P|383:334|437:268,1,180,2|10,0:0|0:0,0:0:0:0:
440,177,63530,1,2,0:0:0:0:
497,62,63687,6,0,P|405:82|317:63,1,180,2|8,0:0|0:0,0:0:0:0:
256,128,64161,1,2,0:0:0:0:
192,64,64319,2,0,P|104:47|17:67,1,180,2|8,0:0|0:0,0:0:0:0:
256,128,64951,6,0,P|288:224|224:304,1,180,6|8,0:0|0:0,0:0:0:0:
188,205,65424,1,2,0:0:0:0:
251,287,65582,2,0,B|335:304|335:304|426:283,1,180,2|8,0:0|0:0,0:0:0:0:
472,205,66056,1,2,0:0:0:0:
413,50,66214,6,0,P|404:115|417:141,1,90,2|0,0:0|0:0,0:0:0:0:
313,210,66530,2,0,L|309:115,1,90,10|2,0:0|0:0,0:0:0:0:
241,61,66845,2,0,P|148:109|71:44,1,180,2|8,0:0|0:0,0:0:0:0:
159,19,67319,1,2,0:0:0:0:
38,23,67477,6,0,P|14:79|23:111,1,90,2|2,0:0|0:0,0:0:0:0:
74,177,67793,2,0,P|85:219|70:261,1,90,10|2,0:0|0:0,0:0:0:0:
146,308,68108,2,0,B|241:299|241:299|271:334|328:327,1,180,2|10,0:0|0:0,0:0:0:0:
304,244,68582,1,2,0:0:0:0:
462,181,68740,6,0,B|367:190|367:190|337:155|290:161,1,180,2|10,0:0|0:0,0:0:0:0:
304,244,69214,1,2,0:0:0:0:
225,200,69372,2,0,P|215:146|239:106,1,90,2|0,0:0|0:0,0:0:0:0:
304,66,69687,2,0,B|272:33|272:33|225:28,1,90,10|2,0:0|0:0,0:0:0:0:
86,27,70003,6,0,B|95:68|95:68|71:111|93:152|93:152|86:202,1,180,6|10,0:0|0:0,0:0:0:0:
157,112,70477,1,0,0:0:0:0:
228,202,70635,2,0,B|221:152|221:152|243:111|219:68|219:68|228:27,1,180,2|10,0:0|0:0,0:0:0:0:
157,112,71108,1,0,0:0:0:0:
304,66,71266,6,0,B|350:56|350:56|391:65,1,90,2|2,0:0|0:0,0:0:0:0:
467,114,71582,2,0,P|446:182|469:293,1,180,10|2,0:0|0:0,0:0:0:0:
392,339,72056,1,0,0:0:0:0:
327,276,72214,1,8,0:0:0:0:
262,339,72372,1,2,0:0:0:0:
154,232,72530,6,0,P|102:243|59:222,1,90,2|0,0:0|0:0,0:0:0:0:
194,149,72845,2,0,P|233:178|247:227,1,90,10|2,0:0|0:0,0:0:0:0:
113,156,73161,2,0,B|116:69|116:69|168:66|192:16,1,180,2|10,0:0|0:0,0:0:0:0:
256,80,73635,1,2,0:0:0:0:
322,20,73793,6,0,B|344:66|396:69|396:69|399:156,1,180,2|10,0:0|0:0,0:0:0:0:
401,245,74266,1,2,0:0:0:0:
384,333,74424,2,0,P|466:305|486:221,1,180,2|8,0:0|0:0,0:0:0:0:
256,192,75056,6,0,L|272:288,1,67.5000025749208,4|0,0:3|0:0,0:0:0:0:
160,208,75372,2,0,L|171:141,1,67.5000025749208,8|4,0:0|0:3,0:0:0:0:
82,194,75687,2,0,P|107:269|173:287,1,135.000005149842,4|8,0:3|0:0,0:0:0:0:
246,229,76161,1,4,0:3:0:0:
334,329,76319,6,0,B|330:293|330:293|339:253,1,67.5000025749208,4|0,0:3|0:0,0:0:0:0:
450,229,76635,2,0,B|454:193|454:193|447:162,1,67.5000025749208,8|4,0:0|0:3,0:0:0:0:
376,44,76951,2,0,P|338:37|292:48,1,67.5000025749208,4|0,0:3|0:0,0:0:0:0:
245,131,77266,2,0,P|211:134|178:128,1,67.5000025749208,8|4,0:0|0:3,0:0:0:0:
94,33,77582,5,6,0:3:0:0:
75,131,77740,1,6,3:0:0:0:
178,128,77898,2,0,P|172:164|152:196,1,67.5000025749208,6|0,0:3|0:0,0:0:0:0:
94,348,78214,5,6,0:3:0:0:
75,250,78372,1,6,0:3:0:0:
178,253,78530,2,0,P|172:216|152:184,1,67.5000025749208,6|0,0:3|0:0,0:0:0:0:
272,192,78845,6,0,L|352:192,1,67.5000025749208,2|2,0:0|0:0,0:0:0:0:
352,96,79161,2,0,L|419:96,1,67.5000025749208,10|2,0:0|0:0,0:0:0:0:
499,192,79477,2,0,L|432:192,1,67.5000025749208,2|2,0:0|0:0,0:0:0:0:
419,288,79793,2,0,L|352:288,1,67.5000025749208,10|2,0:0|0:0,0:0:0:0:
244,215,80108,6,0,P|261:278|241:342,1,135.000005149842,2|10,0:0|0:0,0:0:0:0:
158,276,80582,1,2,0:0:0:0:
72,342,80740,2,0,P|52:279|69:215,1,135.000005149842,2|10,0:0|0:0,0:0:0:0:
158,276,81214,1,4,0:3:0:0:
128,144,81372,5,6,0:3:0:0:
48,80,81530,1,6,0:3:0:0:
128,16,81687,2,0,L|208:32,1,67.5000025749208,6|0,0:3|0:0,0:0:0:0:
320,64,82003,5,6,0:3:0:0:
240,128,82161,1,6,0:3:0:0:
320,192,82319,2,0,L|386:178,1,67.5000025749208,6|0,0:3|0:0,0:0:0:0:
480,224,82635,6,0,P|496:288|464:352,2,135.000005149842,0|0|0,0:0|0:0|0:0,0:0:0:0:
256,64,83740,1,0,0:0:0:0:
256,64,83898,1,0,0:0:0:0:
256,320,84372,1,0,0:0:0:0:
256,320,84530,1,0,0:0:0:0:
34,192,85003,5,0,0:0:0:0:
34,192,85161,2,0,L|46:110,1,67.5000025749208,0|0,0:0|0:0,0:0:0:0:
135,128,85477,2,0,L|123:46,1,67.5000025749208,0|0,0:0|0:0,0:0:0:0:
210,17,85793,2,0,P|217:73|277:127,1,135.000005149842,0|0,0:0|0:0,0:0:0:0:
447,224,86424,2,0,P|377:221|307:267,1,135.000005149842,0|0,0:0|0:0,0:0:0:0:
300,39,87056,6,0,L|363:54,3,33.7500012874604,8|8|8|8,0:0|0:0|0:0|0:0,0:0:0:0:
375,80,87372,2,0,L|407:72,3,33.7500012874604,10|10|10|0,0:0|0:0|0:0|0:0,0:0:0:0:
442,136,87687,6,0,P|453:189|439:239,1,90,6|0,0:0|0:0,0:0:0:0:
275,183,88003,2,0,B|318:176|318:176|364:184,1,90,10|0,0:0|0:0,0:0:0:0:
194,223,88319,2,0,P|187:178|198:135,1,90,8|8,0:3|0:3,0:0:0:0:
255,65,88635,1,4,0:3:0:0:
255,65,88793,1,2,0:0:0:0:
84,58,88951,6,0,L|97:175,1,90,2|0,0:0|0:0,0:0:0:0:
73,235,89266,1,8,0:0:0:0:
73,235,89424,1,2,0:0:0:0:
208,312,89582,2,0,L|217:222,1,90,2|0,0:0|0:0,0:0:0:0:
197,135,89897,1,8,0:0:0:0:
197,135,90055,1,2,0:0:0:0:
323,44,90214,6,0,P|366:35|423:50,1,90,2|2,0:0|0:0,0:0:0:0:
454,134,90530,2,0,P|410:143|367:135,1,90,10|2,0:0|0:0,0:0:0:0:
317,239,90845,2,0,B|310:267|310:267|329:302|327:332,1,90,8|8,0:3|0:3,0:0:0:0:
184,325,91161,2,0,B|183:302|201:267|201:267|195:239,1,90,4|0,0:3|0:0,0:0:0:0:
116,71,91477,6,0,P|127:131|46:216,1,180,2|10,0:0|0:0,0:0:0:0:
28,116,91951,1,0,0:0:0:0:
116,71,92108,2,0,L|166:57,3,45,8|8|8|8,0:0|0:0|0:0|0:0,0:0:0:0:
205,96,92424,2,0,L|248:108,3,45,10|10|10|0,0:0|0:0|0:0|0:0,0:0:0:0:
303,72,92740,6,0,B|346:61|346:61|400:73,1,90,6|0,0:0|0:0,0:0:0:0:
496,192,93056,2,0,L|400:192,1,90,10|0,0:0|0:0,0:0:0:0:
303,312,93372,2,0,B|346:323|346:323|390:313,1,90,8|8,0:3|0:3,0:0:0:0:
474,280,93687,1,4,0:3:0:0:
474,280,93845,1,2,0:0:0:0:
322,234,94003,6,0,P|266:239|237:264,1,90,2|0,0:0|0:0,0:0:0:0:
211,344,94319,1,8,0:0:0:0:
211,344,94477,1,2,0:0:0:0:
131,213,94635,2,0,L|145:108,1,90,2|0,0:0|0:0,0:0:0:0:
204,56,94951,1,8,0:0:0:0:
204,56,95108,1,2,0:0:0:0:
360,48,95266,6,0,P|407:78|421:140,1,90,2|2,0:0|0:0,0:0:0:0:
432,208,95582,2,0,B|425:255|425:255|441:308,1,90,10|2,0:0|0:0,0:0:0:0:
320,352,95898,2,0,P|320:304|304:256,1,90,8|8,0:3|0:3,0:0:0:0:
204,264,96214,2,0,P|191:307|192:352,1,90,4|0,0:3|0:0,0:0:0:0:
96,224,96530,6,0,B|77:178|97:136|97:136|54:106|58:53,1,180,2|10,0:0|0:0,0:0:0:0:
148,60,97003,1,0,0:0:0:0:
232,28,97161,2,0,L|282:14,3,45,8|8|8|8,0:0|0:0|0:0|0:0,0:0:0:0:
321,53,97477,2,0,L|364:65,3,45,8|8|8|0,0:0|0:0|0:0|0:0,0:0:0:0:
396,105,97793,6,0,B|423:170|377:170|396:235,1,135.000005149842,4|0,0:3|0:0,0:0:0:0:
414,322,98266,1,4,0:3:0:0:
329,297,98424,2,0,B|262:284|262:284|185:302,1,135.000005149842,4|8,0:3|0:0,0:0:0:0:
116,263,98898,5,4,0:3:0:0:
116,263,99056,2,0,P|90:195|138:124,1,135.000005149842,4|8,0:3|0:0,0:0:0:0:
179,201,99530,1,4,0:3:0:0:
179,201,99687,2,0,P|204:133|156:62,1,135.000005149842,4|8,0:3|0:0,0:0:0:0:
124,9,100161,1,4,0:3:0:0:
211,10,100319,6,0,P|244:8|276:-1,1,67.5000025749208,4|0,0:3|0:0,0:0:0:0:
354,39,100635,2,0,P|386:49|419:50,1,67.5000025749208,8|4,0:0|0:3,0:0:0:0:
416,138,100951,2,0,B|420:177|443:202|443:202|419:234|422:290,1,135.000005149842,4|8,0:3|0:0,0:0:0:0:
436,348,101424,1,4,0:3:0:0:
353,316,101582,6,0,B|319:321|319:321|283:316,1,67.5000025749208,4|0,0:3|0:0,0:0:0:0:
240,240,101898,2,0,B|207:235|207:235|173:240,1,67.5000025749208,0|4,0:0|0:3,0:0:0:0:
137,321,102214,2,0,P|88:266|154:154,1,202.500007724762,4|4,0:3|0:3,0:0:0:0:
165,77,102845,6,0,P|193:94|213:122,1,67.5000025749208,4|0,0:3|0:0,0:0:0:0:
298,121,103161,2,0,P|318:94|347:77,1,67.5000025749208,8|4,0:0|0:3,0:0:0:0:
379,159,103477,2,0,B|377:237|377:237|393:276|370:316,1,135.000005149842,4|8,0:3|0:0,0:0:0:0:
294,271,103951,5,4,0:3:0:0:
294,271,104108,2,0,P|244:255|147:286,1,135.000005149842,4|8,0:3|0:0,0:0:0:0:
88,229,104582,1,4,0:3:0:0:
88,229,104740,2,0,P|104:179|73:82,1,135.000005149842,4|8,0:3|0:0,0:0:0:0:
150,39,105214,1,4,0:3:0:0:
224,85,105372,6,0,P|258:94|296:82,1,67.5000025749208,4|0,0:3|0:0,0:0:0:0:
316,169,105687,2,0,L|311:246,1,67.5000025749208,8|4,0:0|0:3,0:0:0:0:
399,233,106003,2,0,L|394:165,1,67.5000025749208,4|0,0:3|0:0,0:0:0:0:
482,169,106319,2,0,L|477:246,1,67.5000025749208,8|4,0:0|0:3,0:0:0:0:
438,315,106635,5,4,0:3:0:0:
256,336,106951,1,0,0:3:0:0:
256,192,107266,12,0,107898,0:0:0:0:
