osu file format v14

[General]
AudioFilename: audio.ogg
AudioLeadIn: 0
PreviewTime: 3575
Countdown: 0
SampleSet: Soft
StackLeniency: 0.7
Mode: 3
LetterboxInBreaks: 0
SpecialStyle: 0
WidescreenStoryboard: 1

[Editor]
Bookmarks: 3575,53123,80994,94930,95123,95317,95510,95704,95897,96091,96285,96478,121252,146026,151058,151832,157251,158026,158413,170800,198671,207961,223445,224026,224219,224993,225574,225768,226542,227122,227316,228090,228671,228864,229639,230219,230413,231187,231768,231961,232735,233316,233510,234284,234864,235058,235348,235542,235832,248219
DistanceSpacing: 1.5
BeatDivisor: 4
GridSize: 4
TimelineZoom: 1.2

[Metadata]
Title:TSUBOMI ni KAMINARI
TitleUnicode:蕾に雷
Artist:KAF x Hakushi Hasegawa
ArtistUnicode:花譜×長谷川白紙
Creator:Disguise
Version:snapshot lifespan
Source:
Tags:bossa nova electronic japanese vocal バーチャルシンガー vsinger 神椿スタジオ kamitsubaki studio 組曲 kumikyoku
BeatmapID:4279188
BeatmapSetID:2049474

[Difficulty]
HPDrainRate:9
CircleSize:4
OverallDifficulty:8
ApproachRate:5
SliderMultiplier:1.4
SliderTickRate:1

[Events]
//Background and Video events
0,0,"bg.jpg",0,0
//Break Periods
//Storyboard Layer 0 (Background)
//Storyboard Layer 1 (Fail)
//Storyboard Layer 2 (Pass)
//Storyboard Layer 3 (Foreground)
//Storyboard Layer 4 (Overlay)
//Storyboard Sound Samples

[TimingPoints]
2027,387.096774193548,4,2,1,35,1,0
15865,-100,4,2,1,35,0,1
15897,-100,4,2,1,35,0,0
53123,-100,4,2,1,35,0,1
80994,-100,4,2,1,35,0,0
96478,774.193548387097,4,2,1,35,1,0
96478,-50,4,2,1,35,0,1
120478,-50,4,2,1,35,0,0
121252,387.096774193548,4,2,1,35,1,0
158413,-100,4,2,1,35,0,1
198671,-100,4,2,1,35,0,0
213535,-100,4,2,1,35,0,1
218026,-100,4,2,1,35,0,0
219148,-100,4,2,1,35,0,1
219303,-100,4,2,1,35,0,0
220696,-100,4,2,1,35,0,1
220929,-100,4,2,1,35,0,0
221316,-100,4,2,1,35,0,1
221703,-100,4,2,1,35,0,0
223058,-100,4,2,1,35,0,1
223445,-100,4,2,1,35,0,0
224606,-100,4,2,1,35,0,1
224671,-100,4,2,1,35,0,0
226155,-100,4,2,1,35,0,1
226251,-100,4,2,1,35,0,0
227703,-100,4,2,1,35,0,1
227735,-100,4,2,1,35,0,0
229251,-100,4,2,1,35,0,1
229300,-100,4,2,1,35,0,0
230800,-100,4,2,1,35,0,1
230864,-100,4,2,1,35,0,0
232348,-100,4,2,1,35,0,1
232445,-100,4,2,1,35,0,0
233897,-100,4,2,1,35,0,1
233929,-100,4,2,1,35,0,0

[HitObjects]
320,192,2801,5,0,0:0:0:0:
192,192,2994,1,0,0:0:0:0:
448,192,3188,1,0,0:0:0:0:
448,192,3381,1,0,0:0:0:0:
64,192,3575,1,0,0:0:0:0:
448,192,3575,1,0,0:0:0:0:
320,192,3768,1,0,0:0:0:0:
320,192,3962,1,0,0:0:0:0:
64,192,4156,1,0,0:0:0:0:
192,192,4156,1,0,0:0:0:0:
64,192,4349,1,0,0:0:0:0:
192,192,4349,1,0,0:0:0:0:
320,192,4543,1,0,0:0:0:0:
320,192,4736,1,0,0:0:0:0:
64,192,4736,1,0,0:0:0:0:
192,192,4930,1,0,0:0:0:0:
192,192,5123,1,0,0:0:0:0:
448,192,5123,1,0,0:0:0:0:
320,192,5317,1,0,0:0:0:0:
320,192,5510,1,0,0:0:0:0:
64,192,5704,1,0,0:0:0:0:
192,192,5704,1,0,0:0:0:0:
64,192,5897,1,0,0:0:0:0:
192,192,5897,1,0,0:0:0:0:
320,192,6091,1,0,0:0:0:0:
320,192,6285,1,0,0:0:0:0:
64,192,6285,1,0,0:0:0:0:
192,192,6478,1,0,0:0:0:0:
192,192,6672,1,0,0:0:0:0:
448,192,6672,1,0,0:0:0:0:
320,192,6865,1,0,0:0:0:0:
320,192,7059,1,0,0:0:0:0:
64,192,7252,1,0,0:0:0:0:
192,192,7252,1,0,0:0:0:0:
64,192,7446,1,0,0:0:0:0:
192,192,7446,1,0,0:0:0:0:
320,192,7639,1,0,0:0:0:0:
192,192,7833,1,0,0:0:0:0:
320,192,7833,1,0,0:0:0:0:
320,192,8026,1,0,0:0:0:0:
192,192,8220,1,0,0:0:0:0:
448,192,8220,1,0,0:0:0:0:
320,192,8414,1,0,0:0:0:0:
320,192,8607,1,0,0:0:0:0:
64,192,8801,1,0,0:0:0:0:
192,192,8801,1,0,0:0:0:0:
64,192,8994,1,0,0:0:0:0:
192,192,8994,1,0,0:0:0:0:
320,192,9188,1,0,0:0:0:0:
192,192,9381,1,0,0:0:0:0:
320,192,9381,1,0,0:0:0:0:
320,192,9575,1,0,0:0:0:0:
64,192,9768,1,0,0:0:0:0:
448,192,9768,1,0,0:0:0:0:
320,192,9962,1,0,0:0:0:0:
320,192,10156,1,0,0:0:0:0:
64,192,10349,1,0,0:0:0:0:
192,192,10349,1,0,0:0:0:0:
64,192,10543,1,0,0:0:0:0:
192,192,10543,1,0,0:0:0:0:
320,192,10736,1,0,0:0:0:0:
320,192,10930,1,0,0:0:0:0:
64,192,10930,1,0,0:0:0:0:
192,192,11123,1,0,0:0:0:0:
192,192,11317,1,0,0:0:0:0:
448,192,11317,1,0,0:0:0:0:
320,192,11510,1,0,0:0:0:0:
320,192,11704,1,0,0:0:0:0:
64,192,11897,1,0,0:0:0:0:
192,192,11897,1,0,0:0:0:0:
64,192,12091,1,0,0:0:0:0:
192,192,12091,1,0,0:0:0:0:
320,192,12285,1,0,0:0:0:0:
320,192,12478,1,0,0:0:0:0:
64,192,12478,1,0,0:0:0:0:
192,192,12672,1,0,0:0:0:0:
192,192,12865,1,0,0:0:0:0:
448,192,12865,1,0,0:0:0:0:
320,192,13059,1,0,0:0:0:0:
320,192,13252,1,0,0:0:0:0:
64,192,13446,1,0,0:0:0:0:
192,192,13446,1,0,0:0:0:0:
64,192,13639,1,0,0:0:0:0:
192,192,13639,1,0,0:0:0:0:
320,192,13833,1,0,0:0:0:0:
192,192,14026,1,0,0:0:0:0:
320,192,14026,1,0,0:0:0:0:
320,192,14220,1,0,0:0:0:0:
192,192,14414,1,0,0:0:0:0:
448,192,14414,1,0,0:0:0:0:
320,192,14607,1,0,0:0:0:0:
320,192,14801,1,0,0:0:0:0:
64,192,14994,1,0,0:0:0:0:
192,192,14994,1,0,0:0:0:0:
64,192,15188,1,0,0:0:0:0:
192,192,15188,1,0,0:0:0:0:
320,192,15381,1,0,0:0:0:0:
448,192,15478,1,0,0:0:0:0:
192,192,15478,1,0,0:0:0:0:
320,192,15672,1,0,0:0:0:0:
64,192,15865,1,0,0:0:0:0:
192,192,15897,1,0,0:0:0:0:
64,192,15962,1,0,0:0:0:0:
320,192,16156,1,0,0:0:0:0:
320,192,16349,1,0,0:0:0:0:
64,192,16543,1,0,0:0:0:0:
192,192,16543,1,0,0:0:0:0:
64,192,16736,1,0,0:0:0:0:
192,192,16736,1,0,0:0:0:0:
320,192,16930,1,0,0:0:0:0:
320,192,17123,1,0,0:0:0:0:
64,192,17123,1,0,0:0:0:0:
192,192,17317,1,0,0:0:0:0:
320,192,17414,1,0,0:0:0:0:
192,192,17510,1,0,0:0:0:0:
448,192,17510,1,0,0:0:0:0:
320,192,17575,1,0,0:0:0:0:
192,192,17639,1,0,0:0:0:0:
320,192,17704,1,0,0:0:0:0:
64,192,17801,1,0,0:0:0:0:
320,192,17897,1,0,0:0:0:0:
192,192,17897,1,0,0:0:0:0:
448,192,17994,1,0,0:0:0:0:
320,192,17994,1,0,0:0:0:0:
64,192,18091,1,0,0:0:0:0:
192,192,18091,1,0,0:0:0:0:
448,192,18188,1,0,0:0:0:0:
64,192,18285,1,0,0:0:0:0:
192,192,18285,1,0,0:0:0:0:
448,192,18381,1,0,0:0:0:0:
320,192,18478,1,0,0:0:0:0:
64,192,18478,1,0,0:0:0:0:
192,192,18575,1,0,0:0:0:0:
320,192,18672,1,0,0:0:0:0:
64,192,18672,1,0,0:0:0:0:
320,192,18768,1,0,0:0:0:0:
448,192,18768,1,0,0:0:0:0:
64,192,18865,1,0,0:0:0:0:
192,192,18962,1,0,0:0:0:0:
192,192,19059,1,0,0:0:0:0:
448,192,19059,1,0,0:0:0:0:
320,192,19252,1,0,0:0:0:0:
320,192,19446,1,0,0:0:0:0:
64,192,19639,1,0,0:0:0:0:
192,192,19639,1,0,0:0:0:0:
64,192,19833,1,0,0:0:0:0:
192,192,19833,1,0,0:0:0:0:
448,192,19930,1,0,0:0:0:0:
320,192,19978,1,0,0:0:0:0:
64,192,20026,1,0,0:0:0:0:
320,192,20123,1,0,0:0:0:0:
192,192,20123,1,0,0:0:0:0:
192,192,20607,1,0,0:0:0:0:
448,192,20607,1,0,0:0:0:0:
320,192,20801,1,0,0:0:0:0:
320,192,20994,1,0,0:0:0:0:
64,192,21188,1,0,0:0:0:0:
192,192,21188,1,0,0:0:0:0:
64,192,21381,1,0,0:0:0:0:
192,192,21381,1,0,0:0:0:0:
320,192,21510,1,0,0:0:0:0:
320,192,21639,1,0,0:0:0:0:
192,192,21639,1,0,0:0:0:0:
320,192,21962,1,0,0:0:0:0:
448,192,21962,1,0,0:0:0:0:
64,192,22156,1,0,0:0:0:0:
448,192,22156,1,0,0:0:0:0:
320,192,22349,1,0,0:0:0:0:
320,192,22543,1,0,0:0:0:0:
64,192,22736,1,0,0:0:0:0:
192,192,22736,1,0,0:0:0:0:
64,192,22930,1,0,0:0:0:0:
192,192,22930,1,0,0:0:0:0:
320,192,23123,1,0,0:0:0:0:
320,192,23317,1,0,0:0:0:0:
64,192,23317,1,0,0:0:0:0:
192,192,23510,1,0,0:0:0:0:
192,192,23704,1,0,0:0:0:0:
448,192,23704,1,0,0:0:0:0:
320,192,23897,1,0,0:0:0:0:
320,192,24091,1,0,0:0:0:0:
64,192,24285,1,0,0:0:0:0:
192,192,24285,1,0,0:0:0:0:
64,192,24478,1,0,0:0:0:0:
192,192,24478,1,0,0:0:0:0:
320,192,24672,1,0,0:0:0:0:
320,192,24865,1,0,0:0:0:0:
64,192,24865,1,0,0:0:0:0:
192,192,25059,1,0,0:0:0:0:
192,192,25252,1,0,0:0:0:0:
448,192,25252,1,0,0:0:0:0:
320,192,25446,1,0,0:0:0:0:
192,192,25543,1,0,0:0:0:0:
320,192,25639,1,0,0:0:0:0:
448,192,25639,1,0,0:0:0:0:
64,192,25833,1,0,0:0:0:0:
192,192,25833,1,0,0:0:0:0:
64,192,26026,1,0,0:0:0:0:
192,192,26026,1,0,0:0:0:0:
320,192,26220,1,0,0:0:0:0:
64,192,26317,1,0,0:0:0:0:
192,192,26414,1,0,0:0:0:0:
320,192,26414,1,0,0:0:0:0:
448,192,26510,1,0,0:0:0:0:
320,192,26607,1,0,0:0:0:0:
64,192,26607,1,0,0:0:0:0:
192,192,26704,1,0,0:0:0:0:
192,192,26801,1,0,0:0:0:0:
448,192,26801,1,0,0:0:0:0:
320,192,26994,1,0,0:0:0:0:
320,192,27188,1,0,0:0:0:0:
64,192,27381,1,0,0:0:0:0:
192,192,27381,1,0,0:0:0:0:
64,192,27575,1,0,0:0:0:0:
192,192,27575,1,0,0:0:0:0:
320,192,27768,1,0,0:0:0:0:
64,192,27865,1,0,0:0:0:0:
448,192,27865,1,0,0:0:0:0:
192,192,27962,1,0,0:0:0:0:
320,192,27962,1,0,0:0:0:0:
64,192,28059,1,0,0:0:0:0:
448,192,28059,1,0,0:0:0:0:
320,192,28156,1,0,0:0:0:0:
448,192,28349,1,0,0:0:0:0:
192,192,28349,1,0,0:0:0:0:
320,192,28414,1,0,0:0:0:0:
64,192,28478,1,0,0:0:0:0:
192,192,28543,1,0,0:0:0:0:
64,192,28607,1,0,0:0:0:0:
448,192,28736,1,0,0:0:0:0:
320,192,28736,1,0,0:0:0:0:
192,192,28801,1,0,0:0:0:0:
64,192,28930,1,0,0:0:0:0:
320,192,28930,1,0,0:0:0:0:
64,192,29123,1,0,0:0:0:0:
448,192,29123,1,0,0:0:0:0:
320,192,29201,1,0,0:0:0:0:
448,192,29278,1,0,0:0:0:0:
192,192,29356,1,0,0:0:0:0:
64,192,29510,1,0,0:0:0:0:
320,192,29607,1,0,0:0:0:0:
192,192,29704,1,0,0:0:0:0:
448,192,29704,1,0,0:0:0:0:
192,192,29897,1,0,0:0:0:0:
320,192,29897,1,0,0:0:0:0:
64,192,29962,1,0,0:0:0:0:
320,192,30026,1,0,0:0:0:0:
64,192,30091,1,0,0:0:0:0:
64,192,30285,1,0,0:0:0:0:
448,192,30285,1,0,0:0:0:0:
320,192,30362,1,0,0:0:0:0:
192,192,30439,1,0,0:0:0:0:
320,192,30672,1,0,0:0:0:0:
448,192,30672,1,0,0:0:0:0:
64,192,30768,1,0,0:0:0:0:
320,192,30865,1,0,0:0:0:0:
64,192,30962,1,0,0:0:0:0:
192,192,31059,1,0,0:0:0:0:
448,192,31059,1,0,0:0:0:0:
320,192,31252,1,0,0:0:0:0:
448,192,31349,1,0,0:0:0:0:
64,192,31446,1,0,0:0:0:0:
192,192,31446,1,0,0:0:0:0:
320,192,31523,1,0,0:0:0:0:
192,192,31601,1,0,0:0:0:0:
448,192,31736,1,0,0:0:0:0:
320,192,31833,1,0,0:0:0:0:
64,192,31930,1,0,0:0:0:0:
192,192,32026,1,0,0:0:0:0:
64,192,32104,1,0,0:0:0:0:
320,192,32181,1,0,0:0:0:0:
192,192,32259,1,0,0:0:0:0:
448,192,32336,1,0,0:0:0:0:
320,192,32414,1,0,0:0:0:0:
448,192,32607,1,0,0:0:0:0:
448,192,32801,1,0,0:0:0:0:
192,192,32865,1,0,0:0:0:0:
64,192,32994,1,0,0:0:0:0:
192,192,33091,1,0,0:0:0:0:
64,192,33188,1,0,0:0:0:0:
192,192,33285,1,0,0:0:0:0:
448,192,33381,1,0,0:0:0:0:
64,192,33381,1,0,0:0:0:0:
320,192,33459,1,0,0:0:0:0:
448,192,33575,1,0,0:0:0:0:
192,192,33575,1,0,0:0:0:0:
64,192,33652,1,0,0:0:0:0:
448,192,33730,1,0,0:0:0:0:
192,192,33807,1,0,0:0:0:0:
320,192,33885,1,0,0:0:0:0:
64,192,33962,1,0,0:0:0:0:
320,192,34039,1,0,0:0:0:0:
64,192,34156,1,0,0:0:0:0:
192,192,34156,1,0,0:0:0:0:
448,192,34220,1,0,0:0:0:0:
64,192,34349,1,0,0:0:0:0:
192,192,34349,1,0,0:0:0:0:
320,192,34446,1,0,0:0:0:0:
448,192,34543,1,0,0:0:0:0:
192,192,34639,1,0,0:0:0:0:
448,192,34736,1,0,0:0:0:0:
320,192,34833,1,0,0:0:0:0:
448,192,34930,1,0,0:0:0:0:
192,192,34930,1,0,0:0:0:0:
64,192,35007,1,0,0:0:0:0:
192,192,35123,1,0,0:0:0:0:
320,192,35123,1,0,0:0:0:0:
448,192,35220,1,0,0:0:0:0:
192,192,35317,1,0,0:0:0:0:
448,192,35414,1,0,0:0:0:0:
320,192,35510,1,0,0:0:0:0:
64,192,35607,1,0,0:0:0:0:
448,192,35704,1,0,0:0:0:0:
192,192,35704,1,0,0:0:0:0:
320,192,35768,1,0,0:0:0:0:
192,192,35833,1,0,0:0:0:0:
448,192,35936,1,0,0:0:0:0:
320,192,36014,1,0,0:0:0:0:
64,192,36091,1,0,0:0:0:0:
448,192,36168,1,0,0:0:0:0:
192,192,36246,1,0,0:0:0:0:
64,192,36323,1,0,0:0:0:0:
320,192,36401,1,0,0:0:0:0:
192,192,36478,1,0,0:0:0:0:
64,192,36478,1,0,0:0:0:0:
320,192,36710,1,0,0:0:0:0:
192,192,36736,1,0,0:0:0:0:
448,192,36865,1,0,0:0:0:0:
64,192,37059,1,0,0:0:0:0:
320,192,37252,1,0,0:0:0:0:
448,192,37252,1,0,0:0:0:0:
192,192,37317,1,0,0:0:0:0:
192,192,37446,1,0,0:0:0:0:
64,192,37543,1,0,0:0:0:0:
192,192,37639,1,0,0:0:0:0:
320,192,37736,1,0,0:0:0:0:
192,192,37833,1,0,0:0:0:0:
64,192,37930,1,0,0:0:0:0:
192,192,38026,1,0,0:0:0:0:
448,192,38059,1,0,0:0:0:0:
64,192,38220,1,0,0:0:0:0:
192,192,38297,1,0,0:0:0:0:
448,192,38375,1,0,0:0:0:0:
320,192,38452,1,0,0:0:0:0:
64,192,38530,1,0,0:0:0:0:
192,192,38607,1,0,0:0:0:0:
448,192,38685,1,0,0:0:0:0:
320,192,38762,1,0,0:0:0:0:
64,192,38801,1,0,0:0:0:0:
192,192,38994,1,0,0:0:0:0:
448,192,39059,1,0,0:0:0:0:
192,192,39123,1,0,0:0:0:0:
320,192,39188,1,0,0:0:0:0:
64,192,39252,1,0,0:0:0:0:
320,192,39317,1,0,0:0:0:0:
192,192,39381,1,0,0:0:0:0:
448,192,39478,1,0,0:0:0:0:
64,192,39575,1,0,0:0:0:0:
320,192,39575,1,0,0:0:0:0:
448,192,39672,1,0,0:0:0:0:
192,192,39768,1,0,0:0:0:0:
64,192,39768,1,0,0:0:0:0:
320,192,39865,1,0,0:0:0:0:
64,192,39962,1,0,0:0:0:0:
320,192,40156,1,0,0:0:0:0:
320,192,40349,1,0,0:0:0:0:
192,192,40349,1,0,0:0:0:0:
320,192,40543,1,0,0:0:0:0:
64,192,40736,1,0,0:0:0:0:
448,192,40736,1,0,0:0:0:0:
192,192,40801,1,0,0:0:0:0:
320,192,40865,1,0,0:0:0:0:
64,192,40930,1,0,0:0:0:0:
448,192,40994,1,0,0:0:0:0:
192,192,41059,1,0,0:0:0:0:
64,192,41123,1,0,0:0:0:0:
192,192,41220,1,0,0:0:0:0:
320,192,41317,1,0,0:0:0:0:
64,192,41414,1,0,0:0:0:0:
448,192,41510,1,0,0:0:0:0:
192,192,41510,1,0,0:0:0:0:
64,192,41588,1,0,0:0:0:0:
320,192,41665,1,0,0:0:0:0:
448,192,41743,1,0,0:0:0:0:
192,192,41820,1,0,0:0:0:0:
320,192,41897,1,0,0:0:0:0:
192,192,41994,1,0,0:0:0:0:
64,192,42091,1,0,0:0:0:0:
320,192,42168,1,0,0:0:0:0:
192,192,42246,1,0,0:0:0:0:
448,192,42285,1,0,0:0:0:0:
320,192,42349,1,0,0:0:0:0:
192,192,42414,1,0,0:0:0:0:
320,192,42478,1,0,0:0:0:0:
448,192,42526,1,0,0:0:0:0:
320,192,42672,1,0,0:0:0:0:
192,192,42672,1,0,0:0:0:0:
64,192,42768,1,0,0:0:0:0:
448,192,42865,1,0,0:0:0:0:
192,192,42865,1,0,0:0:0:0:
64,192,42962,1,0,0:0:0:0:
448,192,43059,1,0,0:0:0:0:
320,192,43059,1,0,0:0:0:0:
192,192,43136,1,0,0:0:0:0:
448,192,43214,1,0,0:0:0:0:
320,192,43291,1,0,0:0:0:0:
192,192,43368,1,0,0:0:0:0:
320,192,43446,1,0,0:0:0:0:
448,192,43446,1,0,0:0:0:0:
64,192,43543,1,0,0:0:0:0:
320,192,43639,1,0,0:0:0:0:
192,192,43639,1,0,0:0:0:0:
448,192,43833,1,0,0:0:0:0:
320,192,43833,1,0,0:0:0:0:
64,192,43910,1,0,0:0:0:0:
192,192,43988,1,0,0:0:0:0:
64,192,44065,1,0,0:0:0:0:
320,192,44220,1,0,0:0:0:0:
192,192,44220,1,0,0:0:0:0:
320,192,44414,1,0,0:0:0:0:
192,192,44510,1,0,0:0:0:0:
448,192,44575,1,0,0:0:0:0:
320,192,44639,1,0,0:0:0:0:
64,192,44704,1,0,0:0:0:0:
448,192,44768,1,0,0:0:0:0:
192,192,44833,1,0,0:0:0:0:
64,192,44897,1,0,0:0:0:0:
320,192,44994,1,0,0:0:0:0:
192,192,45188,1,0,0:0:0:0:
448,192,45220,1,0,0:0:0:0:
64,192,45381,1,0,0:0:0:0:
320,192,45381,1,0,0:0:0:0:
192,192,45478,1,0,0:0:0:0:
448,192,45575,1,0,0:0:0:0:
192,192,45672,1,0,0:0:0:0:
448,192,45768,1,0,0:0:0:0:
320,192,45817,1,0,0:0:0:0:
448,192,45962,1,0,0:0:0:0:
64,192,45962,1,0,0:0:0:0:
192,192,46026,1,0,0:0:0:0:
320,192,46091,1,0,0:0:0:0:
64,192,46156,1,0,0:0:0:0:
448,192,46220,1,0,0:0:0:0:
320,192,46285,1,0,0:0:0:0:
448,192,46349,1,0,0:0:0:0:
192,192,46414,1,0,0:0:0:0:
320,192,46478,1,0,0:0:0:0:
448,192,46543,1,0,0:0:0:0:
64,192,46543,1,0,0:0:0:0:
64,192,46736,1,0,0:0:0:0:
320,192,46814,1,0,0:0:0:0:
192,192,46891,1,0,0:0:0:0:
448,192,46968,1,0,0:0:0:0:
64,192,47046,1,0,0:0:0:0:
448,192,47123,1,0,0:0:0:0:
192,192,47201,1,0,0:0:0:0:
320,192,47278,1,0,0:0:0:0:
64,192,47356,1,0,0:0:0:0:
448,192,47433,1,0,0:0:0:0:
64,192,47510,1,0,0:0:0:0:
64,192,47704,1,0,0:0:0:0:
192,192,47897,1,0,0:0:0:0:
64,192,47994,1,0,0:0:0:0:
192,192,48091,1,0,0:0:0:0:
448,192,48091,1,0,0:0:0:0:
320,192,48168,1,0,0:0:0:0:
64,192,48285,1,0,0:0:0:0:
192,192,48381,1,0,0:0:0:0:
448,192,48478,1,0,0:0:0:0:
192,192,48575,1,0,0:0:0:0:
64,192,48672,1,0,0:0:0:0:
320,192,48768,1,0,0:0:0:0:
64,192,48865,1,0,0:0:0:0:
448,192,49059,1,0,0:0:0:0:
448,192,49252,1,0,0:0:0:0:
192,192,49446,1,0,0:0:0:0:
320,192,49639,1,0,0:0:0:0:
64,192,49639,1,0,0:0:0:0:
448,192,49717,1,0,0:0:0:0:
192,192,49833,1,0,0:0:0:0:
320,192,49930,1,0,0:0:0:0:
64,192,50026,1,0,0:0:0:0:
192,192,50123,1,0,0:0:0:0:
64,192,50220,1,0,0:0:0:0:
448,192,50220,1,0,0:0:0:0:
64,192,50414,1,0,0:0:0:0:
448,192,50414,1,0,0:0:0:0:
192,192,50607,1,0,0:0:0:0:
64,192,50704,1,0,0:0:0:0:
448,192,50704,1,0,0:0:0:0:
192,192,50801,1,0,0:0:0:0:
448,192,50994,1,0,0:0:0:0:
64,192,51188,1,0,0:0:0:0:
320,192,51188,1,0,0:0:0:0:
448,192,51381,1,0,0:0:0:0:
192,192,51575,1,0,0:0:0:0:
64,192,51575,1,0,0:0:0:0:
320,192,51768,1,0,0:0:0:0:
192,192,51962,1,0,0:0:0:0:
448,192,51962,1,0,0:0:0:0:
64,192,52059,1,0,0:0:0:0:
448,192,52091,1,0,0:0:0:0:
320,192,52156,1,0,0:0:0:0:
448,192,52220,1,0,0:0:0:0:
192,192,52252,1,0,0:0:0:0:
320,192,52349,1,0,0:0:0:0:
320,192,52543,1,0,0:0:0:0:
448,192,52543,1,0,0:0:0:0:
64,192,52607,1,0,0:0:0:0:
192,192,52672,1,0,0:0:0:0:
448,192,52736,1,0,0:0:0:0:
64,192,52801,1,0,0:0:0:0:
320,192,52865,1,0,0:0:0:0:
192,192,52930,1,0,0:0:0:0:
448,192,53007,1,0,0:0:0:0:
320,192,53085,1,0,0:0:0:0:
64,192,53162,1,0,0:0:0:0:
192,192,53239,1,0,0:0:0:0:
448,192,53317,1,0,0:0:0:0:
64,192,53394,1,0,0:0:0:0:
320,192,53472,1,0,0:0:0:0:
192,192,53549,1,0,0:0:0:0:
448,192,53626,1,0,0:0:0:0:
320,192,53704,1,0,0:0:0:0:
64,192,53781,1,0,0:0:0:0:
448,192,53859,1,0,0:0:0:0:
192,192,53897,1,0,0:0:0:0:
320,192,54091,1,0,0:0:0:0:
320,192,54285,1,0,0:0:0:0:
64,192,54285,1,0,0:0:0:0:
448,192,54478,1,0,0:0:0:0:
64,192,54478,1,0,0:0:0:0:
192,192,54575,1,0,0:0:0:0:
320,192,54672,1,0,0:0:0:0:
64,192,54768,1,0,0:0:0:0:
320,192,54865,1,0,0:0:0:0:
192,192,54962,1,0,0:0:0:0:
448,192,55059,1,0,0:0:0:0:
64,192,55059,1,0,0:0:0:0:
64,192,55252,1,0,0:0:0:0:
320,192,55252,1,0,0:0:0:0:
192,192,55330,1,0,0:0:0:0:
448,192,55407,1,0,0:0:0:0:
320,192,55485,1,0,0:0:0:0:
448,192,55562,1,0,0:0:0:0:
192,192,55639,1,0,0:0:0:0:
64,192,55717,1,0,0:0:0:0:
320,192,55833,1,0,0:0:0:0:
192,192,55833,1,0,0:0:0:0:
448,192,55910,1,0,0:0:0:0:
192,192,55988,1,0,0:0:0:0:
320,192,56065,1,0,0:0:0:0:
448,192,56220,1,0,0:0:0:0:
64,192,56220,1,0,0:0:0:0:
320,192,56317,1,0,0:0:0:0:
64,192,56414,1,0,0:0:0:0:
192,192,56510,1,0,0:0:0:0:
320,192,56607,1,0,0:0:0:0:
64,192,56607,1,0,0:0:0:0:
448,192,56685,1,0,0:0:0:0:
320,192,56762,1,0,0:0:0:0:
448,192,56994,1,0,0:0:0:0:
320,192,56994,1,0,0:0:0:0:
192,192,57059,1,0,0:0:0:0:
448,192,57123,1,0,0:0:0:0:
320,192,57188,1,0,0:0:0:0:
192,192,57252,1,0,0:0:0:0:
64,192,57317,1,0,0:0:0:0:
192,192,57381,1,0,0:0:0:0:
320,192,57446,1,0,0:0:0:0:
448,192,57510,1,0,0:0:0:0:
64,192,57575,1,0,0:0:0:0:
320,192,57639,1,0,0:0:0:0:
192,192,57704,1,0,0:0:0:0:
448,192,57768,1,0,0:0:0:0:
64,192,57833,1,0,0:0:0:0:
320,192,57897,1,0,0:0:0:0:
192,192,57962,1,0,0:0:0:0:
448,192,58026,1,0,0:0:0:0:
64,192,58156,1,0,0:0:0:0:
192,192,58156,1,0,0:0:0:0:
320,192,58233,1,0,0:0:0:0:
64,192,58310,1,0,0:0:0:0:
448,192,58388,1,0,0:0:0:0:
192,192,58465,1,0,0:0:0:0:
64,192,58543,1,0,0:0:0:0:
448,192,58543,1,0,0:0:0:0:
320,192,58639,1,0,0:0:0:0:
64,192,58736,1,0,0:0:0:0:
320,192,58833,1,0,0:0:0:0:
448,192,58930,1,0,0:0:0:0:
64,192,58930,1,0,0:0:0:0:
192,192,59026,1,0,0:0:0:0:
64,192,59123,1,0,0:0:0:0:
192,192,59220,1,0,0:0:0:0:
320,192,59317,1,0,0:0:0:0:
64,192,59317,1,0,0:0:0:0:
448,192,59394,1,0,0:0:0:0:
192,192,59472,1,0,0:0:0:0:
320,192,59549,1,0,0:0:0:0:
64,192,59704,1,0,0:0:0:0:
64,192,59897,1,0,0:0:0:0:
320,192,60091,1,0,0:0:0:0:
192,192,60156,1,0,0:0:0:0:
448,192,60220,1,0,0:0:0:0:
320,192,60285,1,0,0:0:0:0:
448,192,60478,1,0,0:0:0:0:
192,192,60478,1,0,0:0:0:0:
64,192,60556,1,0,0:0:0:0:
320,192,60633,1,0,0:0:0:0:
320,192,60865,1,0,0:0:0:0:
192,192,60865,1,0,0:0:0:0:
448,192,60962,1,0,0:0:0:0:
192,192,61059,1,0,0:0:0:0:
320,192,61252,1,0,0:0:0:0:
64,192,61252,1,0,0:0:0:0:
448,192,61330,1,0,0:0:0:0:
192,192,61407,1,0,0:0:0:0:
64,192,61485,1,0,0:0:0:0:
320,192,61562,1,0,0:0:0:0:
64,192,61639,1,0,0:0:0:0:
192,192,61639,1,0,0:0:0:0:
448,192,61736,1,0,0:0:0:0:
320,192,61833,1,0,0:0:0:0:
448,192,61930,1,0,0:0:0:0:
64,192,62026,1,0,0:0:0:0:
192,192,62026,1,0,0:0:0:0:
320,192,62104,1,0,0:0:0:0:
192,192,62181,1,0,0:0:0:0:
448,192,62259,1,0,0:0:0:0:
320,192,62336,1,0,0:0:0:0:
448,192,62414,1,0,0:0:0:0:
64,192,62414,1,0,0:0:0:0:
192,192,62510,1,0,0:0:0:0:
64,192,62607,1,0,0:0:0:0:
192,192,62704,1,0,0:0:0:0:
64,192,62801,1,0,0:0:0:0:
448,192,62801,1,0,0:0:0:0:
320,192,62878,1,0,0:0:0:0:
64,192,62956,1,0,0:0:0:0:
320,192,63033,1,0,0:0:0:0:
192,192,63110,1,0,0:0:0:0:
448,192,63188,1,0,0:0:0:0:
64,192,63188,1,0,0:0:0:0:
320,192,63285,1,0,0:0:0:0:
192,192,63381,1,0,0:0:0:0:
448,192,63478,1,0,0:0:0:0:
320,192,63575,1,0,0:0:0:0:
64,192,63575,1,0,0:0:0:0:
448,192,63672,1,0,0:0:0:0:
192,192,63768,1,0,0:0:0:0:
320,192,63865,1,0,0:0:0:0:
64,192,63962,1,0,0:0:0:0:
448,192,63962,1,0,0:0:0:0:
192,192,64059,1,0,0:0:0:0:
320,192,64156,1,0,0:0:0:0:
192,192,64233,1,0,0:0:0:0:
320,192,64310,1,0,0:0:0:0:
64,192,64388,1,0,0:0:0:0:
448,192,64465,1,0,0:0:0:0:
192,192,64543,1,0,0:0:0:0:
448,192,64620,1,0,0:0:0:0:
64,192,64697,1,0,0:0:0:0:
320,192,64775,1,0,0:0:0:0:
192,192,64852,1,0,0:0:0:0:
320,192,64930,1,0,0:0:0:0:
64,192,65007,1,0,0:0:0:0:
448,192,65085,1,0,0:0:0:0:
192,192,65162,1,0,0:0:0:0:
448,192,65239,1,0,0:0:0:0:
64,192,65317,1,0,0:0:0:0:
320,192,65394,1,0,0:0:0:0:
192,192,65510,1,0,0:0:0:0:
64,192,65510,1,0,0:0:0:0:
448,192,65607,1,0,0:0:0:0:
64,192,65704,1,0,0:0:0:0:
320,192,65801,1,0,0:0:0:0:
64,192,65897,1,0,0:0:0:0:
192,192,65994,1,0,0:0:0:0:
64,192,66091,1,0,0:0:0:0:
320,192,66188,1,0,0:0:0:0:
64,192,66285,1,0,0:0:0:0:
192,192,66381,1,0,0:0:0:0:
448,192,66478,1,0,0:0:0:0:
192,192,66575,1,0,0:0:0:0:
64,192,66672,1,0,0:0:0:0:
320,192,66768,1,0,0:0:0:0:
64,192,66865,1,0,0:0:0:0:
192,192,66962,1,0,0:0:0:0:
448,192,67059,1,0,0:0:0:0:
320,192,67059,1,0,0:0:0:0:
448,192,67252,1,0,0:0:0:0:
320,192,67446,1,0,0:0:0:0:
192,192,67446,1,0,0:0:0:0:
64,192,67543,1,0,0:0:0:0:
320,192,67639,1,0,0:0:0:0:
64,192,67736,1,0,0:0:0:0:
192,192,67833,1,0,0:0:0:0:
448,192,67833,1,0,0:0:0:0:
448,192,67910,1,0,0:0:0:0:
320,192,67988,1,0,0:0:0:0:
64,192,68065,1,0,0:0:0:0:
192,192,68143,1,0,0:0:0:0:
320,192,68220,1,0,0:0:0:0:
64,192,68285,1,0,0:0:0:0:
448,192,68349,1,0,0:0:0:0:
320,192,68414,1,0,0:0:0:0:
448,192,68607,1,0,0:0:0:0:
320,192,68607,1,0,0:0:0:0:
64,192,68685,1,0,0:0:0:0:
448,192,68762,1,0,0:0:0:0:
320,192,68839,1,0,0:0:0:0:
192,192,68917,1,0,0:0:0:0:
448,192,68994,1,0,0:0:0:0:
192,192,69072,1,0,0:0:0:0:
320,192,69149,1,0,0:0:0:0:
448,192,69226,1,0,0:0:0:0:
192,192,69304,1,0,0:0:0:0:
448,192,69381,1,0,0:0:0:0:
320,192,69446,1,0,0:0:0:0:
192,192,69510,1,0,0:0:0:0:
448,192,69575,1,0,0:0:0:0:
320,192,69639,1,0,0:0:0:0:
448,192,69704,1,0,0:0:0:0:
64,192,69768,1,0,0:0:0:0:
320,192,69865,1,0,0:0:0:0:
64,192,69962,1,0,0:0:0:0:
320,192,70156,1,0,0:0:0:0:
192,192,70156,1,0,0:0:0:0:
448,192,70233,1,0,0:0:0:0:
192,192,70310,1,0,0:0:0:0:
320,192,70388,1,0,0:0:0:0:
192,192,70465,1,0,0:0:0:0:
448,192,70543,1,0,0:0:0:0:
64,192,70607,1,0,0:0:0:0:
320,192,70672,1,0,0:0:0:0:
448,192,70736,1,0,0:0:0:0:
192,192,70930,1,0,0:0:0:0:
320,192,71059,1,0,0:0:0:0:
192,192,71123,1,0,0:0:0:0:
192,192,71317,1,0,0:0:0:0:
64,192,71317,1,0,0:0:0:0:
320,192,71446,1,0,0:0:0:0:
448,192,71704,1,0,0:0:0:0:
64,192,71704,1,0,0:0:0:0:
320,192,71801,1,0,0:0:0:0:
64,192,71897,1,0,0:0:0:0:
192,192,71897,1,0,0:0:0:0:
320,192,71994,1,0,0:0:0:0:
448,192,72091,1,0,0:0:0:0:
192,192,72139,1,0,0:0:0:0:
320,192,72285,1,0,0:0:0:0:
64,192,72285,1,0,0:0:0:0:
448,192,72381,1,0,0:0:0:0:
320,192,72478,1,0,0:0:0:0:
192,192,72478,1,0,0:0:0:0:
64,192,72575,1,0,0:0:0:0:
448,192,72672,1,0,0:0:0:0:
320,192,72672,1,0,0:0:0:0:
64,192,72768,1,0,0:0:0:0:
448,192,72865,1,0,0:0:0:0:
192,192,72930,1,0,0:0:0:0:
448,192,73059,1,0,0:0:0:0:
320,192,73059,1,0,0:0:0:0:
192,192,73156,1,0,0:0:0:0:
448,192,73252,1,0,0:0:0:0:
64,192,73252,1,0,0:0:0:0:
320,192,73349,1,0,0:0:0:0:
64,192,73446,1,0,0:0:0:0:
192,192,73446,1,0,0:0:0:0:
448,192,73543,1,0,0:0:0:0:
320,192,73639,1,0,0:0:0:0:
448,192,73688,1,0,0:0:0:0:
320,192,73833,1,0,0:0:0:0:
192,192,73833,1,0,0:0:0:0:
448,192,73930,1,0,0:0:0:0:
192,192,74026,1,0,0:0:0:0:
64,192,74026,1,0,0:0:0:0:
448,192,74123,1,0,0:0:0:0:
64,192,74220,1,0,0:0:0:0:
320,192,74220,1,0,0:0:0:0:
192,192,74317,1,0,0:0:0:0:
320,192,74414,1,0,0:0:0:0:
448,192,74478,1,0,0:0:0:0:
320,192,74607,1,0,0:0:0:0:
192,192,74607,1,0,0:0:0:0:
448,192,74801,1,0,0:0:0:0:
64,192,74801,1,0,0:0:0:0:
192,192,74897,1,0,0:0:0:0:
448,192,74994,1,0,0:0:0:0:
320,192,74994,1,0,0:0:0:0:
64,192,75091,1,0,0:0:0:0:
192,192,75139,1,0,0:0:0:0:
320,192,75188,1,0,0:0:0:0:
448,192,75285,1,0,0:0:0:0:
64,192,75381,1,0,0:0:0:0:
320,192,75381,1,0,0:0:0:0:
192,192,75478,1,0,0:0:0:0:
448,192,75575,1,0,0:0:0:0:
64,192,75575,1,0,0:0:0:0:
320,192,75672,1,0,0:0:0:0:
192,192,75768,1,0,0:0:0:0:
448,192,75833,1,0,0:0:0:0:
64,192,75962,1,0,0:0:0:0:
192,192,75962,1,0,0:0:0:0:
320,192,76026,1,0,0:0:0:0:
448,192,76091,1,0,0:0:0:0:
320,192,76156,1,0,0:0:0:0:
192,192,76252,1,0,0:0:0:0:
448,192,76349,1,0,0:0:0:0:
64,192,76349,1,0,0:0:0:0:
320,192,76446,1,0,0:0:0:0:
64,192,76543,1,0,0:0:0:0:
192,192,76543,1,0,0:0:0:0:
448,192,76639,1,0,0:0:0:0:
320,192,76736,1,0,0:0:0:0:
64,192,76736,1,0,0:0:0:0:
448,192,76833,1,0,0:0:0:0:
192,192,76930,1,0,0:0:0:0:
448,192,77123,1,0,0:0:0:0:
192,192,77123,1,0,0:0:0:0:
192,192,77252,1,0,0:0:0:0:
320,192,77317,1,0,0:0:0:0:
64,192,77414,1,0,0:0:0:0:
320,192,77510,1,0,0:0:0:0:
448,192,77510,1,0,0:0:0:0:
192,192,77607,1,0,0:0:0:0:
64,192,77704,1,0,0:0:0:0:
320,192,77704,1,0,0:0:0:0:
320,192,77897,1,0,0:0:0:0:
192,192,77897,1,0,0:0:0:0:
192,192,77994,1,0,0:0:0:0:
448,192,78091,1,0,0:0:0:0:
64,192,78091,1,0,0:0:0:0:
320,192,78188,1,0,0:0:0:0:
448,192,78285,1,0,0:0:0:0:
192,192,78333,1,0,0:0:0:0:
64,192,78381,1,0,0:0:0:0:
448,192,78478,1,0,0:0:0:0:
320,192,78478,1,0,0:0:0:0:
192,192,78543,1,0,0:0:0:0:
320,192,78672,1,0,0:0:0:0:
64,192,78672,1,0,0:0:0:0:
448,192,78736,1,0,0:0:0:0:
192,192,78801,1,0,0:0:0:0:
320,192,78865,1,0,0:0:0:0:
64,192,78914,1,0,0:0:0:0:
192,192,78962,1,0,0:0:0:0:
448,192,79059,1,0,0:0:0:0:
192,192,79059,1,0,0:0:0:0:
64,192,79123,1,0,0:0:0:0:
448,192,79188,1,0,0:0:0:0:
192,192,79252,1,0,0:0:0:0:
320,192,79252,1,0,0:0:0:0:
64,192,79317,1,0,0:0:0:0:
192,192,79381,1,0,0:0:0:0:
320,192,79446,1,0,0:0:0:0:
448,192,79446,1,0,0:0:0:0:
64,192,79510,1,0,0:0:0:0:
448,192,79575,1,0,0:0:0:0:
64,192,79639,1,0,0:0:0:0:
448,192,79688,1,0,0:0:0:0:
192,192,79736,1,0,0:0:0:0:
448,192,79785,1,0,0:0:0:0:
192,192,79833,1,0,0:0:0:0:
320,192,79897,1,0,0:0:0:0:
448,192,80026,1,0,0:0:0:0:
64,192,80026,1,0,0:0:0:0:
64,192,80143,1,0,0:0:0:0:
448,192,80258,1,0,0:0:0:0:
64,192,80259,1,0,0:0:0:0:
320,192,80336,1,0,0:0:0:0:
192,192,80413,1,0,0:0:0:0:
448,192,80452,1,0,0:0:0:0:
320,192,80568,1,0,0:0:0:0:
448,192,80646,1,0,0:0:0:0:
192,192,80723,1,0,0:0:0:0:
320,192,80800,1,0,0:0:0:0:
64,192,80801,1,0,0:0:0:0:
64,192,80878,1,0,0:0:0:0:
320,192,80994,1,0,0:0:0:0:
192,192,80994,1,0,0:0:0:0:
448,192,81123,1,0,0:0:0:0:
192,192,81123,1,0,0:0:0:0:
448,192,81252,1,0,0:0:0:0:
192,192,81252,1,0,0:0:0:0:
320,192,81381,1,0,0:0:0:0:
64,192,81381,1,0,0:0:0:0:
320,192,81510,1,0,0:0:0:0:
448,192,81510,1,0,0:0:0:0:
448,192,81639,1,0,0:0:0:0:
320,192,81639,1,0,0:0:0:0:
64,192,81768,1,0,0:0:0:0:
192,192,81768,1,0,0:0:0:0:
192,192,81897,1,0,0:0:0:0:
448,192,81897,1,0,0:0:0:0:
320,192,82026,1,0,0:0:0:0:
64,192,82026,1,0,0:0:0:0:
448,192,82156,1,0,0:0:0:0:
192,192,82285,1,0,0:0:0:0:
64,192,82285,1,0,0:0:0:0:
320,192,82414,1,0,0:0:0:0:
64,192,82414,1,0,0:0:0:0:
448,192,82543,1,0,0:0:0:0:
192,192,82543,1,0,0:0:0:0:
448,192,82672,1,0,0:0:0:0:
320,192,82672,1,0,0:0:0:0:
448,192,82801,1,0,0:0:0:0:
320,192,82801,1,0,0:0:0:0:
192,192,82930,1,0,0:0:0:0:
64,192,82930,1,0,0:0:0:0:
320,192,83059,1,0,0:0:0:0:
192,192,83123,1,0,0:0:0:0:
448,192,83156,1,0,0:0:0:0:
64,192,83188,1,0,0:0:0:0:
320,192,83188,1,0,0:0:0:0:
64,192,83317,1,0,0:0:0:0:
192,192,83317,1,0,0:0:0:0:
320,192,83446,1,0,0:0:0:0:
64,192,83446,1,0,0:0:0:0:
192,192,83575,1,0,0:0:0:0:
448,192,83704,1,0,0:0:0:0:
320,192,83704,1,0,0:0:0:0:
448,192,83833,1,0,0:0:0:0:
448,192,83962,1,0,0:0:0:0:
320,192,83962,1,0,0:0:0:0:
192,192,84091,1,0,0:0:0:0:
448,192,84091,1,0,0:0:0:0:
64,192,84091,1,0,0:0:0:0:
320,192,84220,1,0,0:0:0:0:
64,192,84349,1,0,0:0:0:0:
448,192,84349,1,0,0:0:0:0:
192,192,84414,1,0,0:0:0:0:
64,192,84478,1,0,0:0:0:0:
448,192,84478,1,0,0:0:0:0:
192,192,84607,1,0,0:0:0:0:
320,192,84607,1,0,0:0:0:0:
192,192,84736,1,0,0:0:0:0:
192,192,84865,1,0,0:0:0:0:
320,192,84865,1,0,0:0:0:0:
448,192,84994,1,0,0:0:0:0:
192,192,85123,1,0,0:0:0:0:
64,192,85252,1,0,0:0:0:0:
320,192,85252,1,0,0:0:0:0:
64,192,85381,1,0,0:0:0:0:
192,192,85381,1,0,0:0:0:0:
448,192,85446,1,0,0:0:0:0:
320,192,85543,1,0,0:0:0:0:
192,192,85639,1,0,0:0:0:0:
448,192,85639,1,0,0:0:0:0:
64,192,85768,1,0,0:0:0:0:
320,192,85897,1,0,0:0:0:0:
192,192,85897,1,0,0:0:0:0:
320,192,86026,1,0,0:0:0:0:
192,192,86026,1,0,0:0:0:0:
448,192,86156,1,0,0:0:0:0:
192,192,86220,1,0,0:0:0:0:
64,192,86252,1,0,0:0:0:0:
320,192,86285,1,0,0:0:0:0:
448,192,86285,1,0,0:0:0:0:
320,192,86414,1,0,0:0:0:0:
64,192,86414,1,0,0:0:0:0:
64,192,86543,1,0,0:0:0:0:
320,192,86543,1,0,0:0:0:0:
192,192,86672,1,0,0:0:0:0:
320,192,86736,1,0,0:0:0:0:
64,192,86801,1,0,0:0:0:0:
448,192,86878,1,0,0:0:0:0:
192,192,86878,1,0,0:0:0:0:
320,192,86956,1,0,0:0:0:0:
64,192,86956,1,0,0:0:0:0:
448,192,87033,1,0,0:0:0:0:
320,192,87110,1,0,0:0:0:0:
192,192,87110,1,0,0:0:0:0:
192,192,87188,1,0,0:0:0:0:
64,192,87188,1,0,0:0:0:0:
320,192,87317,1,0,0:0:0:0:
448,192,87446,1,0,0:0:0:0:
192,192,87446,1,0,0:0:0:0:
64,192,87575,1,0,0:0:0:0:
448,192,87704,1,0,0:0:0:0:
192,192,87704,1,0,0:0:0:0:
448,192,87768,1,0,0:0:0:0:
320,192,87768,1,0,0:0:0:0:
64,192,87833,1,0,0:0:0:0:
320,192,87962,1,0,0:0:0:0:
448,192,87962,1,0,0:0:0:0:
192,192,88091,1,0,0:0:0:0:
320,192,88091,1,0,0:0:0:0:
448,192,88220,1,0,0:0:0:0:
192,192,88349,1,0,0:0:0:0:
64,192,88349,1,0,0:0:0:0:
192,192,88478,1,0,0:0:0:0:
448,192,88478,1,0,0:0:0:0:
192,192,88607,1,0,0:0:0:0:
64,192,88607,1,0,0:0:0:0:
448,192,88736,1,0,0:0:0:0:
64,192,88736,1,0,0:0:0:0:
320,192,88801,1,0,0:0:0:0:
192,192,88865,1,0,0:0:0:0:
448,192,88865,1,0,0:0:0:0:
64,192,88930,1,0,0:0:0:0:
448,192,88994,1,0,0:0:0:0:
320,192,88994,1,0,0:0:0:0:
320,192,89123,1,0,0:0:0:0:
192,192,89123,1,0,0:0:0:0:
64,192,89252,1,0,0:0:0:0:
448,192,89252,1,0,0:0:0:0:
320,192,89317,1,0,0:0:0:0:
192,192,89381,1,0,0:0:0:0:
64,192,89381,1,0,0:0:0:0:
320,192,89510,1,0,0:0:0:0:
192,192,89510,1,0,0:0:0:0:
64,192,89639,1,0,0:0:0:0:
448,192,89639,1,0,0:0:0:0:
320,192,89768,1,0,0:0:0:0:
192,192,89897,1,0,0:0:0:0:
448,192,89897,1,0,0:0:0:0:
448,192,90026,1,0,0:0:0:0:
320,192,90026,1,0,0:0:0:0:
320,192,90156,1,0,0:0:0:0:
64,192,90285,1,0,0:0:0:0:
448,192,90285,1,0,0:0:0:0:
320,192,90478,1,0,0:0:0:0:
320,192,90672,1,0,0:0:0:0:
64,192,90865,1,0,0:0:0:0:
192,192,90865,1,0,0:0:0:0:
64,192,91059,1,0,0:0:0:0:
192,192,91059,1,0,0:0:0:0:
320,192,91252,1,0,0:0:0:0:
320,192,91446,1,0,0:0:0:0:
64,192,91446,1,0,0:0:0:0:
192,192,91639,1,0,0:0:0:0:
64,192,91736,1,0,0:0:0:0:
192,192,91833,1,0,0:0:0:0:
448,192,91833,1,0,0:0:0:0:
320,192,92026,1,0,0:0:0:0:
320,192,92220,1,0,0:0:0:0:
64,192,92414,1,0,0:0:0:0:
192,192,92414,1,0,0:0:0:0:
448,192,92510,1,0,0:0:0:0:
64,192,92607,1,0,0:0:0:0:
192,192,92607,1,0,0:0:0:0:
320,192,92801,1,0,0:0:0:0:
320,192,92994,1,0,0:0:0:0:
64,192,92994,1,0,0:0:0:0:
192,192,93188,1,0,0:0:0:0:
320,192,93285,1,0,0:0:0:0:
64,192,93381,1,0,0:0:0:0:
448,192,93381,1,0,0:0:0:0:
320,192,93575,1,0,0:0:0:0:
320,192,93768,1,0,0:0:0:0:
64,192,93962,1,0,0:0:0:0:
192,192,93962,1,0,0:0:0:0:
64,192,94156,1,0,0:0:0:0:
192,192,94156,1,0,0:0:0:0:
448,192,94252,1,0,0:0:0:0:
320,192,94252,1,0,0:0:0:0:
320,192,94349,1,0,0:0:0:0:
192,192,94446,1,0,0:0:0:0:
320,192,94543,1,0,0:0:0:0:
64,192,94543,1,0,0:0:0:0:
64,192,94639,1,0,0:0:0:0:
448,192,94639,1,0,0:0:0:0:
192,192,94736,1,0,0:0:0:0:
320,192,94833,1,0,0:0:0:0:
448,192,94833,1,0,0:0:0:0:
192,192,94930,1,0,0:0:0:0:
448,192,94930,1,0,0:0:0:0:
320,192,95123,1,0,0:0:0:0:
64,192,95123,1,0,0:0:0:0:
448,192,95220,1,0,0:0:0:0:
320,192,95317,1,0,0:0:0:0:
64,192,95317,1,0,0:0:0:0:
448,192,95414,1,0,0:0:0:0:
64,192,95510,1,0,0:0:0:0:
192,192,95510,1,0,0:0:0:0:
448,192,95607,1,0,0:0:0:0:
64,192,95704,1,0,0:0:0:0:
192,192,95704,1,0,0:0:0:0:
448,192,95801,1,0,0:0:0:0:
320,192,95897,1,0,0:0:0:0:
448,192,95994,1,0,0:0:0:0:
64,192,95994,1,0,0:0:0:0:
320,192,96091,1,0,0:0:0:0:
64,192,96091,1,0,0:0:0:0:
448,192,96188,1,0,0:0:0:0:
320,192,96188,1,0,0:0:0:0:
192,192,96285,1,0,0:0:0:0:
448,192,96381,1,0,0:0:0:0:
320,192,96478,128,0,97123:0:0:0:0:
192,192,96994,128,0,97381:0:0:0:0:
320,192,97252,128,0,98026:0:0:0:0:
192,192,97510,128,0,97897:0:0:0:0:
448,192,97768,128,0,97897:0:0:0:0:
192,192,98026,128,0,98671:0:0:0:0:
320,192,98284,128,0,99058:0:0:0:0:
64,192,98542,128,0,98800:0:0:0:0:
192,192,98800,128,0,99574:0:0:0:0:
64,192,99058,128,0,99316:0:0:0:0:
320,192,99316,128,0,99703:0:0:0:0:
448,192,99574,128,0,100219:0:0:0:0:
64,192,99703,128,0,99897:0:0:0:0:
320,192,99897,128,0,100090:0:0:0:0:
64,192,100090,128,0,100348:0:0:0:0:
448,192,100348,128,0,101123:0:0:0:0:
192,192,100413,128,0,100865:0:0:0:0:
320,192,100865,128,0,100994:0:0:0:0:
320,192,101123,128,0,101768:0:0:0:0:
64,192,101252,128,0,101510:0:0:0:0:
192,192,101639,128,0,101897:0:0:0:0:
320,192,101897,128,0,102671:0:0:0:0:
64,192,102026,128,0,102155:0:0:0:0:
192,192,102155,128,0,102413:0:0:0:0:
64,192,102284,128,0,102542:0:0:0:0:
448,192,102413,128,0,102671:0:0:0:0:
192,192,102542,1,0,0:0:0:0:
64,192,102671,128,0,103316:0:0:0:0:
448,192,102800,128,0,102929:0:0:0:0:
320,192,102929,128,0,103445:0:0:0:0:
448,192,103058,128,0,103187:0:0:0:0:
192,192,103187,128,0,103445:0:0:0:0:
64,192,103445,128,0,104219:0:0:0:0:
192,192,103703,128,0,103832:0:0:0:0:
320,192,103961,128,0,104219:0:0:0:0:
192,192,104219,128,0,104994:0:0:0:0:
320,192,104348,128,0,104478:0:0:0:0:
448,192,104478,128,0,104736:0:0:0:0:
320,192,104736,128,0,105316:0:0:0:0:
64,192,104865,128,0,104994:0:0:0:0:
448,192,104994,128,0,105768:0:0:0:0:
64,192,105123,128,0,105252:0:0:0:0:
192,192,105316,128,0,105639:0:0:0:0:
64,192,105445,128,0,105639:0:0:0:0:
320,192,105574,128,0,105768:0:0:0:0:
192,192,105768,128,0,106413:0:0:0:0:
320,192,106219,128,0,106413:0:0:0:0:
64,192,106284,128,0,106542:0:0:0:0:
192,192,106542,128,0,107316:0:0:0:0:
448,192,106542,128,0,106929:0:0:0:0:
448,192,107058,128,0,107316:0:0:0:0:
320,192,107316,128,0,108090:0:0:0:0:
64,192,107445,128,0,107703:0:0:0:0:
192,192,107832,128,0,108090:0:0:0:0:
448,192,108090,128,0,108865:0:0:0:0:
192,192,108219,128,0,108478:0:0:0:0:
64,192,108607,128,0,108865:0:0:0:0:
320,192,108865,128,0,109510:0:0:0:0:
192,192,109381,128,0,109768:0:0:0:0:
320,192,109639,128,0,110413:0:0:0:0:
64,192,109897,128,0,110155:0:0:0:0:
448,192,110155,128,0,110413:0:0:0:0:
192,192,110413,128,0,111058:0:0:0:0:
448,192,110671,128,0,111316:0:0:0:0:
320,192,110929,128,0,111187:0:0:0:0:
192,192,111187,128,0,111961:0:0:0:0:
320,192,111574,128,0,111703:0:0:0:0:
448,192,111703,128,0,111961:0:0:0:0:
64,192,111961,128,0,112607:0:0:0:0:
320,192,112090,128,0,112219:0:0:0:0:
448,192,112219,128,0,112478:0:0:0:0:
320,192,112348,128,0,112736:0:0:0:0:
192,192,112478,128,0,112865:0:0:0:0:
64,192,112736,128,0,113510:0:0:0:0:
448,192,112865,128,0,113252:0:0:0:0:
320,192,113252,128,0,113768:0:0:0:0:
192,192,113510,128,0,114284:0:0:0:0:
64,192,114026,128,0,114284:0:0:0:0:
448,192,114284,128,0,115058:0:0:0:0:
320,192,114284,128,0,114800:0:0:0:0:
64,192,114413,128,0,114542:0:0:0:0:
192,192,114542,128,0,114671:0:0:0:0:
64,192,114671,128,0,114800:0:0:0:0:
192,192,114800,128,0,114929:0:0:0:0:
192,192,115058,128,0,115703:0:0:0:0:
320,192,115187,128,0,115703:0:0:0:0:
448,192,115316,128,0,115445:0:0:0:0:
64,192,115574,128,0,115832:0:0:0:0:
192,192,115832,128,0,116607:0:0:0:0:
448,192,116284,128,0,116478:0:0:0:0:
320,192,116348,128,0,116607:0:0:0:0:
448,192,116607,128,0,117252:0:0:0:0:
192,192,116736,128,0,117123:0:0:0:0:
320,192,117123,128,0,117381:0:0:0:0:
448,192,117381,128,0,118155:0:0:0:0:
64,192,117703,128,0,117897:0:0:0:0:
320,192,117897,128,0,118155:0:0:0:0:
192,192,118090,128,0,118348:0:0:0:0:
64,192,118155,128,0,118929:0:0:0:0:
192,192,118671,128,0,118929:0:0:0:0:
320,192,118929,128,0,119574:0:0:0:0:
192,192,119316,128,0,119445:0:0:0:0:
64,192,119445,128,0,119574:0:0:0:0:
448,192,119574,128,0,119832:0:0:0:0:
192,192,119703,128,0,120478:0:0:0:0:
320,192,119768,128,0,120478:0:0:0:0:
448,192,120478,1,0,0:0:0:0:
64,192,120607,1,0,0:0:0:0:
64,192,120800,1,0,0:0:0:0:
320,192,120929,1,0,0:0:0:0:
448,192,121252,1,0,0:0:0:0:
192,192,121252,1,0,0:0:0:0:
320,192,121316,1,0,0:0:0:0:
192,192,121381,1,0,0:0:0:0:
320,192,121445,1,0,0:0:0:0:
192,192,121510,1,0,0:0:0:0:
320,192,121574,1,0,0:0:0:0:
64,192,121639,1,0,0:0:0:0:
448,192,121716,1,0,0:0:0:0:
64,192,121793,1,0,0:0:0:0:
448,192,121871,1,0,0:0:0:0:
64,192,121948,1,0,0:0:0:0:
448,192,122026,1,0,0:0:0:0:
320,192,122026,1,0,0:0:0:0:
192,192,122090,1,0,0:0:0:0:
448,192,122155,1,0,0:0:0:0:
192,192,122219,1,0,0:0:0:0:
320,192,122316,1,0,0:0:0:0:
64,192,122413,1,0,0:0:0:0:
448,192,122510,1,0,0:0:0:0:
192,192,122606,1,0,0:0:0:0:
64,192,122606,1,0,0:0:0:0:
448,192,122703,1,0,0:0:0:0:
320,192,122800,1,0,0:0:0:0:
192,192,122800,1,0,0:0:0:0:
64,192,122864,1,0,0:0:0:0:
320,192,122929,1,0,0:0:0:0:
64,192,122993,1,0,0:0:0:0:
192,192,123090,1,0,0:0:0:0:
320,192,123187,1,0,0:0:0:0:
448,192,123187,1,0,0:0:0:0:
192,192,123264,1,0,0:0:0:0:
448,192,123342,1,0,0:0:0:0:
320,192,123574,1,0,0:0:0:0:
192,192,123574,1,0,0:0:0:0:
448,192,123652,1,0,0:0:0:0:
192,192,123729,1,0,0:0:0:0:
320,192,123806,1,0,0:0:0:0:
192,192,123884,1,0,0:0:0:0:
448,192,123961,1,0,0:0:0:0:
64,192,123961,1,0,0:0:0:0:
192,192,124155,1,0,0:0:0:0:
64,192,124155,1,0,0:0:0:0:
448,192,124252,1,0,0:0:0:0:
320,192,124348,1,0,0:0:0:0:
192,192,124348,1,0,0:0:0:0:
448,192,124413,1,0,0:0:0:0:
64,192,124477,1,0,0:0:0:0:
192,192,124542,1,0,0:0:0:0:
320,192,124735,1,0,0:0:0:0:
448,192,124735,1,0,0:0:0:0:
64,192,124929,1,0,0:0:0:0:
192,192,125058,1,0,0:0:0:0:
320,192,125058,1,0,0:0:0:0:
64,192,125122,1,0,0:0:0:0:
448,192,125200,1,0,0:0:0:0:
320,192,125277,1,0,0:0:0:0:
448,192,125355,1,0,0:0:0:0:
192,192,125432,1,0,0:0:0:0:
320,192,125510,1,0,0:0:0:0:
320,192,125703,1,0,0:0:0:0:
448,192,125897,1,0,0:0:0:0:
192,192,125897,1,0,0:0:0:0:
64,192,125993,1,0,0:0:0:0:
192,192,126090,1,0,0:0:0:0:
64,192,126187,1,0,0:0:0:0:
320,192,126284,1,0,0:0:0:0:
192,192,126284,1,0,0:0:0:0:
64,192,126477,1,0,0:0:0:0:
448,192,126477,1,0,0:0:0:0:
320,192,126542,1,0,0:0:0:0:
448,192,126606,1,0,0:0:0:0:
192,192,126671,1,0,0:0:0:0:
448,192,126735,1,0,0:0:0:0:
64,192,126800,1,0,0:0:0:0:
320,192,126864,1,0,0:0:0:0:
320,192,126993,1,0,0:0:0:0:
192,192,127058,1,0,0:0:0:0:
64,192,127058,1,0,0:0:0:0:
448,192,127155,1,0,0:0:0:0:
192,192,127252,1,0,0:0:0:0:
64,192,127252,1,0,0:0:0:0:
448,192,127348,1,0,0:0:0:0:
320,192,127445,1,0,0:0:0:0:
448,192,127542,1,0,0:0:0:0:
192,192,127639,1,0,0:0:0:0:
320,192,127735,1,0,0:0:0:0:
448,192,127832,1,0,0:0:0:0:
192,192,127832,1,0,0:0:0:0:
192,192,127929,1,0,0:0:0:0:
448,192,128026,1,0,0:0:0:0:
64,192,128026,1,0,0:0:0:0:
320,192,128103,1,0,0:0:0:0:
192,192,128181,1,0,0:0:0:0:
448,192,128258,1,0,0:0:0:0:
320,192,128335,1,0,0:0:0:0:
192,192,128413,1,0,0:0:0:0:
448,192,128490,1,0,0:0:0:0:
320,192,128568,1,0,0:0:0:0:
448,192,128606,1,0,0:0:0:0:
64,192,128671,1,0,0:0:0:0:
192,192,128735,1,0,0:0:0:0:
448,192,128864,1,0,0:0:0:0:
320,192,128864,1,0,0:0:0:0:
64,192,128929,1,0,0:0:0:0:
320,192,128993,1,0,0:0:0:0:
64,192,129058,1,0,0:0:0:0:
192,192,129122,1,0,0:0:0:0:
320,192,129187,1,0,0:0:0:0:
64,192,129252,1,0,0:0:0:0:
320,192,129316,1,0,0:0:0:0:
192,192,129381,1,0,0:0:0:0:
448,192,129381,1,0,0:0:0:0:
64,192,129458,1,0,0:0:0:0:
192,192,129535,1,0,0:0:0:0:
448,192,129671,1,0,0:0:0:0:
320,192,129671,1,0,0:0:0:0:
64,192,129735,1,0,0:0:0:0:
448,192,129800,1,0,0:0:0:0:
192,192,129864,1,0,0:0:0:0:
320,192,129961,1,0,0:0:0:0:
448,192,130155,1,0,0:0:0:0:
192,192,130155,1,0,0:0:0:0:
320,192,130348,1,0,0:0:0:0:
192,192,130348,1,0,0:0:0:0:
64,192,130445,1,0,0:0:0:0:
192,192,130542,1,0,0:0:0:0:
320,192,130639,1,0,0:0:0:0:
192,192,130735,1,0,0:0:0:0:
64,192,130832,1,0,0:0:0:0:
320,192,130929,1,0,0:0:0:0:
192,192,130929,1,0,0:0:0:0:
448,192,130993,1,0,0:0:0:0:
64,192,131122,1,0,0:0:0:0:
448,192,131122,1,0,0:0:0:0:
320,192,131200,1,0,0:0:0:0:
192,192,131277,1,0,0:0:0:0:
448,192,131355,1,0,0:0:0:0:
192,192,131432,1,0,0:0:0:0:
64,192,131510,1,0,0:0:0:0:
320,192,131587,1,0,0:0:0:0:
448,192,131664,1,0,0:0:0:0:
64,192,131703,1,0,0:0:0:0:
192,192,131768,1,0,0:0:0:0:
448,192,131897,1,0,0:0:0:0:
320,192,131897,1,0,0:0:0:0:
64,192,131961,1,0,0:0:0:0:
448,192,132026,1,0,0:0:0:0:
320,192,132090,1,0,0:0:0:0:
192,192,132155,1,0,0:0:0:0:
448,192,132219,1,0,0:0:0:0:
192,192,132284,1,0,0:0:0:0:
320,192,132348,1,0,0:0:0:0:
448,192,132413,1,0,0:0:0:0:
192,192,132477,1,0,0:0:0:0:
64,192,132574,1,0,0:0:0:0:
448,192,132671,1,0,0:0:0:0:
320,192,132710,1,0,0:0:0:0:
64,192,132710,1,0,0:0:0:0:
192,192,132787,1,0,0:0:0:0:
320,192,132864,1,0,0:0:0:0:
64,192,132942,1,0,0:0:0:0:
192,192,133019,1,0,0:0:0:0:
64,192,133097,1,0,0:0:0:0:
192,192,133174,1,0,0:0:0:0:
320,192,133252,1,0,0:0:0:0:
448,192,133252,1,0,0:0:0:0:
448,192,133445,1,0,0:0:0:0:
320,192,133445,1,0,0:0:0:0:
192,192,133639,1,0,0:0:0:0:
320,192,133687,1,0,0:0:0:0:
64,192,133735,1,0,0:0:0:0:
192,192,133800,1,0,0:0:0:0:
320,192,133864,1,0,0:0:0:0:
64,192,133897,1,0,0:0:0:0:
192,192,134026,1,0,0:0:0:0:
448,192,134026,1,0,0:0:0:0:
64,192,134122,1,0,0:0:0:0:
320,192,134219,1,0,0:0:0:0:
192,192,134219,1,0,0:0:0:0:
64,192,134316,1,0,0:0:0:0:
320,192,134413,1,0,0:0:0:0:
448,192,134413,1,0,0:0:0:0:
192,192,134490,1,0,0:0:0:0:
448,192,134568,1,0,0:0:0:0:
320,192,134645,1,0,0:0:0:0:
448,192,134800,1,0,0:0:0:0:
320,192,134800,1,0,0:0:0:0:
64,192,134897,1,0,0:0:0:0:
192,192,134993,1,0,0:0:0:0:
320,192,135058,1,0,0:0:0:0:
64,192,135090,1,0,0:0:0:0:
448,192,135187,1,0,0:0:0:0:
320,192,135187,1,0,0:0:0:0:
192,192,135264,1,0,0:0:0:0:
64,192,135342,1,0,0:0:0:0:
192,192,135419,1,0,0:0:0:0:
448,192,135574,1,0,0:0:0:0:
320,192,135574,1,0,0:0:0:0:
192,192,135671,1,0,0:0:0:0:
64,192,135768,1,0,0:0:0:0:
320,192,135768,1,0,0:0:0:0:
448,192,135864,1,0,0:0:0:0:
320,192,135961,1,0,0:0:0:0:
64,192,135961,1,0,0:0:0:0:
192,192,136039,1,0,0:0:0:0:
448,192,136116,1,0,0:0:0:0:
192,192,136193,1,0,0:0:0:0:
64,192,136271,1,0,0:0:0:0:
320,192,136348,1,0,0:0:0:0:
448,192,136348,1,0,0:0:0:0:
192,192,136445,1,0,0:0:0:0:
320,192,136542,1,0,0:0:0:0:
448,192,136542,1,0,0:0:0:0:
64,192,136639,1,0,0:0:0:0:
448,192,136735,1,0,0:0:0:0:
192,192,136735,1,0,0:0:0:0:
320,192,136813,1,0,0:0:0:0:
64,192,136864,1,0,0:0:0:0:
192,192,136929,1,0,0:0:0:0:
64,192,136993,1,0,0:0:0:0:
448,192,137122,1,0,0:0:0:0:
320,192,137122,1,0,0:0:0:0:
320,192,137316,1,0,0:0:0:0:
64,192,137316,1,0,0:0:0:0:
192,192,137413,1,0,0:0:0:0:
448,192,137510,1,0,0:0:0:0:
320,192,137510,1,0,0:0:0:0:
64,192,137606,1,0,0:0:0:0:
320,192,137703,1,0,0:0:0:0:
64,192,137800,1,0,0:0:0:0:
192,192,137897,1,0,0:0:0:0:
448,192,138090,1,0,0:0:0:0:
320,192,138090,1,0,0:0:0:0:
64,192,138187,1,0,0:0:0:0:
320,192,138284,1,0,0:0:0:0:
192,192,138284,1,0,0:0:0:0:
448,192,138361,1,0,0:0:0:0:
192,192,138439,1,0,0:0:0:0:
64,192,138516,1,0,0:0:0:0:
320,192,138593,1,0,0:0:0:0:
192,192,138671,1,0,0:0:0:0:
448,192,138671,1,0,0:0:0:0:
448,192,138864,1,0,0:0:0:0:
192,192,138864,1,0,0:0:0:0:
320,192,138961,1,0,0:0:0:0:
64,192,139058,1,0,0:0:0:0:
448,192,139135,1,0,0:0:0:0:
192,192,139213,1,0,0:0:0:0:
320,192,139290,1,0,0:0:0:0:
64,192,139368,1,0,0:0:0:0:
448,192,139445,1,0,0:0:0:0:
320,192,139445,1,0,0:0:0:0:
64,192,139510,1,0,0:0:0:0:
320,192,139574,1,0,0:0:0:0:
192,192,139639,1,0,0:0:0:0:
448,192,139703,1,0,0:0:0:0:
320,192,139768,1,0,0:0:0:0:
64,192,139832,1,0,0:0:0:0:
192,192,139832,1,0,0:0:0:0:
448,192,139897,1,0,0:0:0:0:
64,192,139961,1,0,0:0:0:0:
192,192,140026,1,0,0:0:0:0:
320,192,140090,1,0,0:0:0:0:
448,192,140155,1,0,0:0:0:0:
192,192,140219,1,0,0:0:0:0:
320,192,140284,1,0,0:0:0:0:
64,192,140348,1,0,0:0:0:0:
192,192,140413,1,0,0:0:0:0:
320,192,140477,1,0,0:0:0:0:
448,192,140542,1,0,0:0:0:0:
192,192,140606,1,0,0:0:0:0:
64,192,140684,1,0,0:0:0:0:
320,192,140761,1,0,0:0:0:0:
64,192,140839,1,0,0:0:0:0:
192,192,140916,1,0,0:0:0:0:
64,192,140993,1,0,0:0:0:0:
320,192,141071,1,0,0:0:0:0:
64,192,141148,1,0,0:0:0:0:
448,192,141226,1,0,0:0:0:0:
64,192,141303,1,0,0:0:0:0:
320,192,141381,1,0,0:0:0:0:
192,192,141477,1,0,0:0:0:0:
320,192,141574,1,0,0:0:0:0:
64,192,141671,1,0,0:0:0:0:
320,192,141768,1,0,0:0:0:0:
192,192,141864,1,0,0:0:0:0:
320,192,141961,1,0,0:0:0:0:
64,192,142058,1,0,0:0:0:0:
192,192,142122,1,0,0:0:0:0:
320,192,142155,1,0,0:0:0:0:
448,192,142219,1,0,0:0:0:0:
64,192,142284,1,0,0:0:0:0:
448,192,142348,1,0,0:0:0:0:
192,192,142413,1,0,0:0:0:0:
448,192,142477,1,0,0:0:0:0:
64,192,142542,1,0,0:0:0:0:
320,192,142619,1,0,0:0:0:0:
192,192,142697,1,0,0:0:0:0:
320,192,142774,1,0,0:0:0:0:
64,192,142851,1,0,0:0:0:0:
192,192,142929,1,0,0:0:0:0:
448,192,142993,1,0,0:0:0:0:
320,192,143058,1,0,0:0:0:0:
192,192,143122,1,0,0:0:0:0:
64,192,143187,1,0,0:0:0:0:
320,192,143251,1,0,0:0:0:0:
192,192,143316,1,0,0:0:0:0:
448,192,143381,1,0,0:0:0:0:
320,192,143445,1,0,0:0:0:0:
192,192,143510,1,0,0:0:0:0:
64,192,143574,1,0,0:0:0:0:
320,192,143639,1,0,0:0:0:0:
448,192,143703,1,0,0:0:0:0:
192,192,143781,1,0,0:0:0:0:
448,192,143858,1,0,0:0:0:0:
64,192,143935,1,0,0:0:0:0:
448,192,144013,1,0,0:0:0:0:
320,192,144090,1,0,0:0:0:0:
448,192,144168,1,0,0:0:0:0:
64,192,144245,1,0,0:0:0:0:
448,192,144322,1,0,0:0:0:0:
192,192,144400,1,0,0:0:0:0:
64,192,144477,1,0,0:0:0:0:
320,192,144574,1,0,0:0:0:0:
64,192,144671,1,0,0:0:0:0:
64,192,144864,1,0,0:0:0:0:
64,192,145058,1,0,0:0:0:0:
64,192,145251,1,0,0:0:0:0:
448,192,145316,1,0,0:0:0:0:
64,192,145381,1,0,0:0:0:0:
320,192,145445,1,0,0:0:0:0:
64,192,145510,1,0,0:0:0:0:
192,192,145574,1,0,0:0:0:0:
320,192,145639,1,0,0:0:0:0:
320,192,145832,1,0,0:0:0:0:
448,192,146026,1,0,0:0:0:0:
64,192,146026,1,0,0:0:0:0:
64,192,146219,1,0,0:0:0:0:
192,192,146413,1,0,0:0:0:0:
64,192,146461,1,0,0:0:0:0:
64,192,146606,1,0,0:0:0:0:
320,192,146606,1,0,0:0:0:0:
64,192,146800,1,0,0:0:0:0:
448,192,146800,1,0,0:0:0:0:
192,192,146832,1,0,0:0:0:0:
320,192,146864,1,0,0:0:0:0:
64,192,146993,1,0,0:0:0:0:
192,192,147187,1,0,0:0:0:0:
448,192,147187,1,0,0:0:0:0:
320,192,147251,1,0,0:0:0:0:
192,192,147316,1,0,0:0:0:0:
64,192,147381,1,0,0:0:0:0:
448,192,147445,1,0,0:0:0:0:
320,192,147510,1,0,0:0:0:0:
448,192,147542,1,0,0:0:0:0:
64,192,147574,1,0,0:0:0:0:
192,192,147574,1,0,0:0:0:0:
64,192,147768,1,0,0:0:0:0:
192,192,147961,1,0,0:0:0:0:
64,192,148010,1,0,0:0:0:0:
64,192,148155,1,0,0:0:0:0:
320,192,148155,1,0,0:0:0:0:
64,192,148348,1,0,0:0:0:0:
448,192,148348,1,0,0:0:0:0:
192,192,148381,1,0,0:0:0:0:
320,192,148413,1,0,0:0:0:0:
64,192,148542,1,0,0:0:0:0:
192,192,148735,1,0,0:0:0:0:
448,192,148735,1,0,0:0:0:0:
320,192,148800,1,0,0:0:0:0:
448,192,148864,1,0,0:0:0:0:
64,192,148929,1,0,0:0:0:0:
448,192,148977,1,0,0:0:0:0:
320,192,149026,1,0,0:0:0:0:
192,192,149074,1,0,0:0:0:0:
64,192,149122,1,0,0:0:0:0:
448,192,149155,1,0,0:0:0:0:
64,192,149316,1,0,0:0:0:0:
192,192,149510,1,0,0:0:0:0:
64,192,149558,1,0,0:0:0:0:
64,192,149703,1,0,0:0:0:0:
320,192,149703,1,0,0:0:0:0:
64,192,149897,1,0,0:0:0:0:
448,192,149897,1,0,0:0:0:0:
192,192,149929,1,0,0:0:0:0:
320,192,149961,1,0,0:0:0:0:
64,192,150090,1,0,0:0:0:0:
64,192,150284,1,0,0:0:0:0:
448,192,150284,1,0,0:0:0:0:
320,192,150348,1,0,0:0:0:0:
192,192,150413,1,0,0:0:0:0:
64,192,150477,1,0,0:0:0:0:
320,192,150542,1,0,0:0:0:0:
448,192,150606,1,0,0:0:0:0:
320,192,150639,1,0,0:0:0:0:
64,192,150671,1,0,0:0:0:0:
192,192,150671,1,0,0:0:0:0:
64,192,150864,1,0,0:0:0:0:
448,192,151058,1,0,0:0:0:0:
64,192,151106,1,0,0:0:0:0:
320,192,151122,1,0,0:0:0:0:
192,192,151187,1,0,0:0:0:0:
64,192,151251,1,0,0:0:0:0:
320,192,151251,1,0,0:0:0:0:
448,192,151348,1,0,0:0:0:0:
64,192,151445,1,0,0:0:0:0:
448,192,151445,1,0,0:0:0:0:
192,192,151477,1,0,0:0:0:0:
320,192,151510,1,0,0:0:0:0:
64,192,151639,1,0,0:0:0:0:
192,192,151832,1,0,0:0:0:0:
320,192,151832,1,0,0:0:0:0:
64,192,151881,1,0,0:0:0:0:
448,192,151897,1,0,0:0:0:0:
320,192,151961,1,0,0:0:0:0:
192,192,152026,1,0,0:0:0:0:
320,192,152074,1,0,0:0:0:0:
64,192,152219,1,0,0:0:0:0:
448,192,152219,1,0,0:0:0:0:
64,192,152413,1,0,0:0:0:0:
192,192,152606,1,0,0:0:0:0:
64,192,152655,1,0,0:0:0:0:
320,192,152800,1,0,0:0:0:0:
64,192,152800,1,0,0:0:0:0:
192,192,152929,1,0,0:0:0:0:
64,192,152993,1,0,0:0:0:0:
448,192,152993,1,0,0:0:0:0:
192,192,153026,1,0,0:0:0:0:
320,192,153058,1,0,0:0:0:0:
64,192,153187,1,0,0:0:0:0:
320,192,153284,1,0,0:0:0:0:
448,192,153381,1,0,0:0:0:0:
64,192,153381,1,0,0:0:0:0:
192,192,153445,1,0,0:0:0:0:
320,192,153510,1,0,0:0:0:0:
64,192,153574,1,0,0:0:0:0:
448,192,153639,1,0,0:0:0:0:
320,192,153703,1,0,0:0:0:0:
448,192,153735,1,0,0:0:0:0:
64,192,153768,1,0,0:0:0:0:
192,192,153768,1,0,0:0:0:0:
320,192,153864,1,0,0:0:0:0:
64,192,153961,1,0,0:0:0:0:
192,192,154155,1,0,0:0:0:0:
64,192,154203,1,0,0:0:0:0:
320,192,154348,1,0,0:0:0:0:
64,192,154348,1,0,0:0:0:0:
192,192,154397,1,0,0:0:0:0:
64,192,154542,1,0,0:0:0:0:
448,192,154542,1,0,0:0:0:0:
192,192,154574,1,0,0:0:0:0:
320,192,154606,1,0,0:0:0:0:
64,192,154735,1,0,0:0:0:0:
320,192,154832,1,0,0:0:0:0:
448,192,154929,1,0,0:0:0:0:
64,192,154929,1,0,0:0:0:0:
192,192,154993,1,0,0:0:0:0:
320,192,155058,1,0,0:0:0:0:
64,192,155122,1,0,0:0:0:0:
320,192,155171,1,0,0:0:0:0:
448,192,155219,1,0,0:0:0:0:
192,192,155268,1,0,0:0:0:0:
64,192,155316,1,0,0:0:0:0:
320,192,155348,1,0,0:0:0:0:
64,192,155510,1,0,0:0:0:0:
192,192,155703,1,0,0:0:0:0:
64,192,155751,1,0,0:0:0:0:
320,192,155897,1,0,0:0:0:0:
64,192,155897,1,0,0:0:0:0:
64,192,156090,1,0,0:0:0:0:
448,192,156090,1,0,0:0:0:0:
192,192,156122,1,0,0:0:0:0:
320,192,156155,1,0,0:0:0:0:
64,192,156284,1,0,0:0:0:0:
192,192,156477,1,0,0:0:0:0:
448,192,156477,1,0,0:0:0:0:
64,192,156542,1,0,0:0:0:0:
320,192,156606,1,0,0:0:0:0:
64,192,156671,1,0,0:0:0:0:
448,192,156735,1,0,0:0:0:0:
192,192,156800,1,0,0:0:0:0:
448,192,156864,1,0,0:0:0:0:
64,192,156864,1,0,0:0:0:0:
320,192,156913,1,0,0:0:0:0:
448,192,157058,1,0,0:0:0:0:
64,192,157058,1,0,0:0:0:0:
192,192,157251,1,0,0:0:0:0:
64,192,157300,1,0,0:0:0:0:
320,192,157348,1,0,0:0:0:0:
320,192,157445,1,0,0:0:0:0:
192,192,157493,1,0,0:0:0:0:
320,192,157542,1,0,0:0:0:0:
448,192,157639,1,0,0:0:0:0:
64,192,157639,1,0,0:0:0:0:
448,192,157832,1,0,0:0:0:0:
64,192,157832,1,0,0:0:0:0:
320,192,157929,1,0,0:0:0:0:
192,192,158026,1,0,0:0:0:0:
64,192,158074,1,0,0:0:0:0:
448,192,158122,1,0,0:0:0:0:
448,192,158219,1,0,0:0:0:0:
448,192,158316,1,0,0:0:0:0:
192,192,158364,1,0,0:0:0:0:
320,192,158413,1,0,0:0:0:0:
64,192,158413,1,0,0:0:0:0:
192,192,158461,1,0,0:0:0:0:
448,192,158510,1,0,0:0:0:0:
64,192,158558,1,0,0:0:0:0:
320,192,158606,1,0,0:0:0:0:
448,192,158655,1,0,0:0:0:0:
192,192,158703,1,0,0:0:0:0:
320,192,158751,1,0,0:0:0:0:
64,192,158824,1,0,0:0:0:0:
320,192,158921,1,0,0:0:0:0:
448,192,158993,1,0,0:0:0:0:
64,192,159018,1,0,0:0:0:0:
192,192,159114,1,0,0:0:0:0:
448,192,159187,1,0,0:0:0:0:
64,192,159211,1,0,0:0:0:0:
320,192,159308,1,0,0:0:0:0:
64,192,159405,1,0,0:0:0:0:
192,192,159501,1,0,0:0:0:0:
320,192,159574,1,0,0:0:0:0:
448,192,159574,1,0,0:0:0:0:
64,192,159598,1,0,0:0:0:0:
448,192,159695,1,0,0:0:0:0:
192,192,159768,1,0,0:0:0:0:
64,192,159792,1,0,0:0:0:0:
320,192,159889,1,0,0:0:0:0:
192,192,159961,1,0,0:0:0:0:
64,192,159985,1,0,0:0:0:0:
448,192,160082,1,0,0:0:0:0:
64,192,160179,1,0,0:0:0:0:
192,192,160276,1,0,0:0:0:0:
64,192,160372,1,0,0:0:0:0:
320,192,160469,1,0,0:0:0:0:
448,192,160542,1,0,0:0:0:0:
64,192,160566,1,0,0:0:0:0:
448,192,160663,1,0,0:0:0:0:
192,192,160735,1,0,0:0:0:0:
64,192,160768,1,0,0:0:0:0:
448,192,160800,1,0,0:0:0:0:
320,192,160832,1,0,0:0:0:0:
192,192,160864,1,0,0:0:0:0:
320,192,160993,1,0,0:0:0:0:
448,192,161026,1,0,0:0:0:0:
64,192,161058,1,0,0:0:0:0:
192,192,161090,1,0,0:0:0:0:
320,192,161122,1,0,0:0:0:0:
64,192,161251,1,0,0:0:0:0:
64,192,161381,1,0,0:0:0:0:
448,192,161510,1,0,0:0:0:0:
192,192,161542,1,0,0:0:0:0:
320,192,161574,1,0,0:0:0:0:
64,192,161606,1,0,0:0:0:0:
448,192,161639,1,0,0:0:0:0:
64,192,161768,1,0,0:0:0:0:
320,192,161768,1,0,0:0:0:0:
192,192,161800,1,0,0:0:0:0:
448,192,161832,1,0,0:0:0:0:
64,192,161897,1,0,0:0:0:0:
320,192,162026,1,0,0:0:0:0:
320,192,162155,1,0,0:0:0:0:
192,192,162284,1,0,0:0:0:0:
448,192,162316,1,0,0:0:0:0:
320,192,162348,1,0,0:0:0:0:
64,192,162381,1,0,0:0:0:0:
192,192,162413,1,0,0:0:0:0:
320,192,162542,1,0,0:0:0:0:
64,192,162574,1,0,0:0:0:0:
192,192,162606,1,0,0:0:0:0:
448,192,162639,1,0,0:0:0:0:
320,192,162671,1,0,0:0:0:0:
64,192,162735,1,0,0:0:0:0:
448,192,162800,1,0,0:0:0:0:
192,192,162864,1,0,0:0:0:0:
320,192,162929,1,0,0:0:0:0:
448,192,162993,1,0,0:0:0:0:
64,192,163058,1,0,0:0:0:0:
192,192,163090,1,0,0:0:0:0:
320,192,163122,1,0,0:0:0:0:
64,192,163155,1,0,0:0:0:0:
192,192,163187,1,0,0:0:0:0:
448,192,163316,1,0,0:0:0:0:
320,192,163348,1,0,0:0:0:0:
192,192,163381,1,0,0:0:0:0:
448,192,163413,1,0,0:0:0:0:
320,192,163445,1,0,0:0:0:0:
64,192,163510,1,0,0:0:0:0:
192,192,163574,1,0,0:0:0:0:
320,192,163639,1,0,0:0:0:0:
448,192,163703,1,0,0:0:0:0:
320,192,163768,1,0,0:0:0:0:
192,192,163832,1,0,0:0:0:0:
64,192,163864,1,0,0:0:0:0:
448,192,163897,1,0,0:0:0:0:
192,192,163929,1,0,0:0:0:0:
64,192,163961,1,0,0:0:0:0:
320,192,164090,1,0,0:0:0:0:
448,192,164122,1,0,0:0:0:0:
64,192,164155,1,0,0:0:0:0:
320,192,164187,1,0,0:0:0:0:
448,192,164219,1,0,0:0:0:0:
192,192,164348,1,0,0:0:0:0:
64,192,164348,1,0,0:0:0:0:
448,192,164413,1,0,0:0:0:0:
192,192,164477,1,0,0:0:0:0:
320,192,164477,1,0,0:0:0:0:
64,192,164542,1,0,0:0:0:0:
448,192,164631,1,0,0:0:0:0:
64,192,164727,1,0,0:0:0:0:
448,192,164824,1,0,0:0:0:0:
64,192,164921,1,0,0:0:0:0:
448,192,165018,1,0,0:0:0:0:
192,192,165114,1,0,0:0:0:0:
64,192,165187,1,0,0:0:0:0:
448,192,165211,1,0,0:0:0:0:
192,192,165308,1,0,0:0:0:0:
64,192,165381,1,0,0:0:0:0:
448,192,165405,1,0,0:0:0:0:
320,192,165501,1,0,0:0:0:0:
448,192,165598,1,0,0:0:0:0:
320,192,165695,1,0,0:0:0:0:
192,192,165768,1,0,0:0:0:0:
64,192,165768,1,0,0:0:0:0:
448,192,165792,1,0,0:0:0:0:
192,192,165889,1,0,0:0:0:0:
320,192,165961,1,0,0:0:0:0:
448,192,165985,1,0,0:0:0:0:
192,192,166082,1,0,0:0:0:0:
320,192,166155,1,0,0:0:0:0:
448,192,166179,1,0,0:0:0:0:
64,192,166276,1,0,0:0:0:0:
448,192,166372,1,0,0:0:0:0:
64,192,166469,1,0,0:0:0:0:
448,192,166566,1,0,0:0:0:0:
192,192,166663,1,0,0:0:0:0:
64,192,166735,1,0,0:0:0:0:
448,192,166760,1,0,0:0:0:0:
192,192,166856,1,0,0:0:0:0:
64,192,166929,1,0,0:0:0:0:
448,192,166953,1,0,0:0:0:0:
320,192,167050,1,0,0:0:0:0:
448,192,167147,1,0,0:0:0:0:
320,192,167243,1,0,0:0:0:0:
192,192,167316,1,0,0:0:0:0:
64,192,167316,1,0,0:0:0:0:
448,192,167340,1,0,0:0:0:0:
192,192,167437,1,0,0:0:0:0:
320,192,167510,1,0,0:0:0:0:
448,192,167534,1,0,0:0:0:0:
192,192,167631,1,0,0:0:0:0:
320,192,167703,1,0,0:0:0:0:
448,192,167727,1,0,0:0:0:0:
64,192,167824,1,0,0:0:0:0:
448,192,167921,1,0,0:0:0:0:
64,192,168018,1,0,0:0:0:0:
448,192,168114,1,0,0:0:0:0:
192,192,168211,1,0,0:0:0:0:
64,192,168284,1,0,0:0:0:0:
448,192,168308,1,0,0:0:0:0:
192,192,168405,1,0,0:0:0:0:
64,192,168477,1,0,0:0:0:0:
448,192,168501,1,0,0:0:0:0:
320,192,168598,1,0,0:0:0:0:
448,192,168695,1,0,0:0:0:0:
320,192,168792,1,0,0:0:0:0:
192,192,168864,1,0,0:0:0:0:
64,192,168864,1,0,0:0:0:0:
448,192,168889,1,0,0:0:0:0:
192,192,168985,1,0,0:0:0:0:
448,192,169082,1,0,0:0:0:0:
192,192,169179,1,0,0:0:0:0:
320,192,169251,1,0,0:0:0:0:
64,192,169251,1,0,0:0:0:0:
448,192,169276,1,0,0:0:0:0:
64,192,169372,1,0,0:0:0:0:
448,192,169469,1,0,0:0:0:0:
320,192,169510,1,0,0:0:0:0:
192,192,169510,1,0,0:0:0:0:
64,192,169566,1,0,0:0:0:0:
320,192,169639,1,0,0:0:0:0:
448,192,169703,1,0,0:0:0:0:
192,192,169768,1,0,0:0:0:0:
320,192,169897,1,0,0:0:0:0:
64,192,169897,1,0,0:0:0:0:
192,192,170026,1,0,0:0:0:0:
64,192,170026,1,0,0:0:0:0:
448,192,170090,1,0,0:0:0:0:
320,192,170155,1,0,0:0:0:0:
64,192,170219,1,0,0:0:0:0:
320,192,170284,1,0,0:0:0:0:
448,192,170348,1,0,0:0:0:0:
192,192,170413,1,0,0:0:0:0:
320,192,170461,1,0,0:0:0:0:
192,192,170645,1,0,0:0:0:0:
64,192,170722,1,0,0:0:0:0:
320,192,170800,1,0,0:0:0:0:
64,192,170877,1,0,0:0:0:0:
448,192,170955,1,0,0:0:0:0:
64,192,171032,1,0,0:0:0:0:
320,192,171110,1,0,0:0:0:0:
64,192,171187,1,0,0:0:0:0:
192,192,171264,1,0,0:0:0:0:
64,192,171342,1,0,0:0:0:0:
320,192,171419,1,0,0:0:0:0:
448,192,171574,1,0,0:0:0:0:
448,192,171768,1,0,0:0:0:0:
192,192,171961,1,0,0:0:0:0:
320,192,172010,1,0,0:0:0:0:
320,192,172155,1,0,0:0:0:0:
448,192,172251,1,0,0:0:0:0:
320,192,172348,1,0,0:0:0:0:
192,192,172445,1,0,0:0:0:0:
320,192,172542,1,0,0:0:0:0:
64,192,172639,1,0,0:0:0:0:
448,192,172735,1,0,0:0:0:0:
320,192,172735,1,0,0:0:0:0:
192,192,172800,1,0,0:0:0:0:
448,192,172929,1,0,0:0:0:0:
64,192,172929,1,0,0:0:0:0:
320,192,173006,1,0,0:0:0:0:
64,192,173084,1,0,0:0:0:0:
448,192,173161,1,0,0:0:0:0:
192,192,173239,1,0,0:0:0:0:
320,192,173316,1,0,0:0:0:0:
448,192,173393,1,0,0:0:0:0:
192,192,173471,1,0,0:0:0:0:
64,192,173510,1,0,0:0:0:0:
192,192,173606,1,0,0:0:0:0:
448,192,173703,1,0,0:0:0:0:
192,192,173897,1,0,0:0:0:0:
64,192,173897,1,0,0:0:0:0:
320,192,173993,1,0,0:0:0:0:
64,192,174090,1,0,0:0:0:0:
320,192,174187,1,0,0:0:0:0:
192,192,174284,1,0,0:0:0:0:
320,192,174361,1,0,0:0:0:0:
192,192,174439,1,0,0:0:0:0:
320,192,174516,1,0,0:0:0:0:
192,192,174593,1,0,0:0:0:0:
448,192,174671,1,0,0:0:0:0:
64,192,174671,1,0,0:0:0:0:
320,192,174735,1,0,0:0:0:0:
448,192,174800,1,0,0:0:0:0:
192,192,175058,1,0,0:0:0:0:
64,192,175058,1,0,0:0:0:0:
320,192,175135,1,0,0:0:0:0:
64,192,175213,1,0,0:0:0:0:
448,192,175290,1,0,0:0:0:0:
192,192,175368,1,0,0:0:0:0:
320,192,175445,1,0,0:0:0:0:
64,192,175522,1,0,0:0:0:0:
192,192,175600,1,0,0:0:0:0:
448,192,175677,1,0,0:0:0:0:
64,192,175755,1,0,0:0:0:0:
192,192,175832,1,0,0:0:0:0:
320,192,175832,1,0,0:0:0:0:
448,192,175929,1,0,0:0:0:0:
192,192,176026,1,0,0:0:0:0:
192,192,176219,1,0,0:0:0:0:
320,192,176219,1,0,0:0:0:0:
64,192,176316,1,0,0:0:0:0:
320,192,176413,1,0,0:0:0:0:
64,192,176510,1,0,0:0:0:0:
320,192,176606,1,0,0:0:0:0:
64,192,176606,1,0,0:0:0:0:
192,192,176800,1,0,0:0:0:0:
64,192,176800,1,0,0:0:0:0:
448,192,176897,1,0,0:0:0:0:
320,192,176993,1,0,0:0:0:0:
448,192,177090,1,0,0:0:0:0:
192,192,177187,1,0,0:0:0:0:
192,192,177381,1,0,0:0:0:0:
64,192,177429,1,0,0:0:0:0:
448,192,177574,1,0,0:0:0:0:
192,192,177719,1,0,0:0:0:0:
320,192,177768,1,0,0:0:0:0:
64,192,177832,1,0,0:0:0:0:
448,192,177897,1,0,0:0:0:0:
320,192,177961,1,0,0:0:0:0:
448,192,178155,1,0,0:0:0:0:
320,192,178155,1,0,0:0:0:0:
64,192,178232,1,0,0:0:0:0:
448,192,178310,1,0,0:0:0:0:
192,192,178387,1,0,0:0:0:0:
64,192,178542,1,0,0:0:0:0:
320,192,178542,1,0,0:0:0:0:
192,192,178639,1,0,0:0:0:0:
64,192,178735,1,0,0:0:0:0:
448,192,178929,1,0,0:0:0:0:
320,192,178929,1,0,0:0:0:0:
192,192,179006,1,0,0:0:0:0:
448,192,179084,1,0,0:0:0:0:
320,192,179161,1,0,0:0:0:0:
448,192,179239,1,0,0:0:0:0:
192,192,179316,1,0,0:0:0:0:
448,192,179413,1,0,0:0:0:0:
192,192,179510,1,0,0:0:0:0:
320,192,179703,1,0,0:0:0:0:
192,192,179703,1,0,0:0:0:0:
64,192,179781,1,0,0:0:0:0:
320,192,179858,1,0,0:0:0:0:
192,192,179935,1,0,0:0:0:0:
448,192,179961,1,0,0:0:0:0:
448,192,180090,1,0,0:0:0:0:
64,192,180090,1,0,0:0:0:0:
320,192,180187,1,0,0:0:0:0:
64,192,180284,1,0,0:0:0:0:
192,192,180381,1,0,0:0:0:0:
448,192,180477,1,0,0:0:0:0:
320,192,180477,1,0,0:0:0:0:
64,192,180574,1,0,0:0:0:0:
320,192,180671,1,0,0:0:0:0:
448,192,180768,1,0,0:0:0:0:
192,192,180864,1,0,0:0:0:0:
64,192,180864,1,0,0:0:0:0:
448,192,180961,1,0,0:0:0:0:
64,192,181058,1,0,0:0:0:0:
320,192,181155,1,0,0:0:0:0:
448,192,181251,1,0,0:0:0:0:
192,192,181251,1,0,0:0:0:0:
320,192,181348,1,0,0:0:0:0:
192,192,181445,1,0,0:0:0:0:
64,192,181542,1,0,0:0:0:0:
64,192,181639,1,0,0:0:0:0:
192,192,181639,1,0,0:0:0:0:
448,192,181735,1,0,0:0:0:0:
320,192,181832,1,0,0:0:0:0:
192,192,181910,1,0,0:0:0:0:
320,192,181987,1,0,0:0:0:0:
64,192,182064,1,0,0:0:0:0:
448,192,182142,1,0,0:0:0:0:
192,192,182219,1,0,0:0:0:0:
448,192,182297,1,0,0:0:0:0:
64,192,182374,1,0,0:0:0:0:
320,192,182451,1,0,0:0:0:0:
192,192,182529,1,0,0:0:0:0:
320,192,182606,1,0,0:0:0:0:
64,192,182684,1,0,0:0:0:0:
448,192,182761,1,0,0:0:0:0:
320,192,182800,1,0,0:0:0:0:
192,192,182864,1,0,0:0:0:0:
64,192,182993,1,0,0:0:0:0:
320,192,182993,1,0,0:0:0:0:
448,192,183090,1,0,0:0:0:0:
192,192,183187,1,0,0:0:0:0:
64,192,183187,1,0,0:0:0:0:
448,192,183284,1,0,0:0:0:0:
64,192,183381,1,0,0:0:0:0:
320,192,183477,1,0,0:0:0:0:
64,192,183574,1,0,0:0:0:0:
192,192,183671,1,0,0:0:0:0:
64,192,183768,1,0,0:0:0:0:
320,192,183864,1,0,0:0:0:0:
64,192,183961,1,0,0:0:0:0:
448,192,184058,1,0,0:0:0:0:
64,192,184155,1,0,0:0:0:0:
320,192,184251,1,0,0:0:0:0:
64,192,184348,1,0,0:0:0:0:
192,192,184445,1,0,0:0:0:0:
64,192,184542,1,0,0:0:0:0:
448,192,184735,1,0,0:0:0:0:
320,192,184735,1,0,0:0:0:0:
192,192,184813,1,0,0:0:0:0:
448,192,184929,1,0,0:0:0:0:
320,192,185122,1,0,0:0:0:0:
192,192,185122,1,0,0:0:0:0:
64,192,185219,1,0,0:0:0:0:
320,192,185316,1,0,0:0:0:0:
64,192,185413,1,0,0:0:0:0:
192,192,185510,1,0,0:0:0:0:
448,192,185510,1,0,0:0:0:0:
448,192,185587,1,0,0:0:0:0:
320,192,185664,1,0,0:0:0:0:
64,192,185742,1,0,0:0:0:0:
192,192,185819,1,0,0:0:0:0:
320,192,185897,1,0,0:0:0:0:
64,192,185961,1,0,0:0:0:0:
448,192,186026,1,0,0:0:0:0:
320,192,186090,1,0,0:0:0:0:
448,192,186284,1,0,0:0:0:0:
320,192,186284,1,0,0:0:0:0:
64,192,186361,1,0,0:0:0:0:
448,192,186439,1,0,0:0:0:0:
320,192,186516,1,0,0:0:0:0:
192,192,186593,1,0,0:0:0:0:
448,192,186671,1,0,0:0:0:0:
192,192,186748,1,0,0:0:0:0:
320,192,186826,1,0,0:0:0:0:
448,192,186903,1,0,0:0:0:0:
192,192,186981,1,0,0:0:0:0:
448,192,187058,1,0,0:0:0:0:
320,192,187122,1,0,0:0:0:0:
192,192,187187,1,0,0:0:0:0:
448,192,187251,1,0,0:0:0:0:
320,192,187316,1,0,0:0:0:0:
448,192,187381,1,0,0:0:0:0:
64,192,187445,1,0,0:0:0:0:
320,192,187542,1,0,0:0:0:0:
192,192,187639,1,0,0:0:0:0:
320,192,187832,1,0,0:0:0:0:
192,192,187832,1,0,0:0:0:0:
448,192,187910,1,0,0:0:0:0:
192,192,187987,1,0,0:0:0:0:
320,192,188064,1,0,0:0:0:0:
192,192,188142,1,0,0:0:0:0:
320,192,188219,1,0,0:0:0:0:
448,192,188219,1,0,0:0:0:0:
64,192,188284,1,0,0:0:0:0:
64,192,188348,1,0,0:0:0:0:
448,192,188413,1,0,0:0:0:0:
192,192,188606,1,0,0:0:0:0:
320,192,188735,1,0,0:0:0:0:
192,192,188800,1,0,0:0:0:0:
192,192,188993,1,0,0:0:0:0:
64,192,188993,1,0,0:0:0:0:
320,192,189187,1,0,0:0:0:0:
64,192,189381,1,0,0:0:0:0:
448,192,189381,1,0,0:0:0:0:
192,192,189477,1,0,0:0:0:0:
448,192,189574,1,0,0:0:0:0:
320,192,189574,1,0,0:0:0:0:
64,192,189671,1,0,0:0:0:0:
192,192,189719,1,0,0:0:0:0:
320,192,189768,1,0,0:0:0:0:
192,192,189864,1,0,0:0:0:0:
448,192,189961,1,0,0:0:0:0:
64,192,189961,1,0,0:0:0:0:
320,192,190058,1,0,0:0:0:0:
192,192,190155,1,0,0:0:0:0:
64,192,190155,1,0,0:0:0:0:
448,192,190251,1,0,0:0:0:0:
192,192,190348,1,0,0:0:0:0:
320,192,190348,1,0,0:0:0:0:
448,192,190445,1,0,0:0:0:0:
64,192,190542,1,0,0:0:0:0:
320,192,190590,1,0,0:0:0:0:
448,192,190735,1,0,0:0:0:0:
192,192,190735,1,0,0:0:0:0:
64,192,190832,1,0,0:0:0:0:
320,192,190929,1,0,0:0:0:0:
192,192,190929,1,0,0:0:0:0:
64,192,191026,1,0,0:0:0:0:
448,192,191122,1,0,0:0:0:0:
320,192,191122,1,0,0:0:0:0:
192,192,191219,1,0,0:0:0:0:
320,192,191316,1,0,0:0:0:0:
64,192,191381,1,0,0:0:0:0:
448,192,191510,1,0,0:0:0:0:
192,192,191510,1,0,0:0:0:0:
64,192,191606,1,0,0:0:0:0:
448,192,191703,1,0,0:0:0:0:
320,192,191703,1,0,0:0:0:0:
192,192,191800,1,0,0:0:0:0:
64,192,191897,1,0,0:0:0:0:
448,192,191897,1,0,0:0:0:0:
320,192,191993,1,0,0:0:0:0:
192,192,192090,1,0,0:0:0:0:
320,192,192155,1,0,0:0:0:0:
448,192,192284,1,0,0:0:0:0:
64,192,192284,1,0,0:0:0:0:
320,192,192381,1,0,0:0:0:0:
192,192,192477,1,0,0:0:0:0:
448,192,192477,1,0,0:0:0:0:
64,192,192574,1,0,0:0:0:0:
320,192,192671,1,0,0:0:0:0:
320,192,192768,1,0,0:0:0:0:
448,192,192864,1,0,0:0:0:0:
192,192,192864,1,0,0:0:0:0:
64,192,192961,1,0,0:0:0:0:
320,192,193058,1,0,0:0:0:0:
192,192,193058,1,0,0:0:0:0:
192,192,193187,1,0,0:0:0:0:
320,192,193251,1,0,0:0:0:0:
64,192,193251,1,0,0:0:0:0:
448,192,193348,1,0,0:0:0:0:
64,192,193445,1,0,0:0:0:0:
192,192,193445,1,0,0:0:0:0:
448,192,193542,1,0,0:0:0:0:
320,192,193639,1,0,0:0:0:0:
192,192,193687,1,0,0:0:0:0:
448,192,193832,1,0,0:0:0:0:
64,192,193832,1,0,0:0:0:0:
192,192,193929,1,0,0:0:0:0:
320,192,194026,1,0,0:0:0:0:
448,192,194090,1,0,0:0:0:0:
64,192,194219,1,0,0:0:0:0:
192,192,194219,1,0,0:0:0:0:
192,192,194316,1,0,0:0:0:0:
448,192,194413,1,0,0:0:0:0:
320,192,194413,1,0,0:0:0:0:
64,192,194510,1,0,0:0:0:0:
448,192,194606,1,0,0:0:0:0:
192,192,194606,1,0,0:0:0:0:
64,192,194703,1,0,0:0:0:0:
448,192,194800,1,0,0:0:0:0:
320,192,194800,1,0,0:0:0:0:
192,192,194961,1,0,0:0:0:0:
64,192,195026,1,0,0:0:0:0:
64,192,195187,1,0,0:0:0:0:
320,192,195187,1,0,0:0:0:0:
448,192,195284,1,0,0:0:0:0:
320,192,195381,1,0,0:0:0:0:
192,192,195381,1,0,0:0:0:0:
64,192,195477,1,0,0:0:0:0:
448,192,195574,1,0,0:0:0:0:
320,192,195574,1,0,0:0:0:0:
192,192,195671,1,0,0:0:0:0:
448,192,195768,1,0,0:0:0:0:
320,192,195768,1,0,0:0:0:0:
64,192,195864,1,0,0:0:0:0:
320,192,195961,1,0,0:0:0:0:
192,192,196026,1,0,0:0:0:0:
448,192,196090,1,0,0:0:0:0:
64,192,196155,1,0,0:0:0:0:
448,192,196203,1,0,0:0:0:0:
320,192,196251,1,0,0:0:0:0:
448,192,196348,1,0,0:0:0:0:
192,192,196348,1,0,0:0:0:0:
320,192,196426,1,0,0:0:0:0:
64,192,196503,1,0,0:0:0:0:
192,192,196542,1,0,0:0:0:0:
320,192,196606,1,0,0:0:0:0:
192,192,196671,1,0,0:0:0:0:
64,192,196735,1,0,0:0:0:0:
448,192,196735,1,0,0:0:0:0:
320,192,196800,1,0,0:0:0:0:
64,192,196864,1,0,0:0:0:0:
320,192,196929,1,0,0:0:0:0:
192,192,196929,1,0,0:0:0:0:
448,192,196993,1,0,0:0:0:0:
192,192,197058,1,0,0:0:0:0:
320,192,197122,1,0,0:0:0:0:
448,192,197122,1,0,0:0:0:0:
64,192,197187,1,0,0:0:0:0:
320,192,197251,1,0,0:0:0:0:
64,192,197316,1,0,0:0:0:0:
448,192,197364,1,0,0:0:0:0:
320,192,197413,1,0,0:0:0:0:
448,192,197461,1,0,0:0:0:0:
192,192,197510,1,0,0:0:0:0:
320,192,197558,1,0,0:0:0:0:
448,192,197606,1,0,0:0:0:0:
320,192,197703,1,0,0:0:0:0:
192,192,197703,1,0,0:0:0:0:
192,192,197819,1,0,0:0:0:0:
192,192,197935,1,0,0:0:0:0:
64,192,198013,1,0,0:0:0:0:
448,192,198013,1,0,0:0:0:0:
320,192,198090,1,0,0:0:0:0:
64,192,198168,1,0,0:0:0:0:
192,192,198245,1,0,0:0:0:0:
448,192,198322,1,0,0:0:0:0:
192,192,198400,1,0,0:0:0:0:
448,192,198477,1,0,0:0:0:0:
64,192,198477,1,0,0:0:0:0:
64,192,198555,1,0,0:0:0:0:
448,192,198671,1,0,0:0:0:0:
320,192,198748,1,0,0:0:0:0:
192,192,198826,1,0,0:0:0:0:
320,192,198903,1,0,0:0:0:0:
320,192,198981,1,0,0:0:0:0:
448,192,199058,1,0,0:0:0:0:
192,192,199135,1,0,0:0:0:0:
192,192,199213,1,0,0:0:0:0:
64,192,199290,1,0,0:0:0:0:
320,192,199368,1,0,0:0:0:0:
448,192,199445,1,0,0:0:0:0:
448,192,199522,1,0,0:0:0:0:
64,192,199600,1,0,0:0:0:0:
448,192,199677,1,0,0:0:0:0:
192,192,199677,1,0,0:0:0:0:
192,192,199755,1,0,0:0:0:0:
64,192,199832,1,0,0:0:0:0:
320,192,199832,1,0,0:0:0:0:
320,192,199910,1,0,0:0:0:0:
192,192,199987,1,0,0:0:0:0:
448,192,200064,1,0,0:0:0:0:
64,192,200142,1,0,0:0:0:0:
64,192,200219,1,0,0:0:0:0:
320,192,200297,1,0,0:0:0:0:
192,192,200374,1,0,0:0:0:0:
448,192,200451,1,0,0:0:0:0:
320,192,200490,1,0,0:0:0:0:
64,192,200568,1,0,0:0:0:0:
192,192,200606,1,0,0:0:0:0:
448,192,200645,1,0,0:0:0:0:
320,192,200684,1,0,0:0:0:0:
192,192,200722,1,0,0:0:0:0:
448,192,200761,1,0,0:0:0:0:
64,192,200839,1,0,0:0:0:0:
192,192,200916,1,0,0:0:0:0:
320,192,200993,1,0,0:0:0:0:
320,192,201071,1,0,0:0:0:0:
448,192,201148,1,0,0:0:0:0:
192,192,201226,1,0,0:0:0:0:
64,192,201226,1,0,0:0:0:0:
448,192,201303,1,0,0:0:0:0:
192,192,201381,1,0,0:0:0:0:
320,192,201535,1,0,0:0:0:0:
192,192,201613,1,0,0:0:0:0:
320,192,201671,1,0,0:0:0:0:
448,192,201671,1,0,0:0:0:0:
64,192,201671,1,0,0:0:0:0:
64,192,201845,1,0,0:0:0:0:
192,192,201922,1,0,0:0:0:0:
64,192,202000,1,0,0:0:0:0:
320,192,202077,1,0,0:0:0:0:
192,192,202155,1,0,0:0:0:0:
448,192,202232,1,0,0:0:0:0:
192,192,202284,1,0,0:0:0:0:
64,192,202284,1,0,0:0:0:0:
64,192,202348,1,0,0:0:0:0:
192,192,202348,1,0,0:0:0:0:
448,192,202413,1,0,0:0:0:0:
320,192,202477,1,0,0:0:0:0:
64,192,202542,1,0,0:0:0:0:
192,192,202542,1,0,0:0:0:0:
320,192,202606,1,0,0:0:0:0:
448,192,202606,1,0,0:0:0:0:
64,192,202671,1,0,0:0:0:0:
192,192,202671,1,0,0:0:0:0:
64,192,202800,1,0,0:0:0:0:
448,192,202800,1,0,0:0:0:0:
448,192,202929,1,0,0:0:0:0:
64,192,202929,1,0,0:0:0:0:
320,192,203058,1,0,0:0:0:0:
448,192,203058,1,0,0:0:0:0:
448,192,203122,1,0,0:0:0:0:
320,192,203122,1,0,0:0:0:0:
192,192,203187,1,0,0:0:0:0:
64,192,203187,1,0,0:0:0:0:
192,192,203251,1,0,0:0:0:0:
64,192,203251,1,0,0:0:0:0:
448,192,203316,1,0,0:0:0:0:
320,192,203316,1,0,0:0:0:0:
192,192,203471,1,0,0:0:0:0:
320,192,203471,1,0,0:0:0:0:
64,192,203574,1,0,0:0:0:0:
448,192,203574,1,0,0:0:0:0:
320,192,203639,1,0,0:0:0:0:
192,192,203639,1,0,0:0:0:0:
448,192,203703,1,0,0:0:0:0:
64,192,203703,1,0,0:0:0:0:
320,192,203768,1,0,0:0:0:0:
192,192,203768,1,0,0:0:0:0:
64,192,203858,1,0,0:0:0:0:
448,192,203935,1,0,0:0:0:0:
64,192,204013,1,0,0:0:0:0:
448,192,204090,1,0,0:0:0:0:
320,192,204155,1,0,0:0:0:0:
320,192,204219,1,0,0:0:0:0:
192,192,204400,1,0,0:0:0:0:
192,192,204477,1,0,0:0:0:0:
448,192,204555,1,0,0:0:0:0:
192,192,204632,1,0,0:0:0:0:
320,192,204710,1,0,0:0:0:0:
64,192,204710,1,0,0:0:0:0:
64,192,204787,1,0,0:0:0:0:
320,192,204787,1,0,0:0:0:0:
192,192,204864,1,0,0:0:0:0:
64,192,204942,1,0,0:0:0:0:
320,192,204942,1,0,0:0:0:0:
448,192,205019,1,0,0:0:0:0:
64,192,205097,1,0,0:0:0:0:
320,192,205097,1,0,0:0:0:0:
192,192,205187,1,0,0:0:0:0:
320,192,205187,1,0,0:0:0:0:
448,192,205187,1,0,0:0:0:0:
192,192,205329,1,0,0:0:0:0:
64,192,205406,1,0,0:0:0:0:
192,192,205445,1,0,0:0:0:0:
320,192,205484,1,0,0:0:0:0:
64,192,205639,1,0,0:0:0:0:
448,192,205639,1,0,0:0:0:0:
192,192,205793,1,0,0:0:0:0:
64,192,205793,1,0,0:0:0:0:
192,192,205948,1,0,0:0:0:0:
64,192,205948,1,0,0:0:0:0:
320,192,206103,1,0,0:0:0:0:
320,192,206258,1,0,0:0:0:0:
448,192,206413,1,0,0:0:0:0:
192,192,206413,1,0,0:0:0:0:
448,192,206568,1,0,0:0:0:0:
448,192,206722,1,0,0:0:0:0:
192,192,206839,1,0,0:0:0:0:
448,192,206839,1,0,0:0:0:0:
320,192,207032,1,0,0:0:0:0:
192,192,207187,1,0,0:0:0:0:
64,192,207187,1,0,0:0:0:0:
320,192,207316,1,0,0:0:0:0:
64,192,207381,1,0,0:0:0:0:
192,192,207381,1,0,0:0:0:0:
320,192,207510,1,0,0:0:0:0:
448,192,207574,1,0,0:0:0:0:
320,192,207703,1,0,0:0:0:0:
64,192,207961,1,0,0:0:0:0:
192,192,208026,1,0,0:0:0:0:
320,192,208026,1,0,0:0:0:0:
64,192,208155,1,0,0:0:0:0:
192,192,208219,1,0,0:0:0:0:
320,192,208219,1,0,0:0:0:0:
320,192,208348,1,0,0:0:0:0:
192,192,208464,1,0,0:0:0:0:
64,192,208542,1,0,0:0:0:0:
320,192,208619,1,0,0:0:0:0:
192,192,208619,1,0,0:0:0:0:
320,192,208697,1,0,0:0:0:0:
448,192,208890,1,0,0:0:0:0:
64,192,208890,1,0,0:0:0:0:
192,192,208929,1,0,0:0:0:0:
448,192,209122,1,0,0:0:0:0:
320,192,209355,1,0,0:0:0:0:
192,192,209355,1,0,0:0:0:0:
448,192,209432,1,0,0:0:0:0:
64,192,209510,1,0,0:0:0:0:
192,192,209606,1,0,0:0:0:0:
64,192,209606,1,0,0:0:0:0:
448,192,209703,1,0,0:0:0:0:
320,192,209819,1,0,0:0:0:0:
64,192,209858,1,0,0:0:0:0:
448,192,209858,1,0,0:0:0:0:
192,192,209897,1,0,0:0:0:0:
320,192,209935,1,0,0:0:0:0:
448,192,210051,1,0,0:0:0:0:
64,192,210051,1,0,0:0:0:0:
320,192,210129,1,0,0:0:0:0:
64,192,210322,1,0,0:0:0:0:
192,192,210322,1,0,0:0:0:0:
448,192,210477,1,0,0:0:0:0:
192,192,210555,1,0,0:0:0:0:
320,192,210671,1,0,0:0:0:0:
64,192,210671,1,0,0:0:0:0:
320,192,210826,1,0,0:0:0:0:
320,192,210942,1,0,0:0:0:0:
64,192,211010,1,0,0:0:0:0:
320,192,211058,1,0,0:0:0:0:
192,192,211058,1,0,0:0:0:0:
448,192,211155,1,0,0:0:0:0:
320,192,211251,1,0,0:0:0:0:
448,192,211348,1,0,0:0:0:0:
320,192,211445,1,0,0:0:0:0:
192,192,211522,1,0,0:0:0:0:
448,192,211600,1,0,0:0:0:0:
64,192,211600,1,0,0:0:0:0:
64,192,211677,1,0,0:0:0:0:
192,192,211677,1,0,0:0:0:0:
320,192,211784,1,0,0:0:0:0:
64,192,212026,1,0,0:0:0:0:
192,192,212219,1,0,0:0:0:0:
320,192,212413,1,0,0:0:0:0:
448,192,212413,1,0,0:0:0:0:
64,192,212413,1,0,0:0:0:0:
192,192,212606,1,0,0:0:0:0:
64,192,212606,1,0,0:0:0:0:
448,192,212800,1,0,0:0:0:0:
64,192,212877,1,0,0:0:0:0:
320,192,212877,1,0,0:0:0:0:
448,192,212993,1,0,0:0:0:0:
192,192,213187,1,0,0:0:0:0:
192,192,213381,1,0,0:0:0:0:
192,192,213535,1,0,0:0:0:0:
320,192,213613,1,0,0:0:0:0:
64,192,213690,1,0,0:0:0:0:
192,192,213768,1,0,0:0:0:0:
320,192,213845,1,0,0:0:0:0:
448,192,213922,1,0,0:0:0:0:
192,192,214000,1,0,0:0:0:0:
320,192,214077,1,0,0:0:0:0:
64,192,214155,1,0,0:0:0:0:
192,192,214232,1,0,0:0:0:0:
448,192,214284,1,0,0:0:0:0:
320,192,214348,1,0,0:0:0:0:
192,192,214413,1,0,0:0:0:0:
320,192,214477,1,0,0:0:0:0:
448,192,214542,1,0,0:0:0:0:
64,192,214639,1,0,0:0:0:0:
192,192,214735,1,0,0:0:0:0:
320,192,214832,1,0,0:0:0:0:
64,192,214929,1,0,0:0:0:0:
192,192,215026,1,0,0:0:0:0:
64,192,215122,1,0,0:0:0:0:
320,192,215161,1,0,0:0:0:0:
192,192,215239,1,0,0:0:0:0:
448,192,215316,1,0,0:0:0:0:
64,192,215381,1,0,0:0:0:0:
448,192,215445,1,0,0:0:0:0:
64,192,215510,1,0,0:0:0:0:
448,192,215574,1,0,0:0:0:0:
64,192,215639,1,0,0:0:0:0:
448,192,215703,1,0,0:0:0:0:
64,192,215768,1,0,0:0:0:0:
448,192,215858,1,0,0:0:0:0:
192,192,215935,1,0,0:0:0:0:
320,192,216013,1,0,0:0:0:0:
64,192,216090,1,0,0:0:0:0:
192,192,216155,1,0,0:0:0:0:
320,192,216219,1,0,0:0:0:0:
448,192,216284,1,0,0:0:0:0:
192,192,216348,1,0,0:0:0:0:
320,192,216413,1,0,0:0:0:0:
64,192,216477,1,0,0:0:0:0:
192,192,216542,1,0,0:0:0:0:
320,192,216606,1,0,0:0:0:0:
448,192,216671,1,0,0:0:0:0:
192,192,216735,1,0,0:0:0:0:
320,192,216800,1,0,0:0:0:0:
64,192,216864,1,0,0:0:0:0:
192,192,216929,1,0,0:0:0:0:
320,192,217019,1,0,0:0:0:0:
64,192,217097,1,0,0:0:0:0:
192,192,217174,1,0,0:0:0:0:
448,192,217251,1,0,0:0:0:0:
64,192,217348,1,0,0:0:0:0:
320,192,217445,1,0,0:0:0:0:
64,192,217542,1,0,0:0:0:0:
192,192,217639,1,0,0:0:0:0:
64,192,217735,1,0,0:0:0:0:
320,192,217897,1,0,0:0:0:0:
64,192,217961,1,0,0:0:0:0:
448,192,217961,1,0,0:0:0:0:
320,192,218103,1,0,0:0:0:0:
192,192,218181,1,0,0:0:0:0:
320,192,218297,1,0,0:0:0:0:
320,192,218568,1,0,0:0:0:0:
448,192,218800,1,0,0:0:0:0:
320,192,218800,1,0,0:0:0:0:
320,192,218955,1,0,0:0:0:0:
64,192,218993,1,0,0:0:0:0:
448,192,219148,1,0,0:0:0:0:
192,192,219264,1,0,0:0:0:0:
64,192,219303,1,0,0:0:0:0:
320,192,219303,1,0,0:0:0:0:
192,192,219574,1,0,0:0:0:0:
448,192,219768,1,0,0:0:0:0:
320,192,219922,1,0,0:0:0:0:
192,192,219961,1,0,0:0:0:0:
320,192,220039,1,0,0:0:0:0:
192,192,220116,1,0,0:0:0:0:
320,192,220193,1,0,0:0:0:0:
192,192,220271,1,0,0:0:0:0:
320,192,220348,1,0,0:0:0:0:
64,192,220348,1,0,0:0:0:0:
320,192,220606,1,0,0:0:0:0:
448,192,220606,1,0,0:0:0:0:
448,192,220697,1,0,0:0:0:0:
64,192,220735,1,0,0:0:0:0:
320,192,220929,1,0,0:0:0:0:
448,192,221122,1,0,0:0:0:0:
320,192,221316,1,0,0:0:0:0:
64,192,221316,1,0,0:0:0:0:
320,192,221510,1,0,0:0:0:0:
192,192,221510,1,0,0:0:0:0:
64,192,221703,1,0,0:0:0:0:
320,192,222671,1,0,0:0:0:0:
192,192,222864,1,0,0:0:0:0:
448,192,223058,1,0,0:0:0:0:
64,192,223058,1,0,0:0:0:0:
320,192,223058,1,0,0:0:0:0:
64,192,223122,1,0,0:0:0:0:
192,192,223187,1,0,0:0:0:0:
448,192,223251,1,0,0:0:0:0:
320,192,223251,1,0,0:0:0:0:
64,192,223251,1,0,0:0:0:0:
448,192,223316,1,0,0:0:0:0:
320,192,223381,1,0,0:0:0:0:
64,192,223445,1,0,0:0:0:0:
320,192,223639,1,0,0:0:0:0:
320,192,223832,1,0,0:0:0:0:
64,192,224026,1,0,0:0:0:0:
64,192,224219,1,0,0:0:0:0:
320,192,224413,1,0,0:0:0:0:
320,192,224606,1,0,0:0:0:0:
448,192,224671,1,0,0:0:0:0:
192,192,224800,1,0,0:0:0:0:
192,192,224993,1,0,0:0:0:0:
320,192,225187,1,0,0:0:0:0:
320,192,225381,1,0,0:0:0:0:
64,192,225574,1,0,0:0:0:0:
64,192,225768,1,0,0:0:0:0:
320,192,225961,1,0,0:0:0:0:
320,192,226155,1,0,0:0:0:0:
448,192,226251,1,0,0:0:0:0:
192,192,226348,1,0,0:0:0:0:
192,192,226542,1,0,0:0:0:0:
320,192,226735,1,0,0:0:0:0:
320,192,226929,1,0,0:0:0:0:
64,192,227122,1,0,0:0:0:0:
64,192,227316,1,0,0:0:0:0:
320,192,227510,1,0,0:0:0:0:
320,192,227703,1,0,0:0:0:0:
448,192,227735,1,0,0:0:0:0:
320,192,227897,1,0,0:0:0:0:
192,192,228090,1,0,0:0:0:0:
64,192,228122,1,0,0:0:0:0:
448,192,228155,1,0,0:0:0:0:
320,192,228187,1,0,0:0:0:0:
192,192,228219,1,0,0:0:0:0:
320,192,228348,1,0,0:0:0:0:
448,192,228381,1,0,0:0:0:0:
64,192,228413,1,0,0:0:0:0:
192,192,228445,1,0,0:0:0:0:
320,192,228477,1,0,0:0:0:0:
64,192,228606,1,0,0:0:0:0:
64,192,228735,1,0,0:0:0:0:
448,192,228864,1,0,0:0:0:0:
192,192,228897,1,0,0:0:0:0:
320,192,228929,1,0,0:0:0:0:
64,192,228961,1,0,0:0:0:0:
448,192,228993,1,0,0:0:0:0:
320,192,229122,1,0,0:0:0:0:
64,192,229122,1,0,0:0:0:0:
192,192,229155,1,0,0:0:0:0:
448,192,229187,1,0,0:0:0:0:
64,192,229251,1,0,0:0:0:0:
320,192,229381,1,0,0:0:0:0:
320,192,229510,1,0,0:0:0:0:
64,192,229639,1,0,0:0:0:0:
320,192,229832,1,0,0:0:0:0:
320,192,230026,1,0,0:0:0:0:
64,192,230219,1,0,0:0:0:0:
64,192,230413,1,0,0:0:0:0:
320,192,230606,1,0,0:0:0:0:
320,192,230800,1,0,0:0:0:0:
448,192,230864,1,0,0:0:0:0:
192,192,230993,1,0,0:0:0:0:
192,192,231187,1,0,0:0:0:0:
320,192,231381,1,0,0:0:0:0:
320,192,231574,1,0,0:0:0:0:
64,192,231768,1,0,0:0:0:0:
64,192,231961,1,0,0:0:0:0:
320,192,232155,1,0,0:0:0:0:
320,192,232348,1,0,0:0:0:0:
448,192,232445,1,0,0:0:0:0:
192,192,232542,1,0,0:0:0:0:
192,192,232735,1,0,0:0:0:0:
320,192,232929,1,0,0:0:0:0:
320,192,233122,1,0,0:0:0:0:
64,192,233316,1,0,0:0:0:0:
64,192,233510,1,0,0:0:0:0:
320,192,233703,1,0,0:0:0:0:
320,192,233897,1,0,0:0:0:0:
448,192,233929,1,0,0:0:0:0:
320,192,234090,1,0,0:0:0:0:
192,192,234284,1,0,0:0:0:0:
320,192,234477,1,0,0:0:0:0:
320,192,234671,1,0,0:0:0:0:
64,192,234864,1,0,0:0:0:0:
64,192,235058,1,0,0:0:0:0:
192,192,235251,1,0,0:0:0:0:
192,192,235348,1,0,0:0:0:0:
64,192,235348,1,0,0:0:0:0:
448,192,235445,1,0,0:0:0:0:
192,192,235542,1,0,0:0:0:0:
64,192,235542,1,0,0:0:0:0:
320,192,235639,1,0,0:0:0:0:
64,192,235832,1,0,0:0:0:0:
448,192,235832,1,0,0:0:0:0:
64,192,236413,1,0,0:0:0:0:
192,192,236413,1,0,0:0:0:0:
64,192,236606,1,0,0:0:0:0:
192,192,236606,1,0,0:0:0:0:
320,192,236800,1,0,0:0:0:0:
320,192,236993,1,0,0:0:0:0:
64,192,236993,1,0,0:0:0:0:
192,192,237187,1,0,0:0:0:0:
320,192,237284,1,0,0:0:0:0:
192,192,237381,1,0,0:0:0:0:
448,192,237381,1,0,0:0:0:0:
320,192,237445,1,0,0:0:0:0:
192,192,237510,1,0,0:0:0:0:
320,192,237574,1,0,0:0:0:0:
64,192,237671,1,0,0:0:0:0:
320,192,237768,1,0,0:0:0:0:
192,192,237768,1,0,0:0:0:0:
448,192,237864,1,0,0:0:0:0:
320,192,237864,1,0,0:0:0:0:
64,192,237961,1,0,0:0:0:0:
192,192,237961,1,0,0:0:0:0:
448,192,238058,1,0,0:0:0:0:
64,192,238155,1,0,0:0:0:0:
192,192,238155,1,0,0:0:0:0:
448,192,238284,1,0,0:0:0:0:
320,192,238284,1,0,0:0:0:0:
192,192,238348,1,0,0:0:0:0:
64,192,238413,1,0,0:0:0:0:
448,192,238413,1,0,0:0:0:0:
320,192,238542,1,0,0:0:0:0:
64,192,238542,1,0,0:0:0:0:
320,192,238639,1,0,0:0:0:0:
448,192,238639,1,0,0:0:0:0:
64,192,238735,1,0,0:0:0:0:
192,192,238832,1,0,0:0:0:0:
192,192,238929,1,0,0:0:0:0:
448,192,238929,1,0,0:0:0:0:
320,192,239122,1,0,0:0:0:0:
192,192,239122,1,0,0:0:0:0:
320,192,239316,1,0,0:0:0:0:
448,192,239413,1,0,0:0:0:0:
64,192,239413,1,0,0:0:0:0:
64,192,239510,1,0,0:0:0:0:
192,192,239510,1,0,0:0:0:0:
64,192,239703,1,0,0:0:0:0:
192,192,239703,1,0,0:0:0:0:
448,192,239800,1,0,0:0:0:0:
320,192,239848,1,0,0:0:0:0:
64,192,239897,1,0,0:0:0:0:
320,192,239993,1,0,0:0:0:0:
192,192,239993,1,0,0:0:0:0:
192,192,240477,1,0,0:0:0:0:
448,192,240477,1,0,0:0:0:0:
320,192,240671,1,0,0:0:0:0:
320,192,240864,1,0,0:0:0:0:
64,192,241058,1,0,0:0:0:0:
192,192,241058,1,0,0:0:0:0:
64,192,241251,1,0,0:0:0:0:
192,192,241251,1,0,0:0:0:0:
320,192,241381,1,0,0:0:0:0:
320,192,241510,1,0,0:0:0:0:
192,192,241510,1,0,0:0:0:0:
320,192,241832,1,0,0:0:0:0:
448,192,241832,1,0,0:0:0:0:
64,192,242026,1,0,0:0:0:0:
448,192,242026,1,0,0:0:0:0:
320,192,242219,1,0,0:0:0:0:
320,192,242413,1,0,0:0:0:0:
64,192,242606,1,0,0:0:0:0:
192,192,242606,1,0,0:0:0:0:
64,192,242800,1,0,0:0:0:0:
192,192,242800,1,0,0:0:0:0:
320,192,242993,1,0,0:0:0:0:
192,192,242993,1,0,0:0:0:0:
320,192,243187,1,0,0:0:0:0:
64,192,243187,1,0,0:0:0:0:
192,192,243381,1,0,0:0:0:0:
320,192,243497,1,0,0:0:0:0:
448,192,243497,1,0,0:0:0:0:
192,192,243574,1,0,0:0:0:0:
448,192,243574,1,0,0:0:0:0:
320,192,243768,1,0,0:0:0:0:
320,192,243961,1,0,0:0:0:0:
64,192,244155,1,0,0:0:0:0:
192,192,244155,1,0,0:0:0:0:
64,192,244348,1,0,0:0:0:0:
192,192,244348,1,0,0:0:0:0:
320,192,244542,1,0,0:0:0:0:
64,192,244542,1,0,0:0:0:0:
320,192,244735,1,0,0:0:0:0:
64,192,244735,1,0,0:0:0:0:
192,192,244929,1,0,0:0:0:0:
192,192,245122,1,0,0:0:0:0:
448,192,245122,1,0,0:0:0:0:
320,192,245316,1,0,0:0:0:0:
192,192,245413,1,0,0:0:0:0:
320,192,245510,1,0,0:0:0:0:
448,192,245510,1,0,0:0:0:0:
192,192,245703,1,0,0:0:0:0:
64,192,245897,1,0,0:0:0:0:
192,192,245897,1,0,0:0:0:0:
320,192,246090,1,0,0:0:0:0:
64,192,246187,1,0,0:0:0:0:
192,192,246284,1,0,0:0:0:0:
320,192,246284,1,0,0:0:0:0:
448,192,246381,1,0,0:0:0:0:
320,192,246477,1,0,0:0:0:0:
64,192,246477,1,0,0:0:0:0:
192,192,246574,1,0,0:0:0:0:
192,192,246671,1,0,0:0:0:0:
448,192,246671,1,0,0:0:0:0:
320,192,246864,1,0,0:0:0:0:
320,192,247058,1,0,0:0:0:0:
64,192,247251,1,0,0:0:0:0:
192,192,247251,1,0,0:0:0:0:
64,192,247445,1,0,0:0:0:0:
192,192,247445,1,0,0:0:0:0:
320,192,247639,1,0,0:0:0:0:
64,192,247735,1,0,0:0:0:0:
448,192,247735,1,0,0:0:0:0:
192,192,247832,1,0,0:0:0:0:
64,192,247929,1,0,0:0:0:0:
448,192,247929,1,0,0:0:0:0:
320,192,248026,1,0,0:0:0:0:
192,192,248122,1,0,0:0:0:0:
64,192,248122,1,0,0:0:0:0:
