osu file format v14

[General]
AudioFilename: audio.mp3
AudioLeadIn: 0
PreviewTime:57988
Countdown: 0
SampleSet: Soft
StackLeniency: 0.7
Mode: 0
LetterboxInBreaks: 0
WidescreenStoryboard: 1

[Editor]
DistanceSpacing: 0.2
BeatDivisor: 4
GridSize: 32
TimelineZoom: 1

[Metadata]
Title:Issee noo de
TitleUnicode:いっせーのーで
Artist:KAF feat. KAFU
ArtistUnicode:花譜 feat. 可不
Creator:Kotoha
Version:Asteres Aplanis
Source:
Tags:ayucchi rtyzen -__-_ jpop pop j-pop japanese mimi kaf kafu はるお けけ 可不 花譜 かふ CeVIO AI vtuber vtb virtual youtuber vsinger singer KAMITSUBAKI STUDIO 神椿スタジオ sinsekai studio city project 深脊界 thinkr artificial singing synthesizer vocaloid female vocalist zevinlevin segula mosebye rzatlit nicorabel voltia v0ltia
BeatmapID:3650152
BeatmapSetID:1782440

[Difficulty]
HPDrainRate:5
CircleSize:4.2
OverallDifficulty:8
ApproachRate:9
SliderMultiplier:1.8
SliderTickRate:1

[Events]
//Background and Video events
0,0,"FRlLv08UYAI8k9C.jpg",0,0
//Break Periods
//Storyboard Layer 0 (Background)
//Storyboard Layer 1 (Fail)
//Storyboard Layer 2 (Pass)
//Storyboard Layer 3 (Foreground)
//Storyboard Layer 4 (Overlay)
//Storyboard Sound Samples

[TimingPoints]
-1337,337.078651685393,4,2,1,100,1,0
3719,-66.6666666666667,4,2,1,80,0,0
4056,-100,4,2,1,70,0,0
25629,-125,4,2,1,45,0,0
36415,-125,4,2,1,70,0,0
47202,-133.333333333333,4,2,1,65,0,0
55292,-111.111111111111,4,2,1,75,0,0
57314,-333.333333333333,4,2,1,75,0,0
57988,-86.9565217391304,4,2,1,80,0,1
79561,-100,4,2,1,70,0,0
90348,-125,4,2,1,60,0,0
101134,-117.647058823529,4,2,1,55,0,0
111921,-100,4,2,1,70,0,0
122707,-83.3333333333333,4,2,1,80,0,1
127764,-100,4,2,1,80,0,1
128101,-80,4,2,1,80,0,1
133157,-86.9565217391304,4,2,1,80,0,1
133494,-80,4,2,1,80,0,1
144280,-90.9090909090909,4,2,1,70,0,0

[Colours]
Combo1 : 173,240,252
Combo2 : 254,167,225
Combo3 : 255,255,128
Combo4 : 207,207,207

[HitObjects]
256,192,348,12,0,3382,0:0:0:0:
27,365,3719,6,0,B|2:306|61:269|61:269|21:305|34:362,1,202.500007724762,0|0,1:0|0:0,0:0:0:0:
109,333,4056,5,6,1:2:0:0:
116,337,4224,1,0,0:0:0:0:
170,160,4393,5,10,0:0:0:0:
104,100,4561,1,2,1:2:0:0:
1,220,4730,2,0,P|39:201|109:180,1,90,2|0,0:0|1:2,0:0:0:0:
185,74,5067,5,10,0:0:0:0:
258,120,5236,1,2,0:0:0:0:
400,0,5404,5,0,1:0:0:0:
361,105,5573,1,2,0:0:0:0:
323,210,5741,1,8,0:0:0:0:
455,297,5910,6,0,B|465:269|493:259|493:259|345:313,1,180,2|0,1:2|1:2,0:0:0:0:
289,372,6415,1,10,0:0:0:0:
281,366,6584,1,2,0:0:0:0:
199,238,6752,6,0,P|241:253|260:300,1,90,2|0,1:2|0:0,0:0:0:0:
105,344,7090,2,0,P|143:325|213:304,1,90,10|0,0:0|0:0,0:0:0:0:
298,203,7427,5,2,1:2:0:0:
337,103,7595,1,0,1:2:0:0:
211,24,7764,5,10,0:0:0:0:
250,124,7932,1,2,0:0:0:0:
244,281,8101,5,0,1:0:0:0:
128,239,8270,1,2,0:0:0:0:
12,197,8438,1,10,0:0:0:0:
56,41,8606,6,0,B|88:129|88:129|147:155|172:77,1,180,2|0,1:2|1:0,0:0:0:0:
200,14,9112,1,10,0:0:0:0:
267,42,9281,1,2,0:0:0:0:
369,155,9449,5,2,1:2:0:0:
377,150,9618,1,0,0:0:0:0:
489,16,9786,5,10,0:0:0:0:
406,52,9955,1,2,1:2:0:0:
512,168,10123,2,0,P|492:208|478:251,1,90,2|0,0:0|1:2,0:0:0:0:
347,312,10460,5,10,0:0:0:0:
474,343,10629,2,0,P|429:375|373:370,1,90,2|0,0:0|1:0,0:0:0:0:
280,269,10966,5,2,0:0:0:0:
360,204,11134,1,8,0:0:0:0:
264,356,11303,6,0,P|213:328|232:201,1,180,2|0,1:2|1:2,0:0:0:0:
284,155,11809,1,10,0:0:0:0:
280,146,11977,1,2,0:0:0:0:
193,25,12146,6,0,P|152:44|109:58,1,90,2|0,1:2|0:0,0:0:0:0:
163,193,12483,2,0,P|191:142|173:104,1,90,10|0,0:0|0:0,0:0:0:0:
79,243,12820,5,2,1:2:0:0:
171,290,12988,1,0,1:2:0:0:
253,374,13157,5,10,0:0:0:0:
335,331,13325,1,2,0:0:0:0:
460,307,13494,5,0,1:0:0:0:
392,281,13662,1,2,0:0:0:0:
323,256,13831,1,10,0:0:0:0:
365,132,14000,6,0,B|365:194|418:194|418:194|380:170|380:111,1,180,2|2,1:2|1:2,0:0:0:0:
474,50,14505,1,10,0:0:0:0:
460,125,14674,1,2,0:0:0:0:
342,54,14842,5,6,1:2:0:0:
335,44,15011,1,0,0:0:0:0:
229,217,15179,5,10,0:0:0:0:
296,179,15348,1,2,1:2:0:0:
205,54,15516,2,0,P|218:96|228:140,1,90,2|0,0:0|1:2,0:0:0:0:
96,222,15854,5,10,0:0:0:0:
157,179,16022,1,2,0:0:0:0:
300,256,16191,5,0,1:0:0:0:
359,315,16359,1,2,0:0:0:0:
440,291,16528,1,10,0:0:0:0:
400,110,16696,6,0,B|380:125|348:126|348:126|476:171,1,180,2|0,1:2|1:0,0:0:0:0:
344,45,17202,1,10,0:0:0:0:
349,50,17370,1,2,0:0:0:0:
361,176,17539,6,0,P|403:119|382:89,1,90,2|0,1:2|0:0,0:0:0:0:
245,218,17876,2,0,P|291:233|342:259,1,90,10|0,0:0|0:0,0:0:0:0:
271,97,18213,5,2,1:2:0:0:
203,152,18382,1,0,1:2:0:0:
71,170,18550,5,10,0:0:0:0:
159,225,18719,1,2,0:0:0:0:
332,339,18887,5,0,1:0:0:0:
411,280,19056,1,2,0:0:0:0:
389,177,19224,1,8,0:0:0:0:
211,298,19393,6,0,B|320:250|320:250|278:262|240:198,1,180,2|0,1:2|1:0,0:0:0:0:
159,225,19899,1,10,0:0:0:0:
152,232,20067,1,2,0:0:0:0:
311,172,20236,5,2,1:2:0:0:
256,117,20404,1,0,0:0:0:0:
382,11,20573,5,10,0:0:0:0:
339,91,20741,1,2,1:2:0:0:
163,63,20910,2,0,P|219:46|260:25,1,90,2|0,0:0|1:2,0:0:0:0:
192,187,21247,5,10,0:0:0:0:
87,74,21415,2,0,P|96:19|144:-5,1,90,2|0,0:0|1:0,0:0:0:0:
256,117,21752,5,2,0:0:0:0:
192,187,21921,1,10,0:0:0:0:
248,295,22090,6,0,P|291:323|392:249,1,180,2|0,1:2|1:0,0:0:0:0:
339,147,22595,1,10,0:0:0:0:
332,155,22764,1,2,0:0:0:0:
479,82,22932,6,0,P|461:132|449:177,1,90,2|0,1:2|0:0,0:0:0:0:
441,324,23269,2,0,P|416:271|375:266,1,90,10|0,0:0|0:0,0:0:0:0:
230,264,23606,5,2,1:2:0:0:
300,302,23775,1,0,1:2:0:0:
163,306,23943,5,10,0:0:0:0:
296,231,24112,1,2,0:0:0:0:
107,48,24281,5,0,1:0:0:0:
150,119,24449,1,2,0:0:0:0:
189,195,24618,1,8,0:0:0:0:
175,124,24786,6,0,B|210:91|190:41|190:41|196:94|151:122,1,180,2|0,1:2|1:0,0:0:0:0:
80,232,25292,1,8,0:0:0:0:
155,198,25460,1,2,0:0:0:0:
219,250,25629,6,0,P|188:321|161:407,1,144,2|0,0:0|0:0,0:0:0:0:
167,384,26134,1,0,0:0:0:0:
109,317,26303,1,2,0:0:0:0:
258,138,26640,2,0,P|273:170|285:204,1,72,2|2,0:0|0:0,0:0:0:0:
337,350,26977,38,0,P|367:278|394:192,1,144,2|0,0:0|0:0,0:0:0:0:
389,216,27483,1,0,0:0:0:0:
447,283,27651,1,2,0:0:0:0:
512,10,27988,2,0,P|486:56|422:48,1,108,2|0,0:0|0:0,0:0:0:0:
411,49,28325,5,2,0:0:0:0:
336,21,28494,1,0,0:0:0:0:
302,143,28663,2,0,P|293:108|279:76,1,72
174,6,29000,1,2,0:0:0:0:
123,66,29168,1,0,0:0:0:0:
43,68,29337,2,0,P|57:100|66:135,1,72,2|0,0:0|0:0,0:0:0:0:
0,212,29674,38,0,P|57:220|148:288,2,144,2|2|2,0:0|0:0|0:0,0:0:0:0:
221,145,30685,2,0,P|191:175|189:210,1,72,2|2,0:0|0:0,0:0:0:0:
246,278,31022,6,0,P|254:243|269:210,1,72,2|0,0:0|0:0,0:0:0:0:
180,313,31359,1,2,0:0:0:0:
285,341,31528,2,0,P|317:326|352:317,1,72,0|2,0:0|0:0,0:0:0:0:
430,101,32033,2,0,P|438:135|453:168,1,72,2|0,0:0|0:0,0:0:0:0:
512,105,32370,37,2,0:0:0:0:
436,17,32539,2,0,P|403:31|368:40,1,72,0|2,0:0|0:0,0:0:0:0:
295,105,32876,1,0,0:0:0:0:
224,78,33045,1,2,0:0:0:0:
0,134,33382,5,0,0:0:0:0:
71,109,33550,1,0,0:0:0:0:
126,161,33719,1,2,0:0:0:0:
18,357,34056,2,0,P|-4:322|6:283,1,72,2|0,0:0|0:0,0:0:0:0:
35,226,34393,1,2,0:0:0:0:
107,351,34561,2,0,B|148:331|199:317|199:317|220:328|243:325,1,144,2|0,0:0|0:0,0:0:0:0:
285,206,35067,38,0,P|248:229|235:257,1,72,2|0,0:0|0:0,0:0:0:0:
351,153,35404,2,0,P|349:109|331:84,1,72,2|0,0:0|0:0,0:0:0:0:
365,236,35741,2,0,P|403:256|434:253,1,72,2|0,0:0|0:0,0:0:0:0:
492,155,36078,2,0,P|459:169|424:178,1,72,2|2,0:0|0:0,0:0:0:0:
309,287,36415,22,0,P|289:227|262:148,1,144,6|8,1:2|0:0,0:0:0:0:
333,91,36921,1,0,1:2:0:0:
262,150,37090,1,2,0:0:0:0:
92,71,37427,2,0,P|129:107|122:139,1,72,10|2,0:0|0:0,0:0:0:0:
109,305,37764,6,0,P|120:235|171:186,1,144,2|8,1:2|0:0,0:0:0:0:
58,370,38269,1,0,1:2:0:0:
109,305,38438,1,2,0:0:0:0:
222,382,38775,2,0,P|264:364|335:341,1,108,10|0,0:0|0:0,0:0:0:0:
339,351,39112,37,2,1:2:0:0:
405,383,39281,1,0,0:0:0:0:
489,242,39449,2,0,P|477:276|468:311,1,72,10|0,0:0|1:2,0:0:0:0:
346,132,39786,1,2,0:0:0:0:
423,188,39955,1,2,1:2:0:0:
512,141,40123,2,0,P|514:93|479:66,1,72,10|0,0:0|0:0,0:0:0:0:
267,70,40460,6,0,P|336:50|417:14,2,144,2|10|2,1:2|0:0|0:0,0:0:0:0:
350,260,41472,2,0,P|359:221|319:188,1,72,10|2,0:0|0:0,0:0:0:0:
190,236,41809,38,0,P|239:250|277:275,1,72,2|0,1:2|0:0,0:0:0:0:
49,202,42146,1,10,0:0:0:0:
136,172,42314,2,0,P|175:139|164:102,1,72,0|2,1:2|0:0,0:0:0:0:
100,310,42820,2,0,P|139:289|187:271,1,72,10|2,0:0|0:0,0:0:0:0:
47,382,43157,5,2,1:2:0:0:
24,192,43325,2,0,P|63:225|52:262,1,72,0|10,0:0|0:0,0:0:0:0:
165,277,43663,1,0,1:2:0:0:
1,302,43831,1,2,0:0:0:0:
252,130,44168,37,10,0:0:0:0:
173,181,44337,1,2,0:0:0:0:
145,265,44505,2,0,P|167:319|174:350,1,72,2|0,1:2|0:0,0:0:0:0:
319,306,44842,2,0,P|343:267|328:235,1,72,10|0,0:0|1:2,0:0:0:0:
252,130,45179,2,0,B|340:128|300:180|382:175,1,144,2|10,0:0|0:0,0:0:0:0:
287,54,45685,5,2,1:2:0:0:
182,196,46022,1,2,1:2:0:0:
196,21,46359,37,2,1:2:0:0:
265,241,46528,1,2,1:2:0:0:
92,289,47033,1,2,0:0:0:0:
138,352,47202,22,0,P|166:310|163:279,1,67.5000025749208,6|0,1:2|0:0,0:0:0:0:
135,223,47539,1,0,0:0:0:0:
271,205,47707,2,0,P|238:215|208:230,1,67.5000025749208,2|8,1:2|3:0,0:0:0:0:
208,145,48045,1,0,0:0:0:0:
281,220,48213,2,0,P|291:187|306:157,1,67.5000025749208
289,23,48550,6,0,P|321:84|404:79,1,135.000005149842,2|0,1:2|0:0,0:0:0:0:
495,74,49056,2,0,B|479:43|434:32|434:32|459:51|464:101,1,135.000005149842,2|0,1:2|0:0,0:0:0:0:
410,170,49561,2,0,P|425:200|435:232,1,67.5000025749208,2|0,1:2|0:0,0:0:0:0:
413,352,49899,6,0,P|398:293|340:310,1,135.000005149842,2|0,1:2|0:0,0:0:0:0:
449,306,50404,1,2,1:2:0:0:
340,309,50573,6,0,P|333:348|322:376,1,67.5000025749208,10|2,3:0|0:0,0:0:0:0:
204,381,50910,2,0,P|176:352|186:314,1,67.5000025749208,2|0,0:0|0:0,0:0:0:0:
195,222,51247,37,2,1:2:0:0:
224,198,51415,5,0,0:0:0:0:
286,241,51584,37,2,0:0:0:0:
363,192,51752,5,2,1:2:0:0:
305,95,51921,38,0,P|298:144|294:169,1,67.5000025749208,10|0,3:0|0:0,0:0:0:0:
176,216,52258,2,0,P|130:206|126:175,1,67.5000025749208
137,75,52595,22,0,P|162:132|193:229,1,135.000005149842,2|2,1:2|0:0,0:0:0:0:
250,256,53101,1,2,1:2:0:0:
157,339,53269,2,0,P|114:329|96:301,1,67.5000025749208,8|0,3:0|0:0,0:0:0:0:
215,384,53606,2,0,P|243:369|282:359,1,67.5000025749208,2|0,0:0|0:0,0:0:0:0:
304,220,53943,6,0,P|307:253|289:281,1,67.5000025749208,2|0,1:2|0:0,0:0:0:0:
222,188,54281,5,2,0:0:0:0:
294,141,54449,5,2,1:2:0:0:
226,67,54618,5,8,3:0:0:0:
270,129,54786,5,2,0:0:0:0:
318,51,54955,1,2,1:2:0:0:
173,127,55123,1,2,0:0:0:0:
295,208,55292,22,0,P|336:218|376:237,1,80.9999975280763,2|0,1:2|0:0,0:0:0:0:
483,140,55629,2,0,P|446:156|406:166,1,80.9999975280763,2|0,1:2|0:0,0:0:0:0:
330,129,55966,1,2,1:2:0:0:
444,239,56134,2,0,P|428:287|406:305,1,80.9999975280763,2|0,1:2|0:0,0:0:0:0:
297,379,56472,22,0,P|286:339|270:302,1,80.9999975280763,2|0,1:2|0:0,0:0:0:0:
175,192,56809,2,0,P|215:230|256:219,1,80.9999975280763,2|0,1:2|0:0,0:0:0:0:
239,148,57146,1,2,1:2:0:0:
97,265,57314,2,0,P|82:214|64:176,1,94.4999971160889,2|0,1:2|0:0,0:0:0:0:
21,41,57988,38,0,B|82:36|96:81|79:84|108:118|177:116,1,155.250002961159,6|0,1:2|0:0,0:0:0:0:
211,166,58325,5,10,0:0:0:0:
289,123,58494,1,0,0:0:0:0:
401,255,58663,5,2,1:2:0:0:
301,199,58831,1,2,1:2:0:0:
429,78,59000,2,0,P|403:137|384:184,1,103.500001974106,10|0,0:0|0:0,0:0:0:0:
176,292,59337,6,0,B|181:311|199:318|199:318|231:271|267:274|267:274|283:315,1,155.250002961159,2|0,1:2|0:0,0:0:0:0:
276,317,59674,2,0,P|247:302|251:275,1,51.7500009870529,10|0,0:0|0:0,0:0:0:0:
301,199,59842,1,0,1:0:0:0:
233,380,60011,6,0,P|217:302|167:198,1,155.250002961159,2|0,0:0|0:0,0:0:0:0:
122,193,60348,1,8,0:0:0:0:
230,27,60516,1,2,0:0:0:0:
285,123,60685,6,0,B|210:162|210:162|167:153|179:104,1,155.250002961159,2|0,1:2|0:0,0:0:0:0:
189,99,61022,2,0,P|204:124|179:150,1,51.7500009870529,10|0,0:0|0:0,0:0:0:0:
122,193,61191,1,0,1:0:0:0:
122,58,61359,6,0,P|204:94|284:108,1,155.250002961159,2|0,0:0|0:0,0:0:0:0:
333,66,61696,1,8,0:0:0:0:
234,14,61865,1,2,0:0:0:0:
386,138,62033,5,2,1:2:0:0:
464,106,62202,1,0,0:0:0:0:
410,36,62370,5,10,0:0:0:0:
512,180,62539,1,2,0:0:0:0:
351,252,62707,5,2,1:2:0:0:
439,195,62876,1,0,1:0:0:0:
356,332,63045,2,0,P|305:318|284:218,1,155.250002961159,8|0,0:0|0:0,0:0:0:0:
336,177,63382,5,2,1:2:0:0:
263,119,63550,1,0,0:0:0:0:
160,106,63719,5,10,0:0:0:0:
286,43,63887,1,0,0:0:0:0:
438,115,64056,6,0,P|386:141|339:157,1,103.500001974106,2|2,1:2|1:2,0:0:0:0:
369,59,64393,5,10,0:0:0:0:
497,164,64561,1,0,0:0:0:0:
384,264,64730,6,0,P|323:232|236:209,1,155.250002961159,2|0,1:2|0:0,0:0:0:0:
224,199,65067,2,0,P|184:233|216:278,1,103.500001974106,8|0,0:0|1:0,0:0:0:0:
222,384,65404,6,0,B|254:298|261:372|306:242,1,155.250002961159,2|0,0:0|0:0,0:0:0:0:
298,181,65741,1,8,0:0:0:0:
188,104,65910,1,0,0:0:0:0:
336,80,66078,6,0,B|332:125|386:149|415:114|415:114|398:88|416:56,1,155.250002961159,2|0,1:2|0:0,0:0:0:0:
435,2,66415,2,0,P|391:-2|372:11,1,51.7500009870529,10|0,0:0|0:0,0:0:0:0:
336,80,66584,1,0,1:0:0:0:
442,237,66752,6,0,P|353:199|253:169,1,155.250002961159,2|0,0:0|0:0,0:0:0:0:
224,203,67090,1,10,0:0:0:0:
287,273,67258,1,0,0:0:0:0:
381,310,67427,5,2,1:2:0:0:
255,366,67595,1,2,0:0:0:0:
282,144,67764,5,10,0:0:0:0:
203,277,67932,1,0,0:0:0:0:
328,208,68101,5,2,1:2:0:0:
214,58,68269,1,2,1:2:0:0:
387,25,68438,2,0,B|405:38|429:43|429:43|370:63|304:96,1,155.250002961159,10|0,0:0|0:0,0:0:0:0:
282,144,68775,5,6,1:2:0:0:
401,193,68943,1,0,0:0:0:0:
253,255,69112,6,0,P|203:268|151:291,1,103.500001974106,10|0,0:0|0:0,0:0:0:0:
20,210,69449,1,2,1:2:0:0:
85,252,69618,1,2,1:2:0:0:
141,384,69786,2,0,P|178:324|151:295,1,103.500001974106,10|0,0:0|0:0,0:0:0:0:
96,159,70123,6,0,B|149:174|148:228|148:228|114:235|94:267,1,155.250002961159,2|0,1:2|0:0,0:0:0:0:
92,269,70460,2,0,P|67:247|71:214,1,51.7500009870529,10|0,0:0|0:0,0:0:0:0:
110,139,70629,1,0,1:0:0:0:
165,304,70797,6,0,P|139:244|15:224,1,155.250002961159,2|0,0:0|0:0,0:0:0:0:
17,149,71134,1,10,0:0:0:0:
184,51,71303,1,2,0:0:0:0:
141,158,71472,6,0,P|115:75|82:-3,1,155.250002961159,2|0,1:2|0:0,0:0:0:0:
78,10,71809,2,0,P|64:42|72:68,1,51.7500009870529,10|0,0:0|0:0,0:0:0:0:
148,133,71977,1,0,1:0:0:0:
314,169,72146,6,0,B|288:111|223:118|223:118|229:148|208:179,1,155.250002961159,2|0,0:0|0:0,0:0:0:0:
162,209,72483,1,10,0:0:0:0:
206,325,72651,1,2,0:0:0:0:
375,274,72820,5,2,1:2:0:0:
299,242,72988,1,0,0:0:0:0:
400,374,73157,5,10,0:0:0:0:
464,222,73325,1,2,0:0:0:0:
373,137,73494,5,2,1:2:0:0:
454,207,73663,1,2,1:2:0:0:
392,60,73831,2,0,P|321:75|292:166,1,155.250002961159,10|0,0:0|0:0,0:0:0:0:
337,203,74168,5,2,1:2:0:0:
254,256,74337,1,0,0:0:0:0:
183,351,74505,5,10,0:0:0:0:
69,282,74674,1,0,0:0:0:0:
177,159,74842,6,0,P|157:200|139:261,1,103.500001974106,2|0,1:2|1:0,0:0:0:0:
83,169,75179,1,10,0:0:0:0:
243,107,75348,6,0,B|165:134|165:134|109:109|154:42,1,155.250002961159,2|0,0:0|0:0,0:0:0:0:
205,43,75685,1,0,0:0:0:0:
327,198,75854,5,10,0:0:0:0:
488,117,76022,1,0,1:0:0:0:
430,51,76191,2,0,P|393:97|404:143,1,103.500001974106,2|0,0:0|1:0,0:0:0:0:
496,209,76528,5,10,0:0:0:0:
421,253,76696,1,0,0:0:0:0:
316,314,76865,5,2,1:2:0:0:
469,365,77033,1,0,0:0:0:0:
346,243,77202,6,0,P|331:193|309:146,1,103.500001974106,10|0,0:0|1:2,0:0:0:0:
183,16,77539,2,0,B|198:58|152:95|115:69|115:69|121:39|99:13,1,155.250002961159,2|0,0:0|0:0,0:0:0:0:
40,50,77876,5,10,0:0:0:0:
95,138,78045,1,2,0:0:0:0:
0,240,78213,6,0,B|100:257|26:303|173:310,1,155.250002961159,2|0,1:2|0:0,0:0:0:0:
194,354,78550,2,0,P|243:331|310:311,1,103.500001974106,10|0,0:0|0:0,0:0:0:0:
412,219,78887,5,2,1:2:0:0:
305,166,79056,1,2,1:2:0:0:
389,126,79224,5,10,0:0:0:0:
455,91,79393,1,2,0:0:0:0:
374,14,79561,5,6,1:2:0:0:
383,19,79730,1,0,0:0:0:0:
317,196,79899,5,10,0:0:0:0:
389,126,80067,1,2,1:2:0:0:
257,6,80236,2,0,P|289:67|299:94,1,90,2|0,0:0|1:2,0:0:0:0:
225,175,80573,5,10,0:0:0:0:
151,98,80741,1,0,0:0:0:0:
32,277,80910,5,2,1:2:0:0:
116,226,81078,1,2,0:0:0:0:
198,275,81247,1,8,0:0:0:0:
301,384,81415,6,0,P|320:316|371:194,1,180,2|0,1:2|1:0,0:0:0:0:
408,334,81921,1,10,0:0:0:0:
400,328,82090,1,0,0:0:0:0:
292,181,82258,6,0,P|355:197|361:224,1,90,2|0,1:2|0:0,0:0:0:0:
301,384,82595,2,0,P|285:327|266:283,1,90,10|0,0:0|0:0,0:0:0:0:
181,190,82932,5,2,1:2:0:0:
107,237,83101,1,2,1:2:0:0:
64,157,83269,5,8,0:0:0:0:
200,219,83438,1,2,0:0:0:0:
372,174,83606,5,0,1:0:0:0:
295,225,83775,1,2,0:0:0:0:
305,310,83943,1,8,0:0:0:0:
449,191,84112,6,0,B|410:141|375:101|375:101|401:123|438:118,1,180,2|0,1:2|1:0,0:0:0:0:
298,135,84618,1,10,0:0:0:0:
293,127,84786,1,0,0:0:0:0:
359,0,84955,5,2,1:2:0:0:
423,41,85123,1,0,0:0:0:0:
512,107,85292,5,10,0:0:0:0:
385,141,85460,1,2,1:2:0:0:
440,256,85629,2,0,P|459:208|477:166,1,90,2|0,0:0|1:2,0:0:0:0:
371,298,85966,5,10,0:0:0:0:
477,362,86134,2,0,P|478:303|431:285,1,90,2|0,0:0|1:0,0:0:0:0:
275,284,86472,5,2,0:0:0:0:
323,212,86641,1,10,0:0:0:0:
92,124,86809,6,0,P|124:190|223:176,1,180,2|0,1:2|1:0,0:0:0:0:
166,58,87314,1,10,0:0:0:0:
158,62,87483,1,0,0:0:0:0:
8,156,87651,6,0,P|56:135|107:119,1,90,2|0,1:2|0:0,0:0:0:0:
239,28,87988,2,0,P|245:83|211:120,1,90,10|0,0:0|0:0,0:0:0:0:
128,226,88325,5,2,1:2:0:0:
216,188,88494,1,2,1:2:0:0:
105,202,88663,5,8,0:0:0:0:
244,228,88831,1,2,0:0:0:0:
417,293,89000,5,0,1:0:0:0:
316,310,89168,1,2,0:0:0:0:
244,369,89337,1,10,0:0:0:0:
298,171,89505,6,0,B|407:216|309:253|425:296,1,180,2|0,1:2|1:0,0:0:0:0:
468,99,90011,1,10,0:0:0:0:
415,161,90179,1,0,0:0:0:0:
334,69,90348,38,0,P|266:89|185:123,1,144,6|0,1:2|0:0,0:0:0:0:
198,116,90854,1,0,1:2:0:0:
224,30,91022,1,10,3:0:0:0:
66,197,91359,2,0,P|55:155|37:118,1,72
25,261,91696,6,0,P|92:281|173:315,1,144,2|0,1:2|0:0,0:0:0:0:
160,308,92202,1,0,1:2:0:0:
135,222,92370,1,10,3:0:0:0:
299,384,92707,2,0,P|335:343|303:278,1,108,2|0,0:0|0:0,0:0:0:0:
302,260,93045,37,2,1:2:0:0:
363,210,93213,1,0,0:0:0:0:
417,295,93382,2,0,P|425:260|440:227,1,72,2|0,0:0|1:2,0:0:0:0:
485,128,93719,1,10,3:0:0:0:
424,78,93887,1,0,0:0:0:0:
347,95,94056,2,0,P|361:128|369:163,1,72,2|2,1:2|0:0,0:0:0:0:
266,85,94393,6,0,P|282:45|380:23,2,144,2|2|10,1:2|0:0|3:0,0:0:0:0:
52,0,95404,2,0,P|66:33|74:68,1,72
0,151,95741,37,2,1:2:0:0:
56,201,95910,1,0,0:0:0:0:
139,191,96078,2,0,P|124:224|116:259,1,72,2|2,0:0|1:2,0:0:0:0:
17,310,96415,2,0,P|100:341|118:373,1,108,10|2,3:0|0:0,0:0:0:0:
135,383,96752,2,0,P|168:368|203:360,1,72
301,274,97090,6,0,P|279:303|278:342,1,72,2|0,1:2|0:0,0:0:0:0:
377,260,97427,1,2,0:0:0:0:
325,200,97595,2,0,P|333:165|347:131,1,72,0|10,1:2|3:0,0:0:0:0:
158,0,98101,37,0,0:0:0:0:
95,47,98269,1,0,0:0:0:0:
17,29,98438,1,2,1:2:0:0:
17,29,98775,2,0,P|31:62|39:97,1,72,2|0,0:0|0:0,0:0:0:0:
116,138,99112,1,10,3:0:0:0:
14,200,99281,2,0,P|48:208|82:222,1,72,0|2,0:0|0:0,0:0:0:0:
165,303,99618,6,0,P|202:257|283:259,1,144,2|2,0:0|0:0,0:0:0:0:
336,314,100123,2,0,P|321:347|313:382,1,72,2|0,0:0|1:2,0:0:0:0:
242,327,100460,1,10,3:0:0:0:
359,243,100629,37,2,0:0:0:0:
335,167,100797,1,2,0:0:0:0:
313,90,100966,1,2,0:0:0:0:
373,205,101134,22,0,P|294:188|265:180,1,76.5000014591217,2|0,0:0|0:0,0:0:0:0:
396,126,101472,1,0,0:0:0:0:
277,263,101640,2,0,P|232:233|251:130,1,153.000002918243,2|0,0:0|0:0,0:0:0:0:
152,238,102146,1,2,0:0:0:0:
208,82,102314,2,0,B|241:107|241:107|236:151,1,76.5000014591217,2|0,0:0|0:0,0:0:0:0:
74,193,102651,5,2,0:0:0:0:
161,144,102820,1,0,0:0:0:0:
232,239,102988,2,0,B|190:236|162:268|192:291|165:328|99:324,1,153.000002918243,2|0,0:0|0:0,0:0:0:0:
74,193,103494,1,2,0:0:0:0:
28,293,103663,2,0,P|52:364|55:380,1,76.5000014591217,2|0,0:0|0:0,0:0:0:0:
6,160,104000,5,2,0:0:0:0:
74,193,104168,1,0,0:0:0:0:
189,79,104337,2,0,B|158:67|147:28|147:28|161:79|140:109,1,153.000002918243,2|0,0:0|0:0,0:0:0:0:
290,162,104842,1,2,0:0:0:0:
197,224,105011,2,0,P|211:173|191:141,1,76.5000014591217,2|0,0:0|0:0,0:0:0:0:
69,116,105348,5,2,0:0:0:0:
139,109,105516,1,0,0:0:0:0:
229,194,105685,2,0,P|206:247|179:348,1,153.000002918243,2|0,0:0|0:0,0:0:0:0:
146,206,106191,1,2,0:0:0:0:
225,279,106359,1,2,0:0:0:0:
356,189,106528,6,0,P|305:208|300:238,1,76.5000014591217,2|0,0:0|0:0,0:0:0:0:
414,247,106865,1,0,0:0:0:0:
437,112,107033,2,0,B|406:72|357:66|357:66|336:35|373:7,1,153.000002918243,2|2,0:0|0:0,0:0:0:0:
338,140,107539,1,0,0:0:0:0:
474,36,107707,2,0,P|449:77|445:111,1,76.5000014591217,2|0,0:0|0:0,0:0:0:0:
486,234,108045,5,0,0:0:0:0:
416,200,108213,1,2,0:0:0:0:
336,278,108382,2,0,B|237:297|237:297|270:278|261:232,1,153.000002918243,2|2,0:0|0:0,0:0:0:0:
151,169,108887,1,0,0:0:0:0:
191,238,109056,2,0,P|176:199|197:158,1,76.5000014591217,2|0,0:0|0:0,0:0:0:0:
286,120,109393,5,0,0:0:0:0:
309,196,109561,1,2,0:0:0:0:
191,238,109730,2,0,B|81:176|98:255|23:198,1,153.000002918243,2|2,0:0|0:0,0:0:0:0:
37,64,110236,1,0,0:0:0:0:
93,118,110404,1,2,0:0:0:0:
254,90,110573,5,2,1:2:0:0:
211,153,110741,5,2,1:2:0:0:
188,139,110825,1,2,0:0:0:0:
180,117,110910,1,10,0:0:0:0:
325,196,111078,5,2,1:2:0:0:
334,180,111162,1,10,0:0:0:0:
340,164,111247,1,2,1:2:0:0:
210,251,111415,5,2,1:2:0:0:
203,243,111500,1,2,0:0:0:0:
194,234,111584,1,10,0:0:0:0:
298,333,111752,5,2,1:2:0:0:
302,324,111837,1,10,0:0:0:0:
302,315,111921,6,0,P|241:324|226:357,1,90,6|0,1:2|0:0,0:0:0:0:
322,237,112258,1,8,0:0:0:0:
431,369,112427,2,0,B|383:373|373:330|373:330|394:283|419:204,1,180,2|0,1:2|1:2,0:0:0:0:
482,115,112932,2,0,P|493:158|514:203,1,90,10|2,0:0|0:0,0:0:0:0:
389,106,113269,5,2,1:2:0:0:
500,36,113438,1,2,0:0:0:0:
379,121,113606,2,0,P|326:114|310:65,1,90,8|2,0:0|1:2,0:0:0:0:
164,18,113943,5,0,0:0:0:0:
299,70,114112,1,2,1:2:0:0:
154,3,114281,2,0,P|142:46|121:91,1,90,10|0,0:0|0:0,0:0:0:0:
0,189,114618,5,2,1:2:0:0:
182,277,114786,5,2,0:0:0:0:
152,308,114870,1,2,0:0:0:0:
109,304,114954,1,10,0:0:0:0:
70,164,115123,5,2,1:2:0:0:
103,172,115207,1,2,0:0:0:0:
117,203,115291,1,2,0:0:0:0:
252,230,115460,5,2,1:2:0:0:
278,223,115544,1,2,0:0:0:0:
289,198,115628,1,10,0:0:0:0:
232,128,115797,1,2,0:0:0:0:
267,310,115966,5,2,1:2:0:0:
374,384,116134,2,0,P|398:372|434:362,2,45,2|2|10,0:0|0:0|0:0,0:0:0:0:
495,303,116472,2,0,P|470:291|434:281,2,45,2|2|2,1:2|0:0|0:0,0:0:0:0:
384,225,116809,2,0,P|408:213|444:203,2,45,2|2|10,1:2|0:0|0:0,0:0:0:0:
480,143,117146,2,0,P|455:131|419:121,1,45,2|2,0:0|0:0,0:0:0:0:
365,10,117314,6,0,P|328:60|270:52,1,90,2|0,1:2|0:0,0:0:0:0:
231,11,117651,1,8,0:0:0:0:
373,80,117820,2,0,B|380:129|337:156|330:153|322:151|277:190|297:243,1,180,2|0,1:2|1:2,0:0:0:0:
336,339,118325,2,0,P|294:320|251:309,1,90,10|2,0:0|0:0,0:0:0:0:
173,184,118663,5,2,1:2:0:0:
45,241,118831,1,0,0:0:0:0:
20,337,119000,1,10,0:0:0:0:
86,384,119168,1,2,1:2:0:0:
154,340,119337,5,0,0:0:0:0:
120,238,119505,1,2,1:2:0:0:
167,106,119674,1,10,0:0:0:0:
324,51,119842,1,2,0:0:0:0:
474,159,120011,5,2,1:2:0:0:
367,369,120179,5,2,0:0:0:0:
336,339,120263,1,2,0:0:0:0:
340,296,120347,1,10,0:0:0:0:
365,130,120516,5,2,1:2:0:0:
396,160,120600,1,2,0:0:0:0:
392,203,120684,1,2,0:0:0:0:
228,270,120854,5,2,1:2:0:0:
83,129,121022,1,10,0:0:0:0:
247,196,121190,1,2,0:0:0:0:
339,19,121359,5,2,1:2:0:0:
317,54,121528,1,2,0:0:0:0:
276,73,121696,1,10,0:0:0:0:
227,66,121865,1,2,1:2:0:0:
32,0,122033,5,2,0:0:0:0:
104,28,122202,1,2,1:2:0:0:
138,107,122371,1,10,0:0:0:0:
119,199,122539,1,2,0:0:0:0:
36,294,122707,22,0,B|68:256|115:281|112:286|107:290|135:325|190:290,1,161.999995056153,6|0,1:2|0:0,0:0:0:0:
191,284,123045,1,10,0:0:0:0:
280,331,123213,1,0,0:0:0:0:
403,221,123382,5,2,1:2:0:0:
266,252,123550,1,2,1:2:0:0:
142,182,123719,2,0,P|141:146|211:113,1,107.999996704102,10|0,0:0|0:0,0:0:0:0:
445,123,124056,6,0,B|460:101|481:94|481:94|351:131,1,161.999995056153,2|0,1:2|0:0,0:0:0:0:
362,138,124393,2,0,P|361:167|391:182,1,53.9999983520508,10|0,0:0|0:0,0:0:0:0:
476,197,124561,1,0,1:0:0:0:
416,90,124730,6,0,B|386:182|411:156|370:267,1,161.999995056153,2|0,0:0|0:0,0:0:0:0:
418,312,125067,1,8,0:0:0:0:
248,205,125236,1,2,0:0:0:0:
134,337,125404,6,0,B|183:313|152:233|107:237|107:237|125:258|105:302,1,161.999995056153,2|0,1:2|0:0,0:0:0:0:
112,277,125741,2,0,P|121:286|166:268,1,53.9999983520508,10|0,0:0|0:0,0:0:0:0:
224,181,125910,1,0,1:0:0:0:
123,343,126078,6,0,P|104:269|63:169,1,161.999995056153,2|0,0:0|0:0,0:0:0:0:
2,137,126415,1,8,0:0:0:0:
96,42,126584,1,2,0:0:0:0:
23,7,126752,5,2,1:2:0:0:
138,125,126921,1,0,0:0:0:0:
311,127,127090,5,10,0:0:0:0:
154,225,127258,1,2,0:0:0:0:
318,243,127427,5,2,1:2:0:0:
215,116,127595,1,0,1:0:0:0:
343,57,127764,2,0,P|384:96|369:178,1,135,8|0,0:0|0:0,0:0:0:0:
406,235,128101,5,2,1:2:0:0:
293,300,128269,1,0,0:0:0:0:
367,343,128438,5,10,0:0:0:0:
237,209,128606,1,0,0:0:0:0:
176,377,128775,2,0,P|235:342|297:325,1,112.5,2|2,1:2|1:2,0:0:0:0:
109,251,129112,5,10,0:0:0:0:
188,280,129281,1,0,0:0:0:0:
334,211,129449,6,0,P|253:184|176:132,1,168.75,2|0,1:2|0:0,0:0:0:0:
183,138,129786,2,0,P|231:118|221:67,1,112.5,10|0,0:0|1:0,0:0:0:0:
212,244,130123,6,0,B|297:209|245:204|363:157,1,168.75,2|0,0:0|0:0,0:0:0:0:
397,93,130460,1,10,0:0:0:0:
507,148,130629,1,0,0:0:0:0:
343,250,130797,6,0,P|329:300|421:310,1,168.75,2|0,1:2|0:0,0:0:0:0:
466,206,131134,2,0,P|443:226|402:243,1,56.25,10|0,0:0|0:0,0:0:0:0:
288,300,131303,1,0,1:0:0:0:
434,382,131472,6,0,B|364:346|364:346|363:341|363:341|270:291,1,168.75,2|0,0:0|0:0,0:0:0:0:
246,242,131809,1,8,0:0:0:0:
167,300,131977,1,0,0:0:0:0:
109,233,132146,5,2,1:2:0:0:
229,344,132314,1,2,0:0:0:0:
150,382,132483,5,10,0:0:0:0:
229,202,132651,1,0,0:0:0:0:
191,121,132820,5,2,1:2:0:0:
330,238,132988,1,2,1:2:0:0:
418,73,133157,2,0,B|378:64|360:26|360:26|370:72|324:113,1,155.250002961159,10|0,0:0|0:0,0:0:0:0:
399,145,133494,5,6,1:2:0:0:
492,52,133663,1,0,0:0:0:0:
389,160,133831,6,0,P|365:214|345:278,1,112.5,10|0,0:0|0:0,0:0:0:0:
245,384,134168,1,2,1:2:0:0:
178,301,134337,1,2,1:2:0:0:
317,344,134505,2,0,P|375:347|430:288,1,112.5,10|0,0:0|0:0,0:0:0:0:
309,158,134842,6,0,B|211:169|268:225|149:233,1,168.75,2|0,1:2|0:0,0:0:0:0:
152,232,135179,2,0,P|164:195|192:175,1,56.25,10|0,0:0|0:0,0:0:0:0:
304,237,135348,1,0,1:0:0:0:
289,86,135516,6,0,P|257:161|227:255,1,168.75,2|0,0:0|0:0,0:0:0:0:
270,314,135854,1,10,0:0:0:0:
99,384,136022,1,2,0:0:0:0:
0,241,136191,6,0,B|66:240|84:310|84:310|48:322|31:350,1,168.75,2|0,1:2|0:0,0:0:0:0:
33,342,136528,2,0,P|23:294|42:272,1,56.25,10|0,0:0|0:0,0:0:0:0:
85,187,136696,1,0,1:0:0:0:
242,269,136865,6,0,P|179:253|196:140,1,168.75,2|0,0:0|0:0,0:0:0:0:
245,135,137202,1,10,0:0:0:0:
121,48,137370,1,2,0:0:0:0:
255,150,137539,5,2,1:2:0:0:
331,118,137707,1,0,0:0:0:0:
485,64,137876,5,10,0:0:0:0:
333,0,138044,1,2,0:0:0:0:
321,132,138213,5,2,1:2:0:0:
391,51,138382,1,0,1:0:0:0:
485,191,138550,2,0,P|405:203|366:275,1,168.75,8|0,0:0|0:0,0:0:0:0:
411,337,138887,5,2,1:2:0:0:
290,384,139056,1,0,0:0:0:0:
239,266,139224,5,10,0:0:0:0:
94,210,139393,1,0,0:0:0:0:
30,356,139561,6,0,P|94:336|116:293,1,112.5,2|0,1:2|1:0,0:0:0:0:
31,264,139899,1,10,0:0:0:0:
164,170,140067,6,0,B|51:150|121:106|13:86,1,168.75,2|0,0:0|0:0,0:0:0:0:
20,168,140404,1,2,0:0:0:0:
182,28,140573,5,10,0:0:0:0:
366,95,140741,1,0,1:0:0:0:
288,184,140910,2,0,P|270:130|247:79,1,112.5,2|0,0:0|1:0,0:0:0:0:
350,0,141247,5,10,0:0:0:0:
446,46,141415,1,0,0:0:0:0:
316,172,141584,5,2,1:2:0:0:
181,227,141752,1,0,0:0:0:0:
360,249,141921,6,0,P|402:205|396:151,1,112.5,10|0,0:0|1:2,0:0:0:0:
265,317,142258,2,0,P|344:341|432:377,1,168.75,2|0,0:0|0:0,0:0:0:0:
479,321,142595,5,10,0:0:0:0:
385,384,142764,1,2,0:0:0:0:
273,239,142932,6,0,P|193:274|201:360,1,168.75,2|0,1:2|0:0,0:0:0:0:
122,384,143269,2,0,P|70:361|17:343,1,112.5,10|0,0:0|0:0,0:0:0:0:
123,197,143606,5,2,1:2:0:0:
235,159,143775,1,2,1:2:0:0:
146,64,143943,5,10,0:0:0:0:
0,14,144112,1,2,0:0:0:0:
20,188,144281,5,6,1:2:0:0:
50,114,144449,1,0,0:0:0:0:
85,6,144618,5,8,0:0:0:0:
155,181,144786,1,2,1:2:0:0:
337,79,144955,2,0,P|272:63|223:38,1,99.0000030212403,2|0,0:0|1:2,0:0:0:0:
283,167,145292,5,10,0:0:0:0:
423,54,145460,1,2,0:0:0:0:
481,287,145629,5,0,1:0:0:0:
376,252,145797,1,0,0:0:0:0:
299,328,145966,1,10,0:0:0:0:
115,321,146134,6,0,B|154:275|229:297|229:297|202:349|257:393,1,198.000006042481,2|0,1:2|1:0,0:0:0:0:
48,360,146640,1,10,0:0:0:0:
0,296,146809,1,2,0:0:0:0:
94,157,146977,6,0,P|81:216|62:267,1,99.0000030212403,2|0,1:2|0:0,0:0:0:0:
197,58,147314,2,0,P|210:117|229:168,1,99.0000030212403,10|0,0:0|0:0,0:0:0:0:
332,257,147651,5,2,1:2:0:0:
368,162,147820,1,0,1:2:0:0:
298,120,147988,5,10,0:0:0:0:
421,249,148157,1,2,0:0:0:0:
485,184,148325,5,0,1:0:0:0:
243,220,148494,1,2,0:0:0:0:
289,325,148663,5,10,0:0:0:0:
392,66,148831,2,0,P|376:128|362:182,1,99.0000030212403,2|0,1:2|0:0,0:0:0:0:
447,14,149168,5,0,1:0:0:0:
328,225,149337,1,8,0:0:0:0:
