osu file format v14

[General]
AudioFilename: audio.mp3
AudioLeadIn: 0
PreviewTime: 194542
Countdown: 0
SampleSet: Soft
StackLeniency: 0.7
Mode: 0
LetterboxInBreaks: 0
WidescreenStoryboard: 0

[Editor]
Bookmarks: 213190
DistanceSpacing: 1.1
BeatDivisor: 4
GridSize: 32
TimelineZoom: 1.5

[Metadata]
Title:Tatoeba
TitleUnicode:例えば
Artist:KAF
ArtistUnicode:花譜
Creator:Rtyzen
Version:Light
Source:映画大好きポンポさん
Tags:co22 corsace open 2022 hr1 gf Slyze- Sparhten KAMITSUBAKI STUDIO 神椿スタジオ vtuber vtb virtual youtuber カンザキイオリ kanzaki iori japanese pop j-pop jpop rock jrock j-rock thinkr eiga daisuki pompo-san pompo san Pompo: The Cinéphile cinephile insert ins
BeatmapID:3802333
BeatmapSetID:1850935

[Difficulty]
HPDrainRate:5
CircleSize:4.2
OverallDifficulty:9.2
ApproachRate:9.5
SliderMultiplier:2
SliderTickRate:1

[Events]
//Background and Video events
0,0,"bg.jpg",0,0
Video,-1909,"tatoeba.mp4"
//Break Periods
2,95099,103517
2,161190,178945
//Storyboard Layer 0 (Background)
//Storyboard Layer 1 (Fail)
//Storyboard Layer 2 (Pass)
//Storyboard Layer 3 (Foreground)
//Storyboard Layer 4 (Overlay)
//Storyboard Sound Samples

[TimingPoints]
1185,285.714285714286,4,2,2,50,1,0
1185,-133.333333333333,4,2,2,50,0,0
16185,-133.333333333333,4,2,2,60,0,0
17185,-133.333333333333,4,2,2,90,0,0
19470,-66.6666666666667,4,2,2,85,0,0
19756,-66.6666666666667,4,2,1,85,0,0
21470,-76.9230769230769,4,2,1,85,0,0
21756,-66.6666666666667,4,2,1,85,0,0
22185,-76.9230769230769,4,2,1,85,0,0
22756,-66.6666666666667,4,2,1,85,0,0
24042,-76.9230769230769,4,2,1,85,0,0
28613,-76.9230769230769,4,2,1,60,0,0
29042,-76.9230769230769,4,2,2,60,0,0
29185,-111.111111111111,4,2,2,60,0,0
37756,-100,4,2,2,65,0,0
38042,-100,4,2,1,65,0,0
44327,-83.3333333333333,4,2,1,65,0,0
44613,-83.3333333333333,4,2,1,85,0,0
46899,-83.3333333333333,4,2,1,65,0,0
53756,-83.3333333333333,4,2,1,90,0,0
56042,-100,4,2,1,65,0,0
60613,-90.9090909090909,4,2,1,65,0,0
62899,-90.9090909090909,4,2,1,75,0,0
65185,-90.9090909090909,4,2,1,90,0,0
66613,-76.9230769230769,4,2,1,70,0,0
67185,-133.333333333333,4,2,1,70,0,0
67470,-76.9230769230769,4,2,1,85,0,0
69470,-66.6666666666667,4,2,1,85,0,0
70185,-83.3333333333333,4,2,1,85,0,0
70756,-76.9230769230769,4,2,1,85,0,0
71185,-62.5,4,2,1,85,0,0
71470,-76.9230769230769,4,2,1,85,0,0
72042,-66.6666666666667,4,2,1,85,0,0
72327,-76.9230769230769,4,2,1,85,0,0
73042,-66.6666666666667,4,2,1,85,0,0
74042,-76.9230769230769,4,2,1,85,0,0
75756,-76.9230769230769,4,2,1,75,0,0
76042,-76.9230769230769,4,2,1,85,0,0
76327,-76.9230769230769,4,2,1,95,0,0
76613,-66.6666666666667,4,2,1,100,0,0
76685,-66.6666666666667,4,2,1,85,0,0
77613,-76.9230769230769,4,2,1,85,0,0
84899,-66.6666666666667,4,2,1,85,0,0
85327,-76.9230769230769,4,2,1,85,0,0
85756,-62.5,4,2,1,85,0,0
87756,-76.9230769230769,4,2,1,85,0,0
88042,-66.6666666666667,4,2,1,85,0,0
90613,-76.9230769230769,4,2,1,85,0,0
92613,-76.9230769230769,4,2,1,75,0,0
94613,-76.9230769230769,4,2,1,65,0,0
94899,-76.9230769230769,4,2,1,40,0,0
104042,-133.333333333333,4,2,1,60,0,0
110327,-111.111111111111,4,2,1,60,0,0
110899,-111.111111111111,4,2,1,90,0,0
112613,-166.666666666667,4,2,1,55,0,0
112899,-100,4,2,1,65,0,0
119756,-83.3333333333333,4,2,1,65,0,0
120042,-83.3333333333333,4,2,1,90,0,0
122327,-100,4,2,1,65,0,0
131470,-100,4,2,1,90,0,0
133470,-66.6666666666667,4,2,1,70,0,0
133756,-76.9230769230769,4,2,1,85,0,0
137042,-66.6666666666667,4,2,1,85,0,0
137899,-76.9230769230769,4,2,1,85,0,0
138042,-66.6666666666667,4,2,1,85,0,0
139185,-83.3333333333333,4,2,1,85,0,0
139327,-66.6666666666667,4,2,1,85,0,0
140613,-66.6666666666667,4,2,1,75,0,0
141185,-66.6666666666667,4,2,1,85,0,0
141756,-66.6666666666667,4,2,1,95,0,0
142042,-66.6666666666667,4,2,1,75,0,0
142327,-66.6666666666667,4,2,1,85,0,0
142613,-66.6666666666667,4,2,1,95,0,0
142899,-66.6666666666667,4,2,1,100,0,0
142970,-66.6666666666667,4,2,1,85,0,0
143899,-76.9230769230769,4,2,1,85,0,0
152327,-83.3333333333333,4,2,1,85,0,0
156327,-66.6666666666667,4,2,1,85,0,0
156613,-76.9230769230769,4,2,1,85,0,0
159899,-76.9230769230769,4,2,1,90,0,0
159970,-76.9230769230769,4,2,1,5,0,0
160185,-76.9230769230769,4,2,1,90,0,0
160256,-76.9230769230769,4,2,1,5,0,0
160470,-76.9230769230769,4,2,1,90,0,0
160541,-76.9230769230769,4,2,1,5,0,0
160756,-76.9230769230769,4,2,1,90,0,0
160827,-76.9230769230769,4,2,1,5,0,0
179470,-153.846153846154,4,2,1,50,0,0
180042,-153.846153846154,4,2,2,50,0,0
193470,-153.846153846154,4,2,2,60,0,0
193613,-133.333333333333,4,2,2,60,0,0
194613,-83.3333333333333,4,2,2,50,0,0
194899,-66.6666666666667,4,2,2,50,0,0
195185,-100,4,2,2,50,0,0
195470,-50,4,2,2,100,0,0
195756,-66.6666666666667,4,2,1,85,0,0
206613,-133.333333333333,4,2,1,75,0,0
206899,-66.6666666666667,4,2,1,100,0,0
206970,-66.6666666666667,4,2,1,85,0,0
211756,-66.6666666666667,4,2,1,75,0,0
212613,-66.6666666666667,4,2,1,85,0,0
213470,-66.6666666666667,4,2,1,95,0,0
213756,-66.6666666666667,4,2,1,100,0,0
213827,-66.6666666666667,4,2,1,85,0,0
223613,-83.3333333333333,4,2,1,85,0,0
223899,-58.8235294117647,4,2,1,85,0,0
224613,-66.6666666666667,4,2,1,85,0,0
229756,-66.6666666666667,4,2,1,90,0,0
232042,-66.6666666666667,4,2,1,60,0,0

[Colours]
Combo1 : 221,11,58
Combo2 : 237,249,89
Combo3 : 243,151,154
Combo4 : 68,110,254

[HitObjects]
435,135,1185,6,0,B|384:151|365:120|369:118|374:117|337:71|289:104,1,150,2|2,2:0|2:0,2:0:0:0:
174,143,1613,1,0,2:0:0:0:
299,254,1756,2,0,P|300:205|313:170,1,75.0000000000002,10|0,2:0|2:0,2:0:0:0:
223,46,2042,1,2,2:0:0:0:
213,52,2185,1,2,2:0:0:0:
100,132,2327,6,0,L|193:147,1,75.0000000000002,2|10,2:0|2:0,2:0:0:0:
299,254,2613,2,0,L|392:269,1,75.0000000000002,2|2,2:0|2:0,2:0:0:0:
416,202,2899,1,8,2:0:0:0:
204,370,3042,2,0,P|195:307|171:208,1,150,0|0,2:0|2:0,2:0:0:0:
351,44,3470,6,0,P|346:87|301:115,1,75.0000000000002,2|2,2:0|2:0,2:0:0:0:
130,50,3756,2,0,B|164:3|164:3|243:39,1,112.5,2|0,2:0|2:0,2:0:0:0:
193,96,4042,2,0,L|34:65,1,150,10|2,2:0|2:0,2:0:0:0:
329,185,4470,6,0,P|365:182|393:158,1,75.0000000000002,2|0,2:0|2:0,2:0:0:0:
193,96,4756,2,0,L|207:179,1,75.0000000000002,8|0,2:0|2:0,2:0:0:0:
250,350,5042,1,0,2:0:0:0:
217,257,5185,5,8,2:0:0:0:
149,325,5327,1,0,2:0:0:0:
242,351,5470,1,0,2:0:0:0:
309,282,5613,1,2,2:0:0:0:
130,235,5756,6,0,L|48:258,1,75.0000000000002,2|0,2:0|2:0,2:0:0:0:
315,281,6042,1,2,2:0:0:0:
242,351,6185,2,0,P|337:367|424:386,1,150,2|2,2:0|2:0,2:0:0:0:
472,210,6613,1,2,2:0:0:0:
288,217,6756,6,0,P|297:267|333:285,1,75.0000000000002,2|0,2:0|2:0,2:0:0:0:
452,115,7042,2,0,B|450:78|414:39|363:40|363:40|369:76,1,150,8|0,2:0|2:0,2:0:0:0:
214,30,7470,2,0,P|261:48|297:53,1,75.0000000000002,8|0,2:0|2:0,2:0:0:0:
472,210,7756,2,0,P|435:217|400:232,1,75.0000000000002,0|2,2:0|2:0,2:0:0:0:
121,195,8042,5,0,2:0:0:0:
186,142,8185,1,2,2:0:0:0:
73,59,8327,1,2,2:0:0:0:
67,77,8470,1,2,2:0:0:0:
280,187,8613,5,10,2:0:0:0:
212,15,8756,2,0,P|166:32|153:81,1,75.0000000000002,2|0,2:0|2:0,2:0:0:0:
286,188,9042,1,2,2:0:0:0:
67,77,9185,2,0,P|58:125|94:161,1,75.0000000000002,2|8,2:0|2:0,2:0:0:0:
268,82,9470,1,2,2:0:0:0:
140,219,9613,2,0,B|200:225|197:266|203:265|208:265|203:294|275:299,1,150,2|2,2:0|2:0,2:0:0:0:
439,159,10042,2,0,P|393:147|355:132,1,75.0000000000002,0|2,2:0|2:0,2:0:0:0:
321,355,10327,5,2,2:0:0:0:
269,199,10470,2,0,P|336:210|364:297,1,150,2|2,2:0|2:0,2:0:0:0:
120,255,10899,5,10,2:0:0:0:
145,349,11042,1,2,2:0:0:0:
212,280,11185,1,2,2:0:0:0:
52,323,11327,1,2,2:0:0:0:
224,130,11470,5,2,2:0:0:0:
186,196,11613,1,10,2:0:0:0:
120,158,11756,1,2,2:0:0:0:
197,31,11899,6,0,P|249:39|283:43,1,75.0000000000002,2|8,2:0|2:0,2:0:0:0:
428,223,12185,2,0,P|328:207|264:200,1,150,0|2,2:0|2:0,2:0:0:0:
120,158,12613,6,0,B|77:179|64:223|89:257|89:257|96:234|125:224,1,150,2|2,2:0|2:0,2:0:0:0:
279,201,13042,1,2,2:0:0:0:
326,68,13185,2,0,P|338:110|348:143,1,75.0000000000002,8|0,2:0|2:0,2:0:0:0:
184,210,13470,1,2,2:0:0:0:
300,324,13613,6,0,B|366:308|338:291|415:279,1,112.5,2|0,2:0|2:0,2:0:0:0:
470,246,13899,2,0,P|454:193|352:212,1,150,8|0,2:0|2:0,2:0:0:0:
196,363,14327,2,0,B|149:342|121:346|121:346|140:320|139:269,1,150,8|0,2:0|2:0,2:0:0:0:
222,283,14756,1,2,2:0:0:0:
72,168,14899,6,0,P|22:181|-8:187,1,75.0000000000002,2|0,2:0|2:0,2:0:0:0:
166,68,15185,1,2,2:0:0:0:
303,256,15327,2,0,P|347:208|440:198,1,150,2|2,2:0|2:0,2:0:0:0:
307,265,15756,1,2,2:0:0:0:
198,201,15899,2,0,P|197:146|223:126,1,75.0000000000002,2|0,2:0|2:0,2:0:0:0:
350,31,16185,5,10,2:0:0:0:
416,63,16327,1,2,2:0:0:0:
384,129,16470,1,2,2:0:0:0:
275,176,16613,5,10,2:0:0:0:
253,310,16756,1,2,2:0:0:0:
419,350,16899,1,2,2:0:0:0:
272,169,17042,1,2,2:0:0:0:
128,278,17185,5,0,3:2:0:0:
471,189,17327,1,0,3:2:0:0:
99,175,17613,5,0,3:2:0:0:
442,264,17756,1,0,3:2:0:0:
216,62,18042,5,0,3:2:0:0:
303,335,18185,1,0,3:2:0:0:
297,40,18470,5,0,3:2:0:0:
224,353,18613,1,0,3:2:0:0:
248,173,18899,5,2,3:2:0:0:
250,179,18970,1,2,2:0:0:0:
252,185,19042,1,2,3:2:0:0:
254,191,19113,1,2,2:0:0:0:
256,197,19185,1,2,2:0:0:0:
258,203,19256,1,2,2:0:0:0:
260,209,19327,1,2,2:0:0:0:
480,83,19470,6,0,P|420:20|327:65,1,150,4|2,3:2|2:0,2:0:0:0:
328,86,19685,1,2,2:0:0:0:
372,141,19756,1,10,2:0:0:0:
485,86,19899,1,2,2:0:0:0:
326,93,20042,5,2,3:2:0:0:
375,252,20185,1,2,3:2:0:0:
506,166,20327,1,10,2:0:0:0:
385,140,20470,1,2,2:0:0:0:
508,259,20613,5,2,3:2:0:0:
281,171,20756,1,2,2:0:0:0:
309,378,20899,1,10,2:0:0:0:
103,287,21042,5,2,2:0:0:0:
63,249,21113,1,2,2:0:0:0:
76,200,21185,1,2,3:2:0:0:
201,80,21327,1,2,3:2:0:0:
151,222,21470,6,0,L|214:235,1,65,10|0,2:0|2:0,2:0:0:0:
354,107,21613,2,0,L|417:120,1,65,2|0,2:0|2:0,2:0:0:0:
253,358,21756,2,0,P|320:257|443:223,1,225,2|0,3:2|2:0,2:0:0:0:
487,253,22042,1,10,2:0:0:0:
253,358,22185,6,0,P|225:290|193:229,1,130,2|0,2:0|3:2,2:0:0:0:
363,2,22470,2,0,P|391:70|423:131,1,130,2|8,3:2|2:0,2:0:0:0:
94,210,22756,6,0,B|69:183|90:135|151:138|157:138|160:138|216:146|244:106|207:60,1,225,2|0,3:2|2:0,2:0:0:0:
139,97,23042,5,2,3:2:0:0:
143,106,23113,1,2,2:0:0:0:
151,111,23185,1,10,2:0:0:0:
233,152,23327,1,2,2:0:0:0:
294,94,23470,1,2,3:2:0:0:
158,20,23613,5,2,3:2:0:0:
82,198,23756,1,10,2:0:0:0:
260,274,23899,1,2,2:0:0:0:
465,97,24042,6,0,B|404:123|377:60|383:57|388:56|361:-10|274:19,1,195,2|0,3:2|2:0,2:0:0:0:
235,36,24327,1,10,2:0:0:0:
387,96,24470,5,2,2:0:0:0:
183,193,24613,1,0,3:2:0:0:
428,264,24756,1,2,3:2:0:0:
286,106,24899,1,8,2:0:0:0:
74,269,25042,6,0,P|127:330|238:345,1,195,2|0,2:0|2:0,2:0:0:0:
313,326,25327,5,2,2:0:0:0:
353,288,25399,1,2,2:0:0:0:
340,239,25470,1,10,2:0:0:0:
264,261,25613,1,2,2:0:0:0:
382,357,25756,5,2,3:2:0:0:
222,194,25899,1,2,3:2:0:0:
153,369,26042,1,10,2:0:0:0:
345,230,26185,1,2,2:0:0:0:
162,279,26327,5,4,3:2:0:0:
163,103,26470,1,0,3:2:0:0:
314,157,26613,1,8,2:0:0:0:
85,197,26756,5,0,3:2:0:0:
80,195,26827,1,0,3:2:0:0:
75,193,26899,1,0,3:2:0:0:
235,21,27042,1,0,3:2:0:0:
382,95,27185,1,8,2:0:0:0:
190,190,27327,5,0,3:2:0:0:
150,152,27399,1,0,3:2:0:0:
163,103,27470,1,0,3:2:0:0:
301,135,27613,1,0,3:2:0:0:
163,281,27756,1,8,2:0:0:0:
404,325,27899,1,0,3:2:0:0:
158,93,28042,5,0,3:2:0:0:
247,348,28185,1,0,3:2:0:0:
416,147,28327,1,8,2:0:0:0:
222,193,28470,1,0,3:2:0:0:
315,267,28613,5,6,2:0:0:0:
46,169,29042,1,8,2:0:0:0:
46,169,29185,2,0,P|69:106|87:20,1,135,2|0,3:2|2:0,2:0:0:0:
167,5,29470,2,0,P|172:71|141:101,1,90.0000000000001,10|2,2:0|2:0,2:0:0:0:
2,255,29756,6,0,B|59:238|78:292|75:292|71:293|92:364|179:322,1,180,0|2,3:2|3:2,2:0:0:0:
338,210,30185,2,0,P|386:226|442:236,1,90.0000000000001,10|0,2:0|3:2,2:0:0:0:
233,189,30470,1,0,2:0:0:0:
243,42,30613,2,0,P|212:44|172:151,1,135,8|0,2:0|2:0,2:0:0:0:
233,189,30899,5,2,3:2:0:0:
373,128,31042,1,0,2:0:0:0:
225,192,31185,1,2,3:2:0:0:
375,338,31327,5,10,3:2:0:0:
407,307,31399,1,0,3:2:0:0:
396,267,31470,1,0,3:2:0:0:
146,229,31613,1,0,2:0:0:0:
251,349,31756,2,0,B|253:298|277:319|275:257,1,90.0000000000001,10|2,2:0|2:0,2:0:0:0:
87,36,32042,6,0,L|100:131,1,90.0000000000001,0|0,3:2|2:0,2:0:0:0:
96,129,32327,1,0,3:2:0:0:
173,29,32470,6,0,L|193:181,1,135,8|0,2:0|2:0,2:0:0:0:
146,229,32756,1,0,2:0:0:0:
391,287,32899,1,8,2:0:0:0:
201,329,33042,5,2,3:2:0:0:
193,331,33113,1,0,3:2:0:0:
185,333,33185,2,0,B|250:370|250:370|306:264,1,180,2|2,3:2|3:2,2:0:0:0:
138,152,33613,2,0,B|93:158|93:158|74:206,1,90.0000000000001,10|0,2:0|3:2,2:0:0:0:
289,72,33899,1,0,2:0:0:0:
313,191,34042,2,0,B|360:220|360:220|477:181,1,135,10|2,2:0|2:0,2:0:0:0:
501,153,34327,5,2,3:2:0:0:
361,120,34470,1,2,2:0:0:0:
313,191,34613,1,2,3:2:0:0:
351,270,34756,1,10,2:0:0:0:
231,370,34899,5,0,3:2:0:0:
190,304,35042,1,0,2:0:0:0:
256,265,35185,1,8,2:0:0:0:
307,197,35327,2,0,L|298:143,1,45,0|0,2:0|2:0,2:0:0:0:
130,67,35470,5,0,3:2:0:0:
58,119,35613,1,2,2:0:0:0:
48,167,35685,1,2,2:0:0:0:
84,196,35756,1,2,3:2:0:0:
220,48,35899,5,10,2:0:0:0:
155,232,36042,1,2,3:2:0:0:
223,41,36185,1,2,2:0:0:0:
319,207,36327,5,8,2:0:0:0:
293,123,36470,1,2,2:0:0:0:
322,214,36613,1,0,3:2:0:0:
360,75,36756,5,2,2:0:0:0:
157,98,36899,1,0,3:2:0:0:
180,301,37042,1,10,2:0:0:0:
416,236,37185,5,2,3:2:0:0:
239,184,37327,1,0,2:0:0:0:
62,132,37470,1,8,2:0:0:0:
62,132,37756,6,0,P|107:80|156:98,1,100,6|0,3:2|2:0,2:0:0:0:
313,334,38042,2,0,P|364:367|441:333,1,150,10|0,2:0|2:0,2:0:0:0:
472,268,38327,1,2,3:2:0:0:
228,326,38470,1,0,2:0:0:0:
401,226,38613,1,10,2:0:0:0:
234,96,38756,6,0,B|246:142|246:142|251:144|251:144|265:196,1,100,2|0,2:0|3:2,2:0:0:0:
276,30,39042,1,2,2:0:0:0:
79,205,39185,2,0,P|152:200|211:276,1,150,10|0,2:0|2:0,2:0:0:0:
170,321,39470,1,0,3:2:0:0:
342,136,39613,1,0,2:0:0:0:
381,292,39756,1,8,2:0:0:0:
168,161,39899,1,0,2:0:0:0:
353,46,40042,5,2,3:2:0:0:
459,93,40185,1,2,2:0:0:0:
412,199,40327,1,10,2:0:0:0:
265,70,40470,1,0,2:0:0:0:
91,243,40613,5,2,3:2:0:0:
25,175,40756,2,0,P|76:140|132:167,1,100,2|8,2:0|2:0,2:0:0:0:
316,248,41042,1,2,2:0:0:0:
91,243,41185,2,0,P|37:261|-6:274,1,100,0|0,3:2|2:0,2:0:0:0:
164,0,41470,6,0,P|191:82|211:148,1,150,8|0,2:0|2:0,2:0:0:0:
182,212,41756,1,0,3:2:0:0:
374,52,41899,1,0,2:0:0:0:
476,163,42042,1,8,2:0:0:0:
266,55,42185,5,2,3:2:0:0:
260,49,42256,1,0,3:2:0:0:
255,45,42327,2,0,P|202:62|142:75,1,100,2|0,3:2|2:0,2:0:0:0:
401,135,42613,1,10,2:0:0:0:
182,212,42756,2,0,P|110:257|102:341,1,150,2|0,2:0|2:0,2:0:0:0:
155,358,43042,1,2,2:0:0:0:
333,198,43185,6,0,B|341:150|300:136|297:134|293:134|250:125|260:58,1,150,10|0,2:0|2:0,2:0:0:0:
304,20,43470,1,0,3:2:0:0:
144,185,43613,5,0,2:0:0:0:
109,123,43756,1,8,2:0:0:0:
153,69,43899,1,0,2:0:0:0:
403,335,44042,5,0,3:2:0:0:
451,227,44185,1,0,2:0:0:0:
362,153,44327,2,0,B|293:170|293:170|275:207|275:207|190:231,1,180,10|0,2:0|2:0,2:0:0:0:
144,185,44613,5,2,3:2:0:0:
391,327,44756,1,8,2:0:0:0:
397,331,44827,1,8,2:0:0:0:
403,335,44899,2,0,P|453:323|483:317,1,60,10|0,2:0|2:0,2:0:0:0:
268,128,45042,2,0,P|280:178|286:208,1,60,10|0,2:0|2:0,2:0:0:0:
138,372,45185,2,0,P|126:322|120:292,1,60,8|0,2:0|2:0,2:0:0:0:
284,279,45327,5,10,2:0:0:0:
59,174,45470,1,10,2:0:0:0:
258,42,45613,1,0,2:0:0:0:
140,10,45756,5,0,2:0:0:0:
77,61,45899,1,2,3:2:0:0:
103,99,45970,1,2,3:2:0:0:
148,93,46042,1,10,2:0:0:0:
143,4,46185,1,4,2:3:0:0:
330,72,46327,5,8,2:3:0:0:
478,126,46470,1,8,3:0:0:0:
356,212,46613,1,8,3:2:0:0:
208,158,46756,1,0,3:0:0:0:
226,346,46899,6,0,B|311:371|326:298|329:297|334:296|357:229|459:269,1,240,6|8,3:2|2:0,2:0:0:0:
163,76,47327,1,2,3:2:0:0:
141,115,47399,1,0,3:2:0:0:
169,156,47470,1,2,3:2:0:0:
292,180,47613,1,2,2:0:0:0:
117,299,47756,1,8,2:0:0:0:
299,177,47899,6,0,P|288:105|280:42,1,120,2|0,2:0|3:2,2:0:0:0:
45,252,48185,2,0,B|66:278|61:310|61:310|84:294|148:301,1,120,0|8,3:2|2:0,2:0:0:0:
169,156,48470,1,0,2:0:0:0:
125,78,48613,6,0,P|42:93|20:202,1,180,0|0,3:2|2:0,2:0:0:0:
45,252,48899,1,8,2:0:0:0:
249,156,49042,1,2,2:0:0:0:
406,337,49185,2,0,P|344:322|277:303,1,120,2|0,3:2|2:0,2:0:0:0:
255,57,49470,2,0,P|343:78|439:105,1,180,10|0,2:0|2:0,2:0:0:0:
491,59,49756,5,2,3:2:0:0:
331,160,49899,1,2,2:0:0:0:
474,248,50042,1,10,2:0:0:0:
489,244,50185,1,0,2:0:0:0:
251,100,50327,5,2,3:2:0:0:
153,316,50470,1,2,3:2:0:0:
70,250,50613,1,10,2:0:0:0:
108,138,50756,1,2,2:0:0:0:
319,23,50899,5,2,3:2:0:0:
365,166,51042,1,2,2:0:0:0:
220,214,51185,1,10,2:0:0:0:
251,100,51327,1,2,2:0:0:0:
434,251,51470,6,0,P|461:312|428:358,1,120,2|2,3:2|2:0,2:0:0:0:
212,212,51756,1,10,2:0:0:0:
426,357,51899,2,0,B|364:342|364:342|340:288|340:288|249:265,1,180,2|0,2:0|2:0,2:0:0:0:
209,205,52185,2,0,B|168:215|168:215|157:234|157:234|102:250,1,120,2|8,2:0|2:0,2:0:0:0:
257,25,52470,5,2,2:0:0:0:
126,156,52613,1,2,3:2:0:0:
284,274,52756,1,2,3:2:0:0:
352,195,52899,1,10,2:0:0:0:
116,151,53042,2,0,P|127:239|131:297,1,120,2|0,2:0|3:2,2:0:0:0:
431,384,53327,2,0,P|420:296|416:238,1,120,0|8,2:0|2:0,2:0:0:0:
395,92,53613,1,2,2:0:0:0:
178,108,53756,5,6,3:2:0:0:
332,291,53899,1,4,2:3:0:0:
398,83,54042,1,10,2:0:0:0:
192,195,54185,1,2,3:2:0:0:
426,289,54327,5,6,3:2:0:0:
182,200,54470,1,0,3:2:0:0:
344,20,54613,1,10,2:0:0:0:
278,248,54756,1,10,2:0:0:0:
126,47,54899,5,2,3:2:0:0:
390,190,55042,1,2,3:2:0:0:
128,334,55185,1,10,2:0:0:0:
267,99,55327,1,2,3:2:0:0:
325,325,55470,5,0,3:2:0:0:
119,162,55613,1,0,3:2:0:0:
334,26,55756,2,0,B|405:14|405:14|451:36|460:78|433:103,1,180,10|0,2:0|2:0,2:0:0:0:
356,132,56042,6,0,B|285:143|270:79|273:79|275:78|245:18|161:47,1,200,6|8,3:2|2:0,2:0:0:0:
51,251,56470,1,2,2:0:0:0:
65,55,56613,2,0,P|86:100|97:156,1,100,2|2,3:2|3:2,2:0:0:0:
44,252,56899,1,10,2:0:0:0:
271,122,57042,1,2,2:0:0:0:
173,246,57185,5,0,3:2:0:0:
182,243,57327,1,0,3:2:0:0:
405,354,57470,2,0,P|438:290|400:253,1,100,8|2,2:0|3:2,2:0:0:0:
263,209,57756,5,2,2:0:0:0:
216,351,57899,1,2,3:2:0:0:
360,222,58042,2,0,B|365:161|328:184|342:105,1,100,8|2,2:0|2:0,2:0:0:0:
147,30,58327,5,2,3:2:0:0:
34,108,58470,1,2,2:0:0:0:
112,221,58613,1,10,2:0:0:0:
314,56,58756,2,0,P|261:67|205:75,1,100,2|0,2:0|3:2,2:0:0:0:
22,217,59042,5,2,3:2:0:0:
184,170,59185,1,10,2:0:0:0:
280,289,59327,2,0,P|247:338|205:342,1,100,2|0,2:0|3:2,2:0:0:0:
94,116,59613,5,2,3:2:0:0:
38,299,59756,2,0,B|103:281|61:261|147:245,1,100,10|0,2:0|3:2,2:0:0:0:
300,113,60042,5,0,2:0:0:0:
174,65,60185,1,0,3:2:0:0:
241,216,60327,1,10,2:0:0:0:
390,117,60470,1,0,2:0:0:0:
129,10,60613,6,0,P|143:93|159:202,1,165,6|0,3:2|2:0,2:0:0:0:
123,250,60899,2,0,P|75:213|84:153,1,110,10|2,2:0|2:0,2:0:0:0:
398,118,61185,1,0,3:2:0:0:
253,68,61327,1,0,3:2:0:0:
473,191,61470,2,0,B|483:244|437:258|444:257|449:256|396:272|410:354,1,165,10|0,2:0|2:0,2:0:0:0:
475,376,61756,5,0,3:2:0:0:
279,259,61899,1,0,3:2:0:0:
404,120,62042,1,8,2:0:0:0:
334,35,62185,1,0,3:2:0:0:
271,261,62327,5,0,2:0:0:0:
400,333,62470,1,0,3:2:0:0:
242,141,62613,1,10,2:0:0:0:
150,345,62756,1,0,2:0:0:0:
28,105,62899,6,0,P|100:116|185:184,1,165,2|0,3:2|2:0,2:0:0:0:
213,235,63185,2,0,P|243:204|235:131,1,110,10|2,2:0|2:0,2:0:0:0:
45,180,63470,1,0,3:2:0:0:
295,73,63613,1,0,3:2:0:0:
112,26,63756,2,0,B|102:81|136:100|141:100|146:100|187:126|171:176,1,165,10|0,2:0|2:0,2:0:0:0:
213,235,64042,5,0,3:2:0:0:
42,312,64185,1,2,3:2:0:0:
221,231,64327,1,10,2:0:0:0:
118,111,64470,1,2,3:2:0:0:
261,303,64613,5,2,2:0:0:0:
327,150,64756,1,2,3:2:0:0:
130,225,64899,1,10,2:0:0:0:
334,332,65042,1,2,2:0:0:0:
241,42,65185,5,8,2:0:0:0:
110,345,65327,1,8,2:0:0:0:
420,153,65613,5,8,2:0:0:0:
87,212,65756,1,8,2:0:0:0:
407,242,66042,5,8,2:0:0:0:
92,117,66185,1,8,2:0:0:0:
92,117,66613,6,0,B|61:98|74:63|113:43|113:43|218:72,1,195,2|0,2:0|2:0,2:0:0:0:
370,183,66899,2,0,B|494:145|494:145|458:152|414:126,1,195,2|0,2:0|2:0,2:0:0:0:
288,53,67185,2,0,B|290:134|260:87|264:181,1,112.5,2|0,2:0|2:0,2:0:0:0:
267,235,67470,6,0,B|239:269|219:291|219:291|100:234,1,195,6|0,3:2|2:0,2:0:0:0:
65,169,67756,2,0,P|63:99|123:73,1,130,8|0,2:0|2:0,2:0:0:0:
355,134,68042,1,0,3:2:0:0:
188,248,68185,1,0,3:2:0:0:
382,350,68327,1,2,2:0:0:0:
109,72,68470,6,0,B|102:92|87:106|87:106|238:62,1,195,10|0,2:0|2:0,2:0:0:0:
286,2,68756,1,0,3:2:0:0:
466,283,68899,1,8,2:0:0:0:
218,163,69042,1,0,2:0:0:0:
430,55,69185,1,0,3:2:0:0:
183,328,69327,6,0,P|232:310|271:326,1,65,0|0,3:2|2:0,2:0:0:0:
436,370,69470,2,0,B|360:333|360:333|404:185,1,225,10|0,2:0|2:0,2:0:0:0:
479,176,69756,5,2,3:2:0:0:
272,15,69899,1,0,2:0:0:0:
118,240,70042,1,10,2:0:0:0:
318,133,70185,6,0,L|335:64,1,60,2|0,2:0|2:0,2:0:0:0:
272,15,70327,1,0,3:2:0:0:
272,15,70470,1,0,3:2:0:0:
206,322,70613,1,2,2:0:0:0:
443,134,70756,6,0,B|397:104|350:120|330:155|330:155|336:205|280:226,1,195,10|0,2:0|2:0,2:0:0:0:
221,222,71042,1,0,3:2:0:0:
443,134,71185,6,0,B|375:182|286:145|272:92|334:28|356:74,1,240,8|0,2:0|2:0,2:0:0:0:
426,59,71470,2,0,B|450:52|450:52|454:47|454:47|500:34,1,65,0|0,3:2|2:0,2:0:0:0:
139,235,71613,2,0,B|115:228|115:228|110:223|110:223|65:210,1,65,0|0,3:2|2:0,2:0:0:0:
381,357,71756,2,0,P|416:336|426:298,1,65,10|0,2:0|2:0,2:0:0:0:
291,133,71899,5,0,3:2:0:0:
243,112,71970,1,0,3:2:0:0:
203,144,72042,2,0,B|193:214|236:233|240:232|243:232|322:265|289:353,1,225,2|0,3:2|2:0,2:0:0:0:
391,225,72327,2,0,B|404:208|422:204|422:204|401:197|371:228,1,65,10|0,2:0|2:0,2:0:0:0:
207,365,72470,1,2,2:0:0:0:
34,76,72613,6,0,P|79:58|98:23,1,65,0|0,3:2|2:0,2:0:0:0:
180,225,72756,2,0,P|225:243|244:278,1,65,2|0,3:2|2:0,2:0:0:0:
309,52,72899,1,0,2:0:0:0:
102,149,73042,2,0,B|182:127|182:127|204:78|204:78|299:55,1,225,10|0,2:0|2:0,2:0:0:0:
387,2,73327,5,0,3:2:0:0:
180,225,73470,1,8,2:0:0:0:
476,289,73613,5,0,3:2:0:0:
474,236,73685,1,0,3:2:0:0:
428,213,73756,1,0,3:2:0:0:
268,365,73899,1,0,3:2:0:0:
37,96,74042,2,0,P|121:126|235:143,1,195,10|0,2:0|2:0,2:0:0:0:
301,118,74327,6,0,P|331:52|278:15,1,130,2|0,3:2|2:0,2:0:0:0:
44,227,74613,2,0,P|86:285|144:258,1,130,10|2,2:0|3:2,2:0:0:0:
181,215,74827,1,0,3:2:0:0:
136,152,74899,1,2,3:2:0:0:
191,353,75042,6,0,P|219:360|264:379,1,65,2|0,3:2|2:0,2:0:0:0:
127,146,75185,2,0,P|120:174|101:219,1,65,0|0,2:0|2:0,2:0:0:0:
334,82,75327,2,0,P|284:69|206:36,1,130,10|0,2:0|2:0,2:0:0:0:
464,225,75613,1,0,3:2:0:0:
479,26,75756,5,10,3:2:0:0:
423,11,75827,1,0,3:2:0:0:
371,38,75899,1,0,3:2:0:0:
351,90,75970,1,0,3:2:0:0:
371,132,76042,5,4,0:3:0:0:
375,189,76113,1,4,2:3:0:0:
341,237,76185,1,4,3:3:0:0:
282,237,76256,1,4,2:3:0:0:
241,193,76327,5,10,2:0:0:0:
211,127,76399,1,8,2:0:0:0:
140,115,76470,1,8,2:0:0:0:
91,168,76542,1,8,2:0:0:0:
110,240,76613,6,0,B|142:251|142:251|276:183|276:183|290:130,1,225,6|0,3:2|2:0,2:0:0:0:
138,23,76899,2,0,B|75:17|35:80|44:118|44:118|107:134|87:222,1,225,8|0,2:0|2:0,2:0:0:0:
187,212,77185,5,0,3:2:0:0:
43,327,77327,1,0,3:2:0:0:
356,376,77470,1,2,2:0:0:0:
16,202,77613,2,0,B|86:174|86:174|101:131|101:131|183:100,1,195,10|0,2:0|2:0,2:0:0:0:
223,42,77899,5,0,3:2:0:0:
187,222,78042,1,8,2:0:0:0:
384,158,78185,5,0,3:2:0:0:
405,109,78256,1,0,3:2:0:0:
374,68,78327,2,0,L|300:53,1,65,0|0,3:2|2:0,2:0:0:0:
187,222,78470,2,0,L|113:207,1,65,0|0,3:2|2:0,2:0:0:0:
419,314,78613,5,10,2:0:0:0:
282,152,78756,1,0,2:0:0:0:
146,343,78899,5,2,3:2:0:0:
356,258,79042,1,0,2:0:0:0:
135,347,79185,1,10,2:0:0:0:
244,82,79327,5,2,2:0:0:0:
155,234,79470,1,0,3:2:0:0:
1,176,79613,1,0,3:2:0:0:
339,49,79756,5,2,2:0:0:0:
207,173,79899,2,0,P|271:218|320:294,1,130,10|0,2:0|2:0,2:0:0:0:
507,127,80185,6,0,L|433:110,1,65,0|0,3:2|2:0,2:0:0:0:
215,267,80327,2,0,L|436:317,1,195,8|0,2:0|2:0,2:0:0:0:
484,295,80613,5,2,3:2:0:0:
337,56,80756,1,2,3:2:0:0:
134,211,80899,1,8,2:0:0:0:
45,72,81042,1,0,2:0:0:0:
392,261,81185,6,0,P|364:340|351:402,1,130,2|0,3:2|2:0,2:0:0:0:
120,123,81470,2,0,P|148:44|161:-18,1,130,10|0,2:0|2:0,2:0:0:0:
378,173,81756,5,2,3:2:0:0:
134,211,81899,1,2,3:2:0:0:
237,70,82042,1,2,2:0:0:0:
275,314,82185,1,10,2:0:0:0:
479,83,82327,6,0,B|437:23|367:46|367:46|356:102|280:101,1,195,2|0,2:0|2:0,2:0:0:0:
237,70,82613,1,10,2:0:0:0:
67,357,82756,6,0,P|60:284|48:220,1,130,2|0,2:0|3:2,2:0:0:0:
237,70,83042,2,0,P|242:123|250:170,1,65,2|0,3:2|2:0,2:0:0:0:
340,211,83185,1,10,2:0:0:0:
128,153,83327,1,2,2:0:0:0:
75,353,83470,5,0,3:2:0:0:
260,207,83613,1,0,2:0:0:0:
259,377,83756,1,8,2:0:0:0:
118,151,83899,1,0,2:0:0:0:
390,48,84042,6,0,B|410:73|410:73|400:127,1,65,0|0,3:2|2:0,2:0:0:0:
260,207,84185,2,0,P|272:162|276:133,1,65,0|0,3:2|2:0,2:0:0:0:
418,294,84327,1,0,2:0:0:0:
118,151,84470,6,0,B|80:182|61:201|61:201|93:252|128:304,1,195,8|0,2:0|2:0,2:0:0:0:
206,309,84756,1,0,3:2:0:0:
360,135,84899,6,0,B|362:89|328:62|289:54|289:54|272:96,1,150,8|2,2:0|2:0,2:0:0:0:
263,153,85113,1,0,2:0:0:0:
322,196,85185,1,2,3:2:0:0:
125,300,85327,2,0,P|69:315|48:322,1,65,2|0,3:2|2:0,2:0:0:0:
347,370,85470,1,10,2:0:0:0:
263,153,85613,1,2,2:0:0:0:
206,309,85756,6,0,B|219:325|222:344|222:344|229:327|283:314,1,80,4|0,3:2|2:0,2:0:0:0:
334,210,85899,1,2,2:0:0:0:
330,201,85970,1,2,2:0:0:0:
322,196,86042,1,10,2:0:0:0:
253,155,86185,1,2,2:0:0:0:
98,218,86327,5,2,3:2:0:0:
230,20,86470,1,2,3:2:0:0:
362,128,86613,1,10,2:0:0:0:
140,94,86756,1,2,2:0:0:0:
353,46,86899,5,2,3:2:0:0:
222,209,87042,1,2,2:0:0:0:
385,340,87185,1,10,2:0:0:0:
502,165,87327,5,2,2:0:0:0:
467,124,87399,1,2,2:0:0:0:
417,134,87470,1,2,3:2:0:0:
291,253,87613,1,2,3:2:0:0:
65,145,87756,6,0,P|101:102|139:110,1,65,10|0,2:0|2:0,2:0:0:0:
274,12,87899,2,0,P|278:67|246:89,1,65,2|0,2:0|2:0,2:0:0:0:
0,88,88042,6,0,B|75:63|94:128|89:131|85:135|103:224|216:178,1,225,2|0,3:2|2:0,2:0:0:0:
227,135,88327,1,10,2:0:0:0:
16,339,88470,6,0,B|47:315|47:315|183:348,1,150,2|0,2:0|3:2,2:0:0:0:
471,133,88756,2,0,B|440:157|440:157|304:124,1,150,2|8,3:2|2:0,2:0:0:0:
86,309,89042,6,0,B|198:287|198:287|241:218|174:183,1,225,2|0,3:2|2:0,2:0:0:0:
115,153,89327,2,0,B|92:158|87:177|87:177|111:156|135:161,1,75,2|0,3:2|2:0,2:0:0:0:
310,27,89470,1,8,2:0:0:0:
239,73,89613,6,0,B|216:68|211:49|211:49|235:70|259:65,1,75,2|0,2:0|2:0,2:0:0:0:
372,215,89756,1,2,3:2:0:0:
479,161,89899,5,2,3:2:0:0:
287,134,90042,1,10,2:0:0:0:
349,329,90185,1,2,2:0:0:0:
485,156,90327,6,0,B|404:126|404:126|387:69|387:69|285:37,1,225,2|0,3:2|2:0,2:0:0:0:
239,73,90613,2,0,B|224:40|224:40|259:-12,1,65,10|0,2:0|2:0,2:0:0:0:
487,164,90756,1,2,2:0:0:0:
249,266,90899,6,0,L|234:165,1,65,2|0,3:2|2:0,2:0:0:0:
478,334,91042,2,0,L|461:243,1,65,2|0,3:2|2:0,2:0:0:0:
354,193,91185,1,8,2:0:0:0:
168,370,91327,6,0,P|126:308|-14:269,1,195,2|0,2:0|2:0,2:0:0:0:
3,342,91613,6,0,L|20:251,1,65,2|0,2:0|2:0,2:0:0:0:
232,274,91756,2,0,L|247:173,1,65,10|0,2:0|2:0,2:0:0:0:
104,155,91899,1,2,2:0:0:0:
133,384,92042,6,0,L|178:138,1,195,2|0,3:2|2:0,2:0:0:0:
216,135,92327,1,10,2:0:0:0:
119,28,92470,5,2,3:2:0:0:
65,24,92542,1,0,3:2:0:0:
36,66,92613,1,4,3:2:0:0:
222,147,92756,1,0,3:2:0:0:
282,6,92899,1,8,2:0:0:0:
116,172,93042,5,0,3:2:0:0:
108,169,93113,1,0,3:2:0:0:
100,166,93185,1,0,3:2:0:0:
381,247,93327,1,0,3:2:0:0:
175,324,93470,1,8,2:0:0:0:
464,234,93613,5,0,3:2:0:0:
453,184,93685,1,0,3:2:0:0:
402,166,93756,1,0,3:2:0:0:
285,360,93899,1,0,3:2:0:0:
192,34,94042,1,8,2:0:0:0:
395,157,94185,1,0,3:2:0:0:
68,238,94327,5,0,3:2:0:0:
396,294,94470,1,0,3:2:0:0:
138,298,94613,1,8,2:0:0:0:
319,242,94756,1,0,3:2:0:0:
228,270,94899,5,6,2:0:0:0:
44,275,104042,6,0,P|119:268|171:332,1,150,6|2,3:2|2:0,2:0:0:0:
344,225,104470,1,2,3:2:0:0:
235,364,104613,2,0,P|249:303|271:218,1,150,10|2,2:0|3:2,2:0:0:0:
98,49,105042,2,0,P|88:89|73:146,1,75.0000000000002,2|2,3:2|2:0,2:0:0:0:
401,169,105327,6,0,P|410:122|324:73,1,150,10|2,2:0|3:2,2:0:0:0:
350,279,105756,2,0,P|386:298|421:288,1,75.0000000000002,10|0,2:0|2:0,2:0:0:0:
241,108,106042,1,2,3:2:0:0:
196,192,106185,1,0,3:2:0:0:
292,362,106327,5,2,3:2:0:0:
417,290,106470,2,0,P|359:299|320:304,1,75.0000000000002,2|2,2:0|3:2,2:0:0:0:
119,103,106756,1,2,3:2:0:0:
47,170,106899,2,0,P|145:185|211:193,1,150,10|2,2:0|3:2,2:0:0:0:
443,91,107327,5,2,3:2:0:0:
343,22,107470,1,0,3:2:0:0:
449,98,107613,1,10,2:0:0:0:
304,202,107756,2,0,P|267:233|262:277,1,75.0000000000002,2|2,2:0|3:2,2:0:0:0:
145,132,108042,1,8,2:0:0:0:
312,204,108185,1,0,2:0:0:0:
187,302,108327,2,0,P|224:333|229:377,1,75.0000000000002,0|2,3:2|3:2,2:0:0:0:
306,99,108613,6,0,B|253:107|237:68|241:69|247:69|213:38|173:45,1,150,2|2,3:2|3:2,2:0:0:0:
371,58,109042,1,2,3:2:0:0:
169,44,109185,2,0,P|188:89|199:142,1,75.0000000000002,8|0,2:0|2:0,2:0:0:0:
371,255,109470,5,2,3:2:0:0:
439,228,109613,1,0,3:2:0:0:
412,160,109756,1,2,3:2:0:0:
240,204,109899,5,8,2:0:0:0:
200,360,110042,1,2,2:0:0:0:
241,195,110185,1,0,3:2:0:0:
434,352,110327,2,0,P|377:357|343:367,1,90.0000000000001,10|0,2:0|2:0,2:0:0:0:
56,135,110613,2,0,P|113:130|147:120,1,90.0000000000001,2|0,3:2|3:2,2:0:0:0:
434,136,110899,5,10,2:0:0:0:
131,43,111042,1,10,2:0:0:0:
498,177,111327,5,8,2:0:0:0:
195,270,111470,1,8,2:0:0:0:
457,356,111756,5,8,2:0:0:0:
364,53,111899,1,8,2:0:0:0:
118,306,112185,5,8,2:0:0:0:
211,3,112327,1,8,2:0:0:0:
258,185,112613,6,0,L|263:214,2,19.9999993896485,2|2|2,2:0|2:0|2:0,2:0:0:0:
258,185,112899,6,0,P|254:253|250:336,1,150,2|0,2:0|2:0,2:0:0:0:
316,373,113185,5,6,3:2:0:0:
133,221,113327,1,2,2:0:0:0:
130,226,113399,1,2,2:0:0:0:
129,232,113470,1,8,2:0:0:0:
358,126,113613,1,2,2:0:0:0:
173,136,113756,5,2,3:2:0:0:
250,334,113899,1,2,2:0:0:0:
396,193,114042,1,8,2:0:0:0:
110,239,114185,5,2,2:0:0:0:
246,341,114327,1,2,3:2:0:0:
411,289,114470,1,2,3:2:0:0:
274,186,114613,1,10,2:0:0:0:
142,344,114756,6,0,P|130:283|101:251,1,100,2|0,2:0|3:2,2:0:0:0:
356,223,115042,2,0,P|368:162|397:130,1,100,0|8,2:0|2:0,2:0:0:0:
133,173,115327,1,2,2:0:0:0:
164,45,115470,6,0,P|228:93|208:141,1,100,2|0,3:2|2:0,2:0:0:0:
299,303,115756,2,0,B|348:281|348:281|361:246|361:246|429:214,1,150,10|0,2:0|2:0,2:0:0:0:
486,234,116042,5,2,3:2:0:0:
305,124,116185,1,2,2:0:0:0:
495,34,116327,1,8,2:0:0:0:
398,141,116470,6,0,P|396:78|437:56,1,100,2|0,2:0|3:2,2:0:0:0:
404,146,116756,1,2,3:2:0:0:
206,0,116899,6,0,P|221:80|236:175,1,150,10|0,2:0|2:0,2:0:0:0:
297,194,117185,1,0,3:2:0:0:
116,71,117327,1,0,2:0:0:0:
161,173,117470,1,8,2:0:0:0:
301,2,117613,1,2,2:0:0:0:
476,137,117756,5,6,3:2:0:0:
392,263,117899,1,2,2:0:0:0:
335,89,118042,1,10,2:0:0:0:
483,142,118185,2,0,P|420:158|397:193,1,100,2|2,2:0|3:2,2:0:0:0:
188,333,118470,2,0,P|125:317|102:282,1,100,2|8,2:0|2:0,2:0:0:0:
272,335,118756,1,2,2:0:0:0:
105,186,118899,5,2,3:2:0:0:
263,109,119042,1,2,3:2:0:0:
94,192,119185,1,10,2:0:0:0:
326,272,119327,2,0,B|385:263|357:243|436:232,1,100,2|0,2:0|3:2,2:0:0:0:
258,230,119613,1,0,2:0:0:0:
436,339,119756,2,0,P|454:232|474:133,1,180,8|0,2:0|2:0,2:0:0:0:
422,103,120042,5,6,3:2:0:0:
218,22,120185,1,4,2:3:0:0:
429,98,120327,1,10,2:0:0:0:
181,146,120470,1,2,3:2:0:0:
360,34,120613,5,6,3:2:0:0:
297,249,120756,1,0,3:2:0:0:
120,82,120899,1,10,2:0:0:0:
359,168,121042,1,10,2:0:0:0:
136,322,121185,5,2,3:2:0:0:
266,76,121327,1,2,3:2:0:0:
393,276,121470,1,10,2:0:0:0:
148,158,121613,1,2,3:2:0:0:
386,82,121756,5,0,3:2:0:0:
255,254,121899,1,0,3:2:0:0:
70,95,122042,2,0,B|45:61|98:12|98:12|213:36,1,180,10|0,2:0|2:0,2:0:0:0:
248,58,122327,6,0,B|301:45|301:45|323:12|323:12|407:-7,1,150,6|0,3:2|2:0,2:0:0:0:
446,28,122613,1,8,2:0:0:0:
242,52,122756,1,2,2:0:0:0:
440,207,122899,5,2,3:2:0:0:
367,95,123042,1,2,3:2:0:0:
302,290,123185,1,10,2:0:0:0:
141,180,123327,6,0,P|158:115|190:105,1,100,2|0,2:0|3:2,2:0:0:0:
295,296,123613,2,0,P|230:313|205:291,1,100,0|8,3:2|2:0,2:0:0:0:
319,211,123899,1,2,3:2:0:0:
133,303,124042,1,2,2:0:0:0:
386,382,124185,2,0,P|394:306|411:204,1,150,2|0,3:2|2:0,2:0:0:0:
467,181,124470,6,0,P|453:124|410:108,1,100,2|0,2:0|3:2,2:0:0:0:
201,32,124756,2,0,P|196:78|185:141,1,100,2|10,2:0|2:0,2:0:0:0:
366,297,125042,1,2,2:0:0:0:
205,206,125185,2,0,B|147:231|116:174|119:173|122:173|98:102|15:142,1,200,2|10,3:2|2:0,2:0:0:0:
351,46,125613,6,0,P|413:60|463:66,1,100,2|0,2:0|3:2,2:0:0:0:
187,130,125899,1,2,3:2:0:0:
299,254,126042,1,10,2:0:0:0:
351,144,126185,1,0,3:2:0:0:
102,254,126327,5,0,2:0:0:0:
280,333,126470,1,0,3:2:0:0:
92,253,126613,2,0,P|57:313|114:373,1,150,10|0,2:0|2:0,2:0:0:0:
172,353,126899,6,0,B|173:296|200:314|198:246,1,100,6|0,3:2|2:0,2:0:0:0:
331,98,127185,1,10,2:0:0:0:
159,27,127327,1,2,2:0:0:0:
227,177,127470,5,0,3:2:0:0:
374,22,127613,1,0,3:2:0:0:
501,222,127756,2,0,P|437:245|348:283,1,150,10|0,2:0|2:0,2:0:0:0:
294,246,128042,5,0,3:2:0:0:
471,338,128185,1,0,3:2:0:0:
288,243,128327,1,8,2:0:0:0:
185,321,128470,5,0,3:2:0:0:
223,142,128613,1,0,2:0:0:0:
388,186,128756,1,0,3:2:0:0:
280,245,128899,1,10,2:0:0:0:
119,101,129042,5,0,3:2:0:0:
113,93,129113,1,0,3:2:0:0:
106,88,129185,2,0,B|162:95|172:54|175:54|176:54|196:29|251:37,1,150,2|0,3:2|2:0,2:0:0:0:
302,75,129470,1,10,2:0:0:0:
391,196,129613,1,2,2:0:0:0:
218,292,129756,5,0,3:2:0:0:
206,289,129899,1,0,3:2:0:0:
333,384,130042,2,0,B|381:355|381:355|350:233,1,150,10|0,2:0|2:0,2:0:0:0:
295,220,130327,5,0,3:2:0:0:
468,282,130470,1,2,3:2:0:0:
422,127,130613,1,10,2:0:0:0:
291,315,130756,1,2,3:2:0:0:
432,125,130899,5,2,2:0:0:0:
193,230,131042,1,2,3:2:0:0:
411,335,131185,1,10,2:0:0:0:
353,72,131327,1,2,2:0:0:0:
241,342,131470,5,8,2:0:0:0:
110,39,131613,1,8,2:0:0:0:
420,231,131899,5,8,2:0:0:0:
87,172,132042,1,8,2:0:0:0:
407,142,132327,5,8,2:0:0:0:
94,253,132470,1,8,2:0:0:0:
320,39,132756,5,8,2:0:0:0:
189,342,132899,1,8,2:0:0:0:
203,98,133185,5,8,2:0:0:0:
311,257,133327,1,8,2:0:0:0:
14,242,133470,2,0,B|147:239|97:187|240:186,1,225,0|0,2:0|2:0,2:0:0:0:
297,132,133756,6,0,P|306:52|239:29,1,130,6|0,3:2|2:0,2:0:0:0:
89,247,134042,2,0,B|119:290|150:347|150:347|182:323|229:302,1,195,8|0,2:0|2:0,2:0:0:0:
296,320,134327,1,0,3:2:0:0:
93,143,134470,1,0,3:2:0:0:
361,33,134613,1,10,2:0:0:0:
97,136,134756,6,0,B|179:139|150:177|221:176,1,130,2|0,3:2|2:0,2:0:0:0:
430,172,135042,1,0,3:2:0:0:
254,33,135185,1,8,2:0:0:0:
109,282,135327,1,0,2:0:0:0:
337,173,135470,1,0,3:2:0:0:
97,136,135613,2,0,P|140:126|169:87,1,65,0|0,3:2|2:0,2:0:0:0:
294,242,135756,2,0,P|370:269|429:381,1,195,10|0,2:0|2:0,2:0:0:0:
502,366,136042,5,2,3:2:0:0:
229,288,136185,1,0,2:0:0:0:
469,141,136327,1,10,2:0:0:0:
350,293,136470,1,2,2:0:0:0:
181,174,136613,6,0,P|214:137|262:143,1,65,0|0,3:2|2:0,2:0:0:0:
288,30,136756,2,0,P|332:52|338:100,1,65,0|0,3:2|2:0,2:0:0:0:
364,145,136899,1,10,2:0:0:0:
120,55,137042,6,0,P|232:133|259:230,1,225,2|0,3:2|2:0,2:0:0:0:
322,251,137327,1,0,3:2:0:0:
105,172,137470,1,8,2:0:0:0:
333,253,137613,1,0,2:0:0:0:
192,324,137756,1,0,3:2:0:0:
306,85,137899,2,0,P|332:100|390:97,1,65,0|0,3:2|2:0,2:0:0:0:
185,333,138042,2,0,B|175:279|95:239|45:249|45:249|66:274|62:329,1,225,10|0,2:0|2:0,2:0:0:0:
87,375,138327,6,0,B|178:369|171:292|176:290|183:290|205:236|298:243,1,225,2|0,3:2|2:0,2:0:0:0:
325,269,138613,1,10,2:0:0:0:
110,174,138756,1,2,3:2:0:0:
89,137,138827,1,0,3:2:0:0:
110,99,138899,1,2,3:2:0:0:
332,39,139042,1,2,3:2:0:0:
180,141,139185,2,0,P|226:153|250:175,1,60,10|0,2:0|2:0,2:0:0:0:
341,40,139327,2,0,P|426:26|491:-4,1,150,2|0,3:2|2:0,2:0:0:0:
256,12,139613,5,0,3:2:0:0:
403,259,139756,1,8,2:0:0:0:
244,157,139899,1,0,2:0:0:0:
119,310,140042,1,0,3:2:0:0:
378,384,140185,1,0,3:2:0:0:
153,137,140327,2,0,B|98:119|41:159|24:216|24:216|69:228|71:273,1,225,10|0,2:0|2:0,2:0:0:0:
111,315,140613,5,6,3:2:0:0:
249,81,140756,1,0,3:2:0:0:
401,315,140899,1,10,2:0:0:0:
153,137,141042,1,2,3:2:0:0:
143,134,141113,1,0,3:2:0:0:
133,131,141185,1,2,3:2:0:0:
415,226,141327,1,2,3:2:0:0:
205,355,141470,1,8,2:0:0:0:
77,244,141613,5,2,3:2:0:0:
105,212,141685,1,0,3:2:0:0:
148,220,141756,1,0,3:2:0:0:
284,376,141899,1,0,3:2:0:0:
474,322,142042,5,10,3:2:0:0:
502,271,142113,1,0,3:2:0:0:
488,214,142185,1,0,3:2:0:0:
442,182,142256,1,0,3:2:0:0:
398,194,142327,5,4,0:3:0:0:
340,193,142399,1,4,2:3:0:0:
295,154,142470,1,4,3:3:0:0:
300,96,142542,1,4,2:3:0:0:
330,65,142613,5,10,2:0:0:0:
285,7,142685,1,8,2:0:0:0:
213,10,142756,1,8,2:0:0:0:
177,74,142827,1,8,2:0:0:0:
195,146,142899,6,0,B|236:158|236:158|374:107|374:107|435:120,1,225,6|0,3:2|2:0,2:0:0:0:
482,17,143185,2,0,B|462:55|439:71|439:71|487:235,1,225,8|0,2:0|2:0,2:0:0:0:
444,281,143470,5,0,3:2:0:0:
273,102,143613,1,0,3:2:0:0:
155,329,143756,1,2,2:0:0:0:
410,195,143899,2,0,B|341:210|370:237|291:258,1,130,10|0,2:0|2:0,2:0:0:0:
46,112,144185,5,2,3:2:0:0:
144,22,144327,1,10,2:0:0:0:
270,176,144470,2,0,B|201:161|230:134|151:113,1,130,2|0,2:0|3:2,2:0:0:0:
351,146,144756,5,2,3:2:0:0:
137,234,144899,1,10,2:0:0:0:
232,53,145042,2,0,P|245:140|261:281,1,195,2|0,2:0|2:0,2:0:0:0:
192,297,145327,6,0,P|196:355|210:370,1,65,2|0,2:0|2:0,2:0:0:0:
357,207,145470,2,0,P|353:149|339:134,1,65,10|0,2:0|2:0,2:0:0:0:
31,176,145613,2,0,B|85:160|85:160|98:145|98:145|181:123,1,130,2|0,2:0|3:2,2:0:0:0:
24,170,145899,1,0,3:2:0:0:
257,246,146042,1,2,2:0:0:0:
99,57,146185,1,8,2:0:0:0:
303,18,146327,6,0,B|330:47|330:47|300:151,1,130,2|0,2:0|3:2,2:0:0:0:
72,350,146613,2,0,B|45:321|45:321|75:217,1,130,10|0,2:0|2:0,2:0:0:0:
380,224,146899,2,0,B|357:282|287:256|287:256|287:198|210:184,1,195,2|0,3:2|2:0,2:0:0:0:
166,167,147185,1,8,2:0:0:0:
303,18,147327,1,0,2:0:0:0:
154,163,147470,5,2,3:2:0:0:
275,332,147613,1,2,2:0:0:0:
352,147,147756,1,10,2:0:0:0:
44,203,147899,5,2,2:0:0:0:
209,258,148042,1,2,3:2:0:0:
264,93,148185,1,2,3:2:0:0:
154,163,148327,5,2,2:0:0:0:
365,298,148470,1,10,2:0:0:0:
105,327,148613,1,2,2:0:0:0:
289,244,148756,2,0,B|298:315|258:298|270:385,1,130,2|8,3:2|2:0,2:0:0:0:
62,141,149042,1,2,2:0:0:0:
177,29,149185,6,0,P|226:52|263:35,1,65,0|0,3:2|2:0,2:0:0:0:
230,186,149327,2,0,P|279:163|316:180,1,65,2|0,3:2|2:0,2:0:0:0:
355,85,149470,1,10,2:0:0:0:
100,67,149613,1,2,2:0:0:0:
439,163,149756,6,0,B|373:159|359:210|361:210|366:210|344:271|258:243,1,195,0|0,3:2|2:0,2:0:0:0:
230,186,150042,1,8,2:0:0:0:
243,352,150185,1,0,2:0:0:0:
36,141,150327,6,0,B|22:180|22:180|45:210,1,65,0|0,3:2|2:0,2:0:0:0:
120,279,150470,2,0,B|150:169|150:169|249:189,1,195,0|0,3:2|2:0,2:0:0:0:
305,174,150756,6,0,B|351:149|351:149|362:53|362:53|303:0,1,195,8|0,2:0|2:0,2:0:0:0:
253,11,151042,1,0,3:2:0:0:
241,45,151113,1,0,3:0:0:0:
266,73,151185,1,8,2:0:0:0:
438,139,151327,1,2,2:0:0:0:
264,83,151470,5,2,3:2:0:0:
112,180,151613,1,2,3:2:0:0:
380,279,151756,1,10,2:0:0:0:
260,183,151899,1,2,2:0:0:0:
190,384,152042,5,6,3:2:0:0:
300,260,152185,1,2,2:0:0:0:
112,180,152327,2,0,B|51:216|51:216|97:337,1,180,10|0,2:0|2:0,2:0:0:0:
165,312,152613,1,2,3:2:0:0:
364,153,152756,2,0,B|365:109|365:109|288:67,1,120,2|8,3:2|2:0,2:0:0:0:
112,180,153042,6,0,P|156:229|208:222,1,120,2|0,3:2|2:0,2:0:0:0:
330,5,153327,2,0,P|264:1|230:41,1,120,2|8,3:2|2:0,2:0:0:0:
384,252,153613,1,2,2:0:0:0:
121,97,153756,2,0,P|155:103|197:106,1,60,0|0,3:2|2:0,2:0:0:0:
407,135,153899,2,0,L|331:126,1,60,2|0,3:2|2:0,2:0:0:0:
264,116,154042,1,10,2:0:0:0:
42,291,154185,5,2,3:2:0:0:
36,297,154256,1,0,3:2:0:0:
31,304,154327,2,0,B|91:310|104:265|107:265|110:265|142:221|217:242,1,180,2|0,3:2|2:0,2:0:0:0:
274,215,154613,2,0,B|299:225|299:225|327:275|286:311,1,120,10|0,2:0|2:0,2:0:0:0:
65,158,154899,1,2,3:2:0:0:
205,28,155042,2,0,B|260:34|260:34|266:38|266:38|366:47,1,120,2|8,3:2|2:0,2:0:0:0:
465,195,155327,5,2,3:2:0:0:
314,131,155470,1,0,2:0:0:0:
436,12,155613,1,2,3:2:0:0:
492,78,155756,1,8,2:0:0:0:
308,133,155899,1,2,2:0:0:0:
497,271,156042,6,0,P|456:282|431:312,1,60,0|0,3:2|2:0,2:0:0:0:
318,384,156185,1,2,3:2:0:0:
502,351,156327,2,0,P|408:298|293:262,1,225,10|0,2:0|2:0,2:0:0:0:
224,300,156613,6,0,P|221:228|275:190,1,130,2|0,3:2|2:0,2:0:0:0:
477,21,156899,2,0,B|524:54|514:121|480:134|480:134|442:128|417:163,1,195,10|0,2:0|2:0,2:0:0:0:
399,225,157185,1,2,3:2:0:0:
195,134,157327,1,0,3:2:0:0:
367,25,157470,1,8,2:0:0:0:
308,122,157613,1,2,3:2:0:0:
208,34,157756,5,2,2:0:0:0:
266,262,157899,1,2,3:2:0:0:
107,111,158042,1,10,2:0:0:0:
95,241,158185,1,2,2:0:0:0:
18,180,158327,5,2,3:2:0:0:
227,142,158470,1,0,3:2:0:0:
15,186,158613,2,0,L|212:213,1,195,8|0,2:0|2:0,2:0:0:0:
266,262,158899,5,2,3:2:0:0:
208,34,159042,1,2,2:0:0:0:
367,185,159185,1,10,2:0:0:0:
379,55,159327,1,2,2:0:0:0:
456,116,159470,5,2,3:2:0:0:
213,22,159613,1,2,3:2:0:0:
111,258,159756,1,10,2:0:0:0:
379,47,159899,6,0,P|331:32|313:16,1,65,10|0,2:0|2:0,2:0:0:0:
401,315,160185,2,0,P|416:267|432:249,1,65,10|0,2:0|2:0,2:0:0:0:
133,337,160470,2,0,P|181:352|199:368,1,65,10|0,2:0|2:0,2:0:0:0:
111,69,160756,2,0,P|96:117|80:135,1,65,10|0,2:0|2:0,2:0:0:0:
401,306,179470,6,0,P|373:253|304:244,1,130,2|0,3:2|2:0,2:0:0:0:
248,200,179899,1,0,3:2:0:0:
163,358,180042,2,0,P|97:347|19:339,1,130,8|2,2:0|3:2,2:0:0:0:
273,330,180470,2,0,P|315:327|334:299,1,64.9999999999999,2|0,3:2|2:0,2:0:0:0:
190,143,180756,6,0,P|161:210|194:257,1,130,8|0,2:0|3:2,2:0:0:0:
439,180,181185,2,0,P|448:134|456:111,1,64.9999999999999,8|0,2:0|2:0,2:0:0:0:
304,31,181470,1,2,3:2:0:0:
261,95,181613,1,0,3:2:0:0:
311,153,181756,1,2,3:2:0:0:
311,153,182042,5,2,2:0:0:0:
354,217,182185,1,2,3:2:0:0:
304,275,182327,2,0,P|261:298|259:330,1,64.9999999999999,8|0,2:0|2:0,2:0:0:0:
382,290,182613,1,2,3:2:0:0:
208,377,182756,6,0,P|176:327|215:248,1,130,2|8,3:2|2:0,2:0:0:0:
321,354,183185,2,0,P|362:365|395:373,1,64.9999999999999,0|0,2:0|3:2,2:0:0:0:
195,181,183470,2,0,P|135:198|52:213,1,130,8|2,2:0|3:2,2:0:0:0:
202,176,183899,1,0,3:2:0:0:
296,22,184042,6,0,P|327:58|324:92,1,64.9999999999999,2|0,3:2|2:0,2:0:0:0:
119,152,184327,1,2,2:0:0:0:
176,100,184470,2,0,P|207:93|238:84,1,64.9999999999999,2|8,3:2|2:0,2:0:0:0:
429,228,184756,2,0,P|397:196|362:195,1,64.9999999999999,2|0,2:0|3:2,2:0:0:0:
165,283,185042,6,0,P|218:283|263:352,1,130,2|8,3:2|2:0,2:0:0:0:
376,344,185470,1,0,2:0:0:0:
450,302,185613,1,0,3:2:0:0:
353,267,185756,2,0,P|367:306|376:337,1,64.9999999999999,8|0,2:0|2:0,2:0:0:0:
186,356,186042,2,0,P|158:280|141:220,1,130,2|2,3:2|3:2,2:0:0:0:
141,233,186613,5,2,2:0:0:0:
74,272,186756,1,2,3:2:0:0:
178,148,186899,1,10,2:0:0:0:
178,148,187042,2,0,P|220:157|249:162,1,64.9999999999999,2|0,2:0|3:2,2:0:0:0:
115,28,187327,2,0,P|66:26|29:98,1,130,2|8,3:2|2:0,2:0:0:0:
165,211,187756,6,0,P|174:169|179:140,1,64.9999999999999,2|0,2:0|3:2,2:0:0:0:
349,55,188042,2,0,P|340:97|335:126,1,64.9999999999999,10|0,2:0|2:0,2:0:0:0:
195,62,188327,2,0,P|238:72|258:103,1,64.9999999999999,2|0,3:2|3:2,2:0:0:0:
464,217,188613,6,0,B|425:216|406:249|409:249|413:249|405:288|353:288,1,130,2|0,3:2|2:0,2:0:0:0:
294,239,189042,1,0,3:2:0:0:
213,366,189185,2,0,P|199:307|156:239,1,130,8|2,2:0|3:2,2:0:0:0:
284,149,189613,2,0,P|326:163|355:164,1,64.9999999999999,2|0,3:2|2:0,2:0:0:0:
157,320,189899,6,0,P|107:302|102:215,1,130,8|0,2:0|3:2,2:0:0:0:
252,97,190327,2,0,P|280:125|278:169,1,64.9999999999999,8|0,2:0|2:0,2:0:0:0:
45,150,190613,2,0,P|95:136|154:116,1,97.4999999999999,2|0,3:2|2:0,2:0:0:0:
179,54,190899,6,0,P|154:23|66:31,1,130,2|2,3:2|2:0,2:0:0:0:
283,148,191327,2,0,P|318:114|353:112,1,64.9999999999999,2|8,3:2|2:0,2:0:0:0:
403,131,191613,1,0,2:0:0:0:
216,218,191756,2,0,P|290:230|361:242,1,130,2|0,3:2|2:0,2:0:0:0:
169,344,192185,6,0,P|95:332|24:320,1,130,8|0,2:0|3:2,2:0:0:0:
298,323,192613,1,8,2:0:0:0:
298,323,192899,1,2,3:2:0:0:
258,240,193042,1,2,3:2:0:0:
147,173,193185,6,0,P|140:217|131:252,1,64.9999999999999,2|0,3:2|2:0,2:0:0:0:
334,97,193470,5,2,2:0:0:0:
334,97,193613,2,0,P|341:141|350:176,1,75.0000000000002,2|8,3:2|2:0,2:0:0:0:
120,97,193899,5,2,2:0:0:0:
50,70,194042,1,2,3:2:0:0:
77,0,194185,1,2,3:2:0:0:
428,91,194613,6,0,B|450:156|393:180|396:178|399:178|357:197|377:266,1,180,2|0,2:0|2:0,2:0:0:0:
406,324,194899,2,0,B|426:352|426:352|325:330|325:330|315:273|253:256,1,225,2|0,2:0|2:0,2:0:0:0:
191,185,195185,2,0,B|147:193|126:241|126:241|161:210|225:198,1,150,2|0,2:0|2:0,2:0:0:0:
246,345,195470,6,0,B|298:251|215:192|219:191|225:189|125:155|237:10,1,300,6|0,3:2|2:0,2:0:0:0:
263,14,195756,6,0,B|318:-3|318:-3|367:21|378:33|364:97,1,150,8|0,2:0|2:0,2:0:0:0:
115,257,196042,2,0,B|61:236|61:236|37:187|36:171|86:129,1,150,0|0,3:2|3:2,2:0:0:0:
283,174,196327,1,2,2:0:0:0:
34,343,196470,2,0,P|114:279|281:232,1,225,10|0,2:0|2:0,2:0:0:0:
286,181,196756,5,0,3:2:0:0:
367,316,196899,1,8,2:0:0:0:
148,148,197042,1,0,2:0:0:0:
386,36,197185,1,0,3:2:0:0:
283,295,197327,1,0,3:2:0:0:
109,57,197470,2,0,B|196:70|196:70|212:115|277:113,1,150,10|0,2:0|2:0,2:0:0:0:
305,151,197685,1,0,2:0:0:0:
379,153,197756,6,0,B|386:137|411:136|411:136|339:130|316:194|319:194|321:194|289:222|226:221,1,225,2|0,3:2|2:0,2:0:0:0:
177,187,198042,1,10,2:0:0:0:
432,363,198185,2,0,P|459:290|416:238,1,150,2|0,2:0|3:2,2:0:0:0:
154,265,198470,1,0,3:2:0:0:
379,153,198613,2,0,B|292:144|322:109|217:93,1,150,2|10,2:0|2:0,2:0:0:0:
421,67,198899,5,0,2:0:0:0:
251,200,199042,1,0,3:2:0:0:
192,28,199185,1,8,2:0:0:0:
373,162,199327,1,0,2:0:0:0:
122,273,199470,1,0,3:2:0:0:
234,102,199613,1,0,3:2:0:0:
435,337,199756,2,0,P|376:338|361:313,1,75,10|0,2:0|2:0,2:0:0:0:
176,196,199899,5,0,3:2:0:0:
198,167,199970,1,0,3:2:0:0:
242,171,200042,2,0,B|286:222|234:263|238:263|243:263|160:288|183:379,1,225,2|0,3:2|2:0,2:0:0:0:
256,369,200327,1,10,2:0:0:0:
56,227,200470,1,2,2:0:0:0:
227,91,200613,1,2,3:2:0:0:
52,62,200756,5,2,3:2:0:0:
168,10,200899,1,2,2:0:0:0:
281,246,201042,2,0,B|359:218|359:218|374:175|374:175|475:141,1,225,10|0,2:0|2:0,2:0:0:0:
494,76,201327,1,2,3:2:0:0:
376,297,201470,1,10,2:0:0:0:
283,79,201613,1,2,2:0:0:0:
31,213,201756,6,0,P|81:222|107:276,1,75,2|0,3:2|2:0,2:0:0:0:
145,302,201899,2,0,P|162:349|128:399,1,75,2|0,3:2|2:0,2:0:0:0:
21,218,202042,2,0,P|132:186|262:142,1,225,8|0,2:0|2:0,2:0:0:0:
274,68,202327,5,2,3:2:0:0:
78,350,202470,1,0,2:0:0:0:
162,135,202613,1,10,2:0:0:0:
398,371,202756,1,2,2:0:0:0:
253,228,202899,1,2,3:2:0:0:
398,75,203042,1,2,3:2:0:0:
252,236,203185,1,2,2:0:0:0:
36,24,203327,2,0,P|116:-5|225:94,1,225,10|0,2:0|2:0,2:0:0:0:
302,78,203613,6,0,P|311:121|323:158,1,75,2|0,3:2|2:0,2:0:0:0:
70,310,203756,2,0,P|61:267|49:230,1,75,10|0,2:0|2:0,2:0:0:0:
308,70,203899,1,2,2:0:0:0:
171,304,204042,1,0,3:2:0:0:
15,102,204185,1,0,3:2:0:0:
320,150,204327,2,0,B|238:129|214:190|218:188|224:188|197:255|108:218,1,225,8|0,2:0|2:0,2:0:0:0:
93,120,204613,6,0,B|102:89|86:61|86:61|167:70|203:113|216:204,1,225,6|0,3:2|2:0,2:0:0:0:
250,227,204899,1,8,2:0:0:0:
264,44,205042,1,0,2:0:0:0:
80,123,205185,1,0,3:2:0:0:
351,240,205327,1,0,3:2:0:0:
95,329,205470,1,10,2:0:0:0:
346,368,205613,6,0,B|423:380|423:380|457:230,1,225,2|0,3:2|2:0,2:0:0:0:
407,178,205899,1,0,3:2:0:0:
147,187,206042,2,0,B|145:277|199:234|194:332,1,150,8|0,2:0|2:0,2:0:0:0:
405,170,206327,2,0,P|346:187|316:218,1,75,0|0,3:2|2:0,2:0:0:0:
112,61,206470,2,0,P|53:44|23:13,1,75,0|0,3:2|2:0,2:0:0:0:
300,83,206613,6,0,P|243:49|174:80,1,112.5,10|0,2:0|2:0,2:0:0:0:
96,283,206899,6,0,B|161:273|194:324|194:324|180:259|249:212,1,225,6|0,3:2|2:0,2:0:0:0:
112,61,207185,2,0,P|90:109|113:137,1,75,10|0,2:0|2:0,2:0:0:0:
135,203,207327,1,0,3:2:0:0:
139,209,207399,1,0,3:2:0:0:
146,212,207470,1,2,3:2:0:0:
264,39,207613,6,0,P|211:43|198:77,1,75,0|0,3:2|2:0,2:0:0:0:
19,263,207756,2,0,B|100:250|129:313|124:313|121:313|142:375|252:351,1,225,10|0,2:0|2:0,2:0:0:0:
273,319,208042,1,0,2:0:0:0:
341,71,208185,1,0,3:2:0:0:
210,165,208327,1,8,2:0:0:0:
417,249,208470,1,2,2:0:0:0:
198,161,208613,1,0,3:2:0:0:
460,73,208756,6,0,P|452:108|447:156,1,75,2|0,3:2|2:0,2:0:0:0:
210,243,208899,2,0,P|225:171|234:75,1,150,10|2,2:0|2:0,2:0:0:0:
474,329,209185,6,0,B|402:343|402:343|350:304|350:304|238:327,1,225,6|0,3:2|2:0,2:0:0:0:
160,314,209470,2,0,P|124:262|162:182,1,150,10|2,2:0|3:2,2:0:0:0:
224,166,209685,1,0,3:0:0:0:
284,212,209756,1,2,3:2:0:0:
55,102,209899,6,0,P|95:99|133:73,1,75,2|0,3:2|2:0,2:0:0:0:
293,215,210042,2,0,B|369:186|369:186|331:33,1,225,10|0,2:0|2:0,2:0:0:0:
258,19,210327,5,2,2:0:0:0:
437,142,210470,1,2,3:2:0:0:
253,29,210613,1,10,2:0:0:0:
75,142,210756,1,2,2:0:0:0:
364,293,210899,1,2,3:2:0:0:
223,122,211042,1,0,3:2:0:0:
36,265,211185,2,0,B|25:330|110:390|180:369|173:290|107:326,1,225,10|0,2:0|2:0,2:0:0:0:
28,265,211470,5,6,3:2:0:0:
319,23,211756,1,10,2:0:0:0:
412,90,211899,1,2,3:2:0:0:
416,94,211970,1,0,3:2:0:0:
415,100,212042,1,2,3:2:0:0:
175,200,212185,5,2,3:2:0:0:
80,161,212327,1,8,2:0:0:0:
137,35,212470,1,2,3:2:0:0:
182,25,212542,1,0,3:2:0:0:
221,57,212613,1,2,3:2:0:0:
71,164,212756,5,0,3:2:0:0:
404,257,212899,1,10,2:0:0:0:
83,334,213042,1,0,3:2:0:0:
236,368,213185,5,2,3:2:0:0:
243,318,213256,1,0,3:0:0:0:
254,269,213327,1,0,3:2:0:0:
268,221,213399,1,0,3:0:0:0:
249,188,213470,5,10,2:0:0:0:
240,134,213542,1,8,2:0:0:0:
228,81,213613,1,8,0:2:0:0:
213,29,213685,1,8,2:0:0:0:
279,0,213756,6,0,P|360:19|344:167,1,225,4|2,3:2|2:0,2:0:0:0:
181,238,214042,2,0,B|141:222|112:215|112:215|127:181|145:120,1,150,10|2,2:0|2:0,2:0:0:0:
374,223,214327,1,2,3:2:0:0:
150,320,214470,1,2,3:2:0:0:
253,126,214613,1,2,2:0:0:0:
461,365,214756,6,0,B|364:365|403:309|288:322,1,150,10|2,2:0|2:0,2:0:0:0:
98,78,215042,1,2,3:2:0:0:
18,200,215185,2,0,B|94:219|166:240|166:240|176:202|199:158,1,225,10|0,2:0|2:0,2:0:0:0:
207,100,215470,6,0,P|255:94|284:144,1,75,0|0,3:2|2:0,2:0:0:0:
321,320,215613,2,0,P|365:300|364:242,1,75,2|0,3:2|2:0,2:0:0:0:
428,116,215756,2,0,B|421:85|421:85|423:79|423:79|408:23,1,75,10|0,2:0|2:0,2:0:0:0:
187,247,215899,5,2,3:2:0:0:
184,252,215970,1,0,3:2:0:0:
181,257,216042,2,0,B|269:232|269:232|286:199|286:199|418:165,1,225,2|2,3:2|2:0,2:0:0:0:
458,194,216327,1,10,2:0:0:0:
268,83,216470,1,2,2:0:0:0:
466,199,216613,1,2,3:2:0:0:
203,346,216756,1,2,3:2:0:0:
285,193,216899,1,2,2:0:0:0:
439,295,217042,5,10,2:0:0:0:
453,338,217113,1,0,3:2:0:0:
425,380,217185,1,2,3:2:0:0:
158,228,217327,1,2,3:2:0:0:
378,95,217470,1,10,2:0:0:0:
201,25,217613,2,0,B|132:16|108:78|111:78|116:78|77:142|6:113,1,225,2|0,2:0|2:0,2:0:0:0:
4,37,217899,2,0,P|53:32|92:80,1,75,2|0,3:2|2:0,2:0:0:0:
247,265,218042,1,10,2:0:0:0:
304,274,218113,1,8,2:0:0:0:
349,237,218185,1,10,2:0:0:0:
353,180,218256,1,8,2:0:0:0:
287,145,218327,6,0,B|194:151|238:198|147:205,1,150,2|2,3:2|2:0,2:0:0:0:
352,103,218613,1,10,2:0:0:0:
80,41,218756,1,2,2:0:0:0:
247,265,218899,1,2,3:2:0:0:
259,30,219042,1,2,3:2:0:0:
31,148,219185,1,2,2:0:0:0:
331,358,219327,6,0,P|341:289|379:198,1,150,10|2,2:0|2:0,2:0:0:0:
178,67,219613,1,2,3:2:0:0:
9,246,219756,2,0,B|11:303|66:344|125:329|125:329|147:264|222:289,1,225,10|0,2:0|2:0,2:0:0:0:
186,211,220042,6,0,P|215:221|235:297,1,75,0|0,3:2|2:0,2:0:0:0:
338,361,220185,2,0,P|345:308|374:240,1,75,0|0,3:2|2:0,2:0:0:0:
360,130,220327,2,0,P|311:149|237:158,1,75,10|0,2:0|2:0,2:0:0:0:
428,285,220470,5,0,3:2:0:0:
473,268,220542,1,0,3:2:0:0:
483,218,220613,2,0,B|475:144|421:139|416:139|410:139|354:125|352:21,1,225,2|2,3:2|2:0,2:0:0:0:
464,16,220899,2,0,P|476:101|429:142,1,150,10|2,2:0|2:0,2:0:0:0:
145,26,221185,1,2,3:2:0:0:
370,201,221327,2,0,B|271:187|329:152|219:137,1,150,2|2,3:2|2:0,2:0:0:0:
26,288,221613,6,0,P|103:312|249:362,1,225,10|0,2:0|2:0,2:0:0:0:
310,340,221899,1,2,3:2:0:0:
168,98,222042,1,10,2:0:0:0:
100,282,222185,1,2,2:0:0:0:
376,250,222327,5,2,3:2:0:0:
392,203,222399,1,0,3:0:0:0:
373,158,222470,1,0,3:2:0:0:
328,138,222542,1,0,3:0:0:0:
259,154,222613,5,10,2:0:0:0:
205,138,222685,1,8,2:0:0:0:
177,91,222756,1,8,2:0:0:0:
189,38,222827,1,8,2:0:0:0:
273,15,222899,6,0,B|265:118|265:118|268:125|268:125|255:288,1,225,4|2,3:2|2:0,2:0:0:0:
198,293,223185,2,0,B|234:307|236:354|236:354|259:305|330:308,1,150,10|2,2:0|2:0,2:0:0:0:
116,239,223470,1,2,3:2:0:0:
470,194,223613,2,0,B|487:161|468:137|415:135|372:201|416:254,1,180,2|0,3:2|2:0,2:0:0:0:
436,333,223899,6,0,B|453:336|470:353|470:353|462:270|394:261|389:261|383:264|309:233|338:145,1,255,10|0,2:0|2:0,2:0:0:0:
349,125,224185,1,2,3:2:0:0:
162,357,224327,1,10,2:0:0:0:
64,107,224470,1,2,2:0:0:0:
335,200,224613,2,0,P|274:223|252:236,1,75,0|0,3:2|2:0,2:0:0:0:
134,71,224756,2,0,P|100:87|64:98,1,75,2|0,3:2|2:0,2:0:0:0:
34,280,224899,1,10,2:0:0:0:
200,127,225042,5,2,3:2:0:0:
208,129,225113,1,0,3:2:0:0:
213,135,225185,1,4,3:2:0:0:
95,184,225327,1,2,2:0:0:0:
209,22,225470,1,10,2:0:0:0:
393,147,225613,5,2,3:2:0:0:
396,192,225685,1,0,3:2:0:0:
365,230,225756,1,2,3:2:0:0:
130,65,225899,1,2,3:2:0:0:
388,137,226042,1,2,2:0:0:0:
189,333,226185,1,10,2:0:0:0:
51,123,226327,5,2,2:0:0:0:
265,158,226470,1,2,3:2:0:0:
479,193,226613,1,10,2:0:0:0:
260,21,226756,6,0,L|311:303,1,225,2|0,2:0|2:0,2:0:0:0:
373,288,227042,2,0,B|386:291|404:306|404:306|395:282|371:272,1,75,2|0,3:2|2:0,2:0:0:0:
150,125,227185,2,0,B|91:135|53:185|69:236|69:236|81:180|146:168,1,225,10|0,2:0|2:0,2:0:0:0:
191,59,227470,5,4,3:2:0:0:
191,59,227756,1,10,2:0:0:0:
415,134,227899,1,2,2:0:0:0:
264,7,228042,2,0,P|284:56|311:107,1,75,2|0,3:2|2:0,2:0:0:0:
219,237,228185,1,2,3:2:0:0:
217,244,228256,1,2,3:2:0:0:
217,252,228327,1,2,3:2:0:0:
335,136,228470,5,10,2:0:0:0:
103,231,228613,1,2,2:0:0:0:
339,350,228756,1,2,3:2:0:0:
370,316,228827,1,0,3:2:0:0:
358,268,228899,1,10,2:0:0:0:
24,248,229042,1,2,2:0:0:0:
105,96,229185,5,0,3:2:0:0:
256,192,229327,1,2,3:2:0:0:
407,96,229470,1,10,2:0:0:0:
256,0,229613,1,2,2:0:0:0:
357,333,229756,5,10,2:0:0:0:
175,37,229899,1,10,2:0:0:0:
154,333,230185,5,10,2:0:0:0:
336,37,230327,1,10,2:0:0:0:
101,272,230613,5,10,2:0:0:0:
397,90,230756,1,10,2:0:0:0:
101,111,231042,5,10,2:0:0:0:
397,293,231185,1,10,2:0:0:0:
256,13,231470,5,10,2:0:0:0:
256,370,231613,1,10,2:0:0:0:
256,192,232042,5,2,2:0:0:0:
256,192,232113,12,0,240470,2:0:0:0:
