osu file format v14

[General]
AudioFilename: audio.mp3
AudioLeadIn: 0
PreviewTime: 194542
Countdown: 0
SampleSet: Soft
StackLeniency: 0.7
Mode: 0
LetterboxInBreaks: 0
WidescreenStoryboard: 1

[Editor]
Bookmarks: 213185
DistanceSpacing: 0.2
BeatDivisor: 4
GridSize: 32
TimelineZoom: 1.5

[Metadata]
Title:Tatoeba
TitleUnicode:例えば
Artist:KAF
ArtistUnicode:花譜
Creator:Rtyzen
Version:Hard
Source:映画大好きポンポさん
Tags:co22 corsace open 2022 hr1 gf Slyze- Sparhten KAMITSUBAKI STUDIO 神椿スタジオ vtuber vtb virtual youtuber カンザキイオリ kanzaki iori japanese pop j-pop jpop rock jrock j-rock thinkr eiga daisuki pompo-san pompo san Pompo: The Cinéphile cinephile insert ins
BeatmapID:3802332
BeatmapSetID:1850935

[Difficulty]
HPDrainRate:4
CircleSize:3.5
OverallDifficulty:6
ApproachRate:8
SliderMultiplier:1.2
SliderTickRate:1

[Events]
//Background and Video events
0,0,"bg.jpg",0,0
Video,-1909,"tatoeba.mp4"
//Break Periods
2,95104,103292
2,160961,178720
//Storyboard Layer 0 (Background)
//Storyboard Layer 1 (Fail)
//Storyboard Layer 2 (Pass)
//Storyboard Layer 3 (Foreground)
//Storyboard Layer 4 (Overlay)
//Storyboard Sound Samples

[TimingPoints]
1185,285.714285714286,4,2,2,50,1,0
16185,-100,4,2,2,60,0,0
17185,-100,4,2,2,90,0,0
19470,-83.3333333333333,4,2,2,85,0,0
19756,-83.3333333333333,4,2,1,85,0,0
28613,-100,4,2,1,60,0,0
29042,-100,4,2,2,60,0,0
37756,-90.9090909090909,4,2,2,65,0,0
38042,-90.9090909090909,4,2,1,65,0,0
44613,-90.9090909090909,4,2,1,85,0,0
46899,-90.9090909090909,4,2,1,65,0,0
53756,-90.9090909090909,4,2,1,90,0,0
56042,-90.9090909090909,4,2,1,65,0,0
62899,-90.9090909090909,4,2,1,75,0,0
64613,-111.111111111111,4,2,1,75,0,0
65185,-111.111111111111,4,2,1,90,0,0
66613,-111.111111111111,4,2,1,70,0,0
67470,-76.9230769230769,4,2,1,85,0,0
75756,-76.9230769230769,4,2,1,75,0,0
76042,-76.9230769230769,4,2,1,85,0,0
76327,-76.9230769230769,4,2,1,95,0,0
76613,-76.9230769230769,4,2,1,100,0,0
76685,-76.9230769230769,4,2,1,100,0,0
76899,-76.9230769230769,4,2,1,85,0,0
85756,-83.3333333333333,4,2,1,85,0,0
92613,-83.3333333333333,4,2,1,75,0,0
94613,-83.3333333333333,4,2,1,65,0,0
94899,-83.3333333333333,4,2,1,40,0,0
104042,-100,4,2,1,60,0,0
110899,-100,4,2,1,90,0,0
112613,-100,4,2,1,55,0,0
112899,-100,4,2,1,65,0,0
113185,-90.9090909090909,4,2,1,65,0,0
120042,-90.9090909090909,4,2,1,90,0,0
122327,-90.9090909090909,4,2,1,65,0,0
131470,-90.9090909090909,4,2,1,90,0,0
133470,-90.9090909090909,4,2,1,70,0,0
133756,-76.9230769230769,4,2,1,85,0,0
140613,-76.9230769230769,4,2,1,75,0,0
141185,-76.9230769230769,4,2,1,85,0,0
141756,-76.9230769230769,4,2,1,95,0,0
142042,-76.9230769230769,4,2,1,75,0,0
142327,-76.9230769230769,4,2,1,85,0,0
142613,-76.9230769230769,4,2,1,95,0,0
142899,-76.9230769230769,4,2,1,100,0,0
142970,-76.9230769230769,4,2,1,100,0,0
143185,-76.9230769230769,4,2,1,85,0,0
159899,-76.9230769230769,4,2,1,90,0,0
161185,-76.9230769230769,4,2,1,40,0,0
178613,-76.9230769230769,4,2,1,40,0,0
179470,-111.111111111111,4,2,1,50,0,0
180042,-111.111111111111,4,2,2,50,0,0
193470,-111.111111111111,4,2,2,60,0,0
194613,-100,4,2,2,50,0,0
195470,-76.9230769230769,4,2,2,100,0,0
195756,-76.9230769230769,4,2,1,85,0,0
206613,-76.9230769230769,4,2,1,75,0,0
206899,-76.9230769230769,4,2,1,100,0,0
206970,-76.9230769230769,4,2,1,100,0,0
207185,-76.9230769230769,4,2,1,85,0,0
211756,-76.9230769230769,4,2,1,75,0,0
212613,-76.9230769230769,4,2,1,85,0,0
213470,-76.9230769230769,4,2,1,95,0,0
213756,-76.9230769230769,4,2,1,100,0,0
213827,-76.9230769230769,4,2,1,100,0,0
213899,-76.9230769230769,4,2,1,85,0,0
229756,-76.9230769230769,4,2,1,90,0,0
232042,-76.9230769230769,4,2,1,60,0,0

[Colours]
Combo1 : 221,11,58
Combo2 : 237,249,89
Combo3 : 243,151,154
Combo4 : 68,110,254

[HitObjects]
88,42,1185,6,0,P|140:77|124:152,1,120,2|2,2:0|2:0,0:0:0:0:
82,207,1613,1,0,0:0:0:0:
82,207,1756,2,0,P|63:246|42:269,1,60,10|0,2:0|0:0,0:0:0:0:
172,223,2042,2,0,P|186:264|187:295,1,60,2|2,2:0|2:0,0:0:0:0:
230,137,2327,5,2,2:0:0:0:
300,169,2470,1,10,2:0:0:0:
266,239,2613,1,2,2:0:0:0:
328,286,2756,2,0,P|381:274|409:273,1,60,2|8,2:0|2:0,0:0:0:0:
355,364,3042,2,0,P|448:342|497:341,1,120
468,244,3470,6,0,P|452:208|418:196,1,60,2|2,2:0|2:0,0:0:0:0:
351,184,3756,2,0,P|298:156|302:88,1,120,2|10,2:0|2:0,0:0:0:0:
466,16,4327,1,2,2:0:0:0:
466,16,4470,2,0,P|457:59|450:84,1,60,2|0,2:0|0:0,0:0:0:0:
371,97,4756,6,0,P|286:79|237:65,1,120,8|0,2:0|0:0,0:0:0:0:
162,68,5185,2,0,P|172:109|175:137,1,60,8|0,2:0|0:0,0:0:0:0:
317,190,5470,2,0,P|307:149|304:121,1,60,0|2,0:0|2:0,0:0:0:0:
101,164,5756,6,0,P|130:202|210:191,1,120,2|2,2:0|2:0,0:0:0:0:
304,131,6185,2,0,B|327:123|342:100|342:100|421:121,1,120,2|2,2:0|2:0,0:0:0:0:
263,56,6613,1,2,2:0:0:0:
263,56,6756,2,0,P|251:16|254:-2,1,60,2|0,2:0|2:0,0:0:0:0:
418,5,7042,6,0,P|438:69|405:126,1,120,8|0,2:0|0:0,0:0:0:0:
438,201,7470,2,0,B|471:205|488:174|488:174|484:211|534:239,1,120,8|0,2:0|0:0,0:0:0:0:
381,263,7899,1,2,2:0:0:0:
462,287,8042,6,0,P|490:317|491:346,1,60,0|2,2:0|2:0,0:0:0:0:
407,348,8327,2,0,P|367:357|341:343,1,60,2|2,2:0|2:0,0:0:0:0:
286,275,8613,1,10,2:0:0:0:
286,275,8756,2,0,L|300:143,1,120,2|2,2:0|2:0,0:0:0:0:
195,57,9185,6,0,P|218:89|219:122,1,60,2|8,2:0|2:0,0:0:0:0:
149,152,9470,1,2,2:0:0:0:
199,223,9613,2,0,P|174:253|142:263,1,60,2|8,2:0|2:0,0:0:0:0:
56,118,9899,2,0,P|96:102|155:154,1,120,2|2,2:0|2:0,0:0:0:0:
72,204,10327,5,2,2:0:0:0:
72,204,10470,2,0,B|74:248|48:260|48:256|47:252|14:273|28:312,1,120,2|2,2:0|2:0,0:0:0:0:
141,347,10899,2,0,P|182:338|205:332,1,60,10|2,2:0|2:0,0:0:0:0:
199,223,11185,2,0,P|240:214|263:208,1,60,2|2,2:0|2:0,0:0:0:0:
328,263,11470,5,2,2:0:0:0:
290,334,11613,1,10,2:0:0:0:
363,371,11756,1,2,2:0:0:0:
410,303,11899,2,0,P|450:305|473:329,1,60,2|8,2:0|2:0,0:0:0:0:
508,253,12185,2,0,P|470:229|389:230,1,120,0|2,0:0|2:0,0:0:0:0:
334,108,12613,6,0,P|338:149|347:178,1,60,2|0,2:0|0:0,0:0:0:0:
219,259,12899,1,2,2:0:0:0:
219,259,13042,2,0,P|211:177|193:119,1,120,2|0,2:0|0:0,0:0:0:0:
132,100,13470,1,2,2:0:0:0:
169,27,13613,2,0,P|201:43|211:78,1,60,2|0,2:0|0:0,0:0:0:0:
127,182,13899,6,0,B|84:194|66:172|70:170|73:169|46:141|11:164,1,120,8|0,2:0|0:0,0:0:0:0:
33,316,14327,2,0,P|66:299|81:271,1,60,8|0,2:0|0:0,0:0:0:0:
153,356,14613,2,0,P|164:320|155:290,1,60,0|2,0:0|2:0,0:0:0:0:
222,209,14899,6,0,P|267:225|280:301,1,120,2|2,2:0|2:0,0:0:0:0:
387,242,15327,2,0,P|384:279|364:303,1,60,2|8,2:0|2:0,0:0:0:0:
470,336,15613,2,0,P|441:360|410:363,1,60,2|2,2:0|2:0,0:0:0:0:
319,364,15899,2,0,B|283:369|266:338|268:338|271:338|254:311|212:314,1,120,2|10,2:0|2:0,0:0:0:0:
154,266,16327,6,0,P|132:305|147:343,1,60,2|2,2:0|2:0,0:0:0:0:
140,181,16613,2,0,P|96:193|80:230,1,60,10|2,2:0|2:0,0:0:0:0:
190,110,16899,2,0,P|151:88|113:103,1,60,2|2,2:0|2:0,0:0:0:0:
34,88,17185,5,0,3:2:0:0:
34,88,17327,1,0,3:2:0:0:
101,21,17613,5,0,3:2:0:0:
101,21,17756,1,0,3:2:0:0:
167,85,18042,5,0,3:2:0:0:
167,85,18185,1,0,3:2:0:0:
234,18,18470,5,0,3:2:0:0:
234,18,18613,1,0,3:2:0:0:
256,192,18899,6,0,L|265:232,6,30,2|2|2|2|2|2|2,3:2|2:0|3:2|2:0|2:0|2:0|2:0,0:0:0:0:
318,121,19470,6,0,P|374:133|395:173,1,71.9999978027344,4|2,3:2|2:0,0:0:0:0:
387,147,19685,1,2,2:0:0:0:
392,151,19756,2,0,P|380:201|383:238,1,71.9999978027344,10|2,2:0|2:0,0:0:0:0:
401,339,20042,2,0,P|363:303|330:287,1,71.9999978027344,2|2,3:2|3:2,0:0:0:0:
234,253,20327,2,0,P|283:238|313:217,1,71.9999978027344,10|2,2:0|2:0,0:0:0:0:
163,197,20613,5,2,3:2:0:0:
231,148,20756,1,2,2:0:0:0:
265,73,20899,2,0,P|249:23|228:-6,1,71.9999978027344,10|2,2:0|2:0,0:0:0:0:
231,2,21113,1,2,2:0:0:0:
223,0,21185,2,0,P|184:20|176:62,1,71.9999978027344,2|2,3:2|3:2,0:0:0:0:
231,148,21470,2,0,P|273:161|308:137,1,71.9999978027344,10|2,2:0|2:0,0:0:0:0:
374,139,21756,6,0,B|424:121|424:121|437:90|437:90|499:70,1,143.999995605469,2|10,3:2|2:0,0:0:0:0:
493,176,22185,2,0,B|462:168|462:168|445:132,1,71.9999978027344,2|0,2:0|3:2,0:0:0:0:
341,65,22470,2,0,B|310:73|310:73|293:109,1,71.9999978027344,2|8,3:2|2:0,0:0:0:0:
367,147,22756,6,0,L|394:293,1,143.999995605469,2|2,3:2|3:2,0:0:0:0:
389,295,23113,1,2,2:0:0:0:
384,300,23185,2,0,P|340:308|309:322,1,71.9999978027344,10|2,2:0|2:0,0:0:0:0:
276,244,23470,2,0,P|241:272|222:300,1,71.9999978027344,2|2,3:2|3:2,0:0:0:0:
153,250,23756,2,0,P|138:292|134:325,1,71.9999978027344,10|2,2:0|2:0,0:0:0:0:
38,240,24042,6,0,B|21:161|21:161|89:143,1,143.999995605469,2|10,3:2|2:0,0:0:0:0:
148,44,24470,2,0,B|164:59|164:59|149:121,1,71.9999978027344,2|0,2:0|3:2,0:0:0:0:
229,137,24756,2,0,B|267:140|267:140|251:97,1,71.9999978027344,2|8,3:2|2:0,0:0:0:0:
269,24,25042,6,0,B|311:16|311:16|373:32|373:32|413:18,1,143.999995605469,2|2,2:0|2:0,0:0:0:0:
414,23,25399,1,2,2:0:0:0:
420,26,25470,2,0,B|437:59|437:59|421:90,1,71.9999978027344,10|2,2:0|2:0,0:0:0:0:
406,171,25756,1,2,3:2:0:0:
406,171,25899,1,2,3:2:0:0:
323,141,26042,2,0,B|306:174|306:174|328:219,1,71.9999978027344,10|2,2:0|2:0,0:0:0:0:
474,251,26327,6,0,B|428:260|421:298|425:298|429:298|421:351|351:348,1,143.999995605469,4|8,3:2|2:0,0:0:0:0:
289,312,26756,2,0,L|279:271,2,35.9999989013672,0|0|0,3:2|3:2|3:2,0:0:0:0:
219,369,27042,2,0,B|172:357|197:341|145:331,1,71.9999978027344,0|8,3:2|2:0,0:0:0:0:
75,301,27327,5,0,3:2:0:0:
69,305,27399,1,0,3:2:0:0:
63,309,27470,2,0,L|78:234,1,71.9999978027344,0|0,3:2|3:2,0:0:0:0:
165,244,27756,2,0,L|180:169,1,71.9999978027344,8|0,2:0|3:2,0:0:0:0:
94,145,28042,2,0,B|42:131|40:90|64:49|64:49|171:20,1,215.999993408203,0|0,3:2|3:2,0:0:0:0:
228,64,28613,6,0,P|241:32|236:3,1,60,6|0,2:0|0:0,0:0:0:0:
308,101,28899,2,0,P|295:127|271:145,1,60,2|8,3:2|2:0,0:0:0:0:
179,173,29185,2,0,P|204:227|278:234,1,120,2|10,3:2|2:0,0:0:0:0:
345,215,29613,6,0,P|355:255|363:285,1,60,2|0,2:0|3:2,0:0:0:0:
423,184,29899,1,2,2:0:0:0:
423,184,30042,2,0,P|443:220|458:246,1,60,2|10,3:2|2:0,0:0:0:0:
352,132,30327,1,0,3:2:0:0:
437,327,30613,1,8,2:0:0:0:
437,327,30756,1,2,2:0:0:0:
363,373,30899,6,0,P|305:359|284:303,1,120,2|2,3:2|3:2,0:0:0:0:
264,226,31327,2,0,B|227:240|203:224|203:224|218:246|203:288,1,120,10|0,2:0|0:0,0:0:0:0:
136,313,31756,2,0,P|154:347|193:353,1,60,10|2,2:0|2:0,0:0:0:0:
121,225,32042,6,0,B|31:253|31:253|46:235|51:204,1,120,0|0,3:2|3:2,0:0:0:0:
82,138,32470,2,0,B|107:121|107:121|169:137|169:137|182:169,1,120,8|0,2:0|0:0,0:0:0:0:
266,172,32899,2,0,B|283:147|283:147|270:108,1,60,8|2,2:0|2:0,0:0:0:0:
215,50,33185,6,0,L|348:30,1,120,2|2,3:2|3:2,0:0:0:0:
422,54,33613,2,0,L|414:119,1,60,10|0,2:0|3:2,0:0:0:0:
376,186,33899,1,0,0:0:0:0:
457,209,34042,2,0,L|468:278,1,60,10|2,2:0|2:0,0:0:0:0:
422,349,34327,6,0,P|390:313|306:312,1,120,2|2,3:2|3:2,0:0:0:0:
253,257,34756,1,10,2:0:0:0:
217,367,34899,2,0,P|205:332|192:310,1,60,0|0,3:2|0:0,0:0:0:0:
113,315,35185,2,0,B|68:315|56:289|61:288|64:288|45:254|5:267,1,120,8|0,2:0|3:2,0:0:0:0:
109,130,35756,5,2,3:2:0:0:
109,130,35899,1,10,2:0:0:0:
27,146,36042,2,0,P|42:184|79:194,1,60,2|2,3:2|2:0,0:0:0:0:
192,104,36327,2,0,P|172:61|88:45,1,120,8|0,2:0|3:2,0:0:0:0:
179,189,36756,6,0,P|235:174|257:165,1,60,2|0,2:0|3:2,0:0:0:0:
310,153,37042,1,10,2:0:0:0:
284,77,37185,1,2,3:2:0:0:
452,63,37470,2,0,P|480:71|510:77,1,60,8|0,2:0|0:0,0:0:0:0:
475,160,37756,6,0,P|504:209|473:277,1,132.00000402832,6|10,3:2|2:0,0:0:0:0:
283,327,38327,2,0,P|254:278|285:210,1,132.00000402832,2|10,3:2|2:0,0:0:0:0:
380,314,38756,6,0,P|387:362|390:388,1,66.0000020141602,2|0,2:0|3:2,0:0:0:0:
365,230,39042,1,2,2:0:0:0:
281,214,39185,2,0,L|197:202,1,66.0000020141602,10|2,2:0|0:2,0:0:0:0:
87,224,39470,2,0,B|127:219|127:219|147:169,1,66.0000020141602,0|0,3:0|0:0,0:0:0:0:
141,99,39756,2,0,B|181:104|181:104|201:154,1,66.0000020141602,8|0,2:0|0:0,0:0:0:0:
224,284,40042,6,0,B|263:269|263:269|293:180,1,132.00000402832,2|10,3:2|2:0,0:0:0:0:
271,98,40470,1,0,0:0:0:0:
354,112,40613,1,2,3:2:0:0:
354,112,40756,2,0,B|374:137|374:137|420:144,1,66.0000020141602,2|8,2:0|2:0,0:0:0:0:
450,12,41042,6,0,P|418:42|428:79,1,66.0000020141602,2|0,2:0|3:2,0:0:0:0:
494,88,41327,2,0,P|492:131|525:150,1,66.0000020141602,0|8,0:0|2:0,0:0:0:0:
463,226,41613,1,0,0:0:0:0:
463,226,41756,2,0,P|399:247|384:318,1,132.00000402832,0|8,3:2|2:0,0:0:0:0:
296,287,42185,1,2,2:0:0:0:
247,360,42327,6,0,P|190:330|133:359,1,132.00000402832,2|10,3:2|2:0,0:0:0:0:
32,279,42756,2,0,P|55:311|56:336,1,66.0000020141602,2|0,2:0|3:2,0:0:0:0:
129,256,43042,1,2,2:0:0:0:
129,256,43185,2,0,L|106:117,2,132.00000402832,10|0|8,2:0|3:2|2:0,0:0:0:0:
220,162,43899,5,0,0:0:0:0:
220,162,44042,2,0,P|232:200|229:238,1,66.0000020141602,0|0,3:2|0:0,0:0:0:0:
320,221,44327,2,0,P|311:259|289:291,1,66.0000020141602,10|0,2:0|0:0,0:0:0:0:
192,340,44613,5,2,3:2:0:0:
118,292,44756,1,8,2:0:0:0:
111,288,44827,1,8,2:0:0:0:
105,284,44899,2,0,L|119:202,1,66.0000020141602,10|10,2:0|2:0,0:0:0:0:
191,168,45185,1,8,2:0:0:0:
191,168,45327,1,10,2:0:0:0:
130,100,45470,1,10,2:0:0:0:
338,30,45899,5,2,3:2:0:0:
367,107,46042,1,10,2:0:0:0:
396,184,46185,1,4,2:3:0:0:
473,157,46327,2,0,P|470:114|450:97,1,66.0000020141602,8|8,2:3|3:0,0:0:0:0:
317,229,46613,2,0,B|318:256|350:266|350:266|420:289,1,99.0000030212403,8|0,3:2|0:0,0:0:0:0:
409,277,46899,6,0,B|389:258|359:273|359:273|267:316,1,132.00000402832,6|8,3:2|2:0,0:0:0:0:
205,346,47327,2,0,L|209:383,2,33.0000010070801,2|0|2,2:0|0:0|3:2,0:0:0:0:
206,260,47613,2,0,P|169:257|132:245,1,66.0000020141602,2|8,2:0|2:0,0:0:0:0:
49,269,47899,6,0,B|67:300|53:334|53:334|84:317|123:339,2,132.00000402832,2|0|0,2:0|3:2|0:0,0:0:0:0:
153,189,48613,2,0,P|155:231|137:251,1,66.0000020141602,0|0,3:2|0:0,0:0:0:0:
26,188,48899,2,0,P|43:133|52:86,1,99.0000030212403,8|0,2:0|0:0,0:0:0:0:
45,77,49185,6,0,L|125:61,1,66.0000020141602,2|0,3:2|0:0,0:0:0:0:
204,113,49470,2,0,L|321:89,1,99.0000030212403,10|0,2:0|0:0,0:0:0:0:
314,83,49756,6,0,L|298:3,1,66.0000020141602,2|2,3:2|2:0,0:0:0:0:
435,49,50042,2,0,L|458:166,1,99.0000030212403,10|0,2:0|0:0,0:0:0:0:
450,159,50327,6,0,P|441:204|459:232,2,66.0000020141602,2|2|10,3:2|3:2|2:0,0:0:0:0:
367,245,50756,1,2,2:0:0:0:
367,245,50899,2,0,P|392:283|424:290,1,66.0000020141602,2|2,3:2|2:0,0:0:0:0:
369,364,51185,2,0,P|414:373|442:355,1,66.0000020141602,10|2,2:0|2:0,0:0:0:0:
292,309,51470,6,0,B|255:303|234:337|239:337|244:337|222:383|170:358,1,132.00000402832,2|10,3:2|2:0,0:0:0:0:
78,270,51899,2,0,P|117:281|129:309,1,66.0000020141602,2|0,2:0|3:2,0:0:0:0:
195,228,52185,2,0,P|214:263|203:291,1,66.0000020141602,0|8,0:0|2:0,0:0:0:0:
121,197,52470,1,2,2:0:0:0:
171,135,52613,6,0,P|250:143|280:205,1,132.00000402832,2|10,3:2|2:0,0:0:0:0:
334,315,53042,2,0,P|339:276|339:245,1,66.0000020141602,2|0,2:0|3:2,0:0:0:0:
367,166,53327,1,0,0:0:0:0:
421,237,53470,2,0,P|470:243|499:186,1,99.0000030212403,8|0,2:0|0:0,0:0:0:0:
502,198,53756,6,0,L|484:130,2,66.0000020141602,6|4|10,3:2|2:3|2:0,0:0:0:0:
408,253,54185,1,2,3:2:0:0:
408,253,54327,2,0,L|390:321,2,66.0000020141602,6|0|10,3:2|3:2|2:0,0:0:0:0:
362,172,54756,1,10,2:0:0:0:
273,191,54899,6,0,P|287:228|323:246,1,66.0000020141602,2|2,3:2|3:2,0:0:0:0:
230,111,55185,2,0,P|197:134|189:173,1,66.0000020141602,10|2,2:0|3:2,0:0:0:0:
315,95,55470,1,0,3:2:0:0:
315,95,55613,1,0,3:2:0:0:
243,27,55756,2,0,P|185:10|111:40,1,132.00000402832,10|6,2:0|3:2,0:0:0:0:
30,173,56327,6,0,P|46:214|49:242,1,66.0000020141602,8|2,2:0|2:0,0:0:0:0:
18,310,56613,1,2,3:2:0:0:
108,297,56756,1,2,3:2:0:0:
108,297,56899,2,0,P|101:340|89:366,1,66.0000020141602,10|2,2:0|2:0,0:0:0:0:
136,205,57185,6,0,P|184:247|209:326,1,132.00000402832,0|8,3:2|2:0,0:0:0:0:
281,370,57613,2,0,P|294:325|291:299,1,66.0000020141602,2|2,3:2|2:0,0:0:0:0:
329,205,57899,1,2,3:2:0:0:
329,205,58042,2,0,P|390:210|412:256,1,99.0000030212403,8|0,2:0|0:0,0:0:0:0:
414,248,58327,6,0,P|405:300|416:338,1,66.0000020141602,2|2,3:2|2:0,0:0:0:0:
489,292,58613,1,10,2:0:0:0:
496,202,58756,2,0,B|498:128|465:152|465:66,1,132.00000402832,2|2,2:0|3:2,0:0:0:0:
392,19,59185,1,10,2:0:0:0:
392,19,59327,2,0,B|376:52|376:52|392:89,1,66.0000020141602,2|0,2:0|3:2,0:0:0:0:
325,136,59613,5,2,3:2:0:0:
325,136,59756,2,0,L|178:117,1,132.00000402832,10|0,2:0|0:0,0:0:0:0:
118,147,60185,1,0,3:2:0:0:
146,227,60327,2,0,P|200:235|224:217,1,66.0000020141602,10|0,2:0|0:0,0:0:0:0:
294,222,60613,6,0,B|324:241|354:256|354:256|334:299|329:321,1,132.00000402832,6|10,3:2|2:0,0:0:0:0:
252,375,61042,2,0,P|244:329|237:304,1,66.0000020141602,2|0,2:0|3:2,0:0:0:0:
168,357,61327,1,0,3:2:0:0:
165,275,61470,2,0,P|119:283|94:290,1,66.0000020141602,10|2,2:0|2:0,0:0:0:0:
21,227,61756,6,0,B|40:197|55:167|55:167|98:187|120:192,2,132.00000402832,0|8|0,3:2|2:0|0:0,0:0:0:0:
118,197,62470,1,0,3:2:0:0:
202,194,62613,2,0,P|192:151|169:132,1,66.0000020141602,10|0,2:0|0:0,0:0:0:0:
96,71,62899,6,0,P|156:59|227:42,1,132.00000402832,2|10,3:2|2:0,0:0:0:0:
326,63,63327,1,2,2:0:0:0:
402,97,63470,2,0,P|341:108|270:125,1,132.00000402832,0|10,3:2|2:0,0:0:0:0:
241,202,63899,1,2,2:0:0:0:
329,208,64042,6,0,P|340:246|353:277,1,66.0000020141602,0|2,3:2|3:2,0:0:0:0:
198,329,64327,2,0,P|187:291|174:260,1,66.0000020141602,10|2,2:0|3:2,0:0:0:0:
323,217,64613,6,0,P|332:250|344:278,1,53.9999983520508,2|2,2:0|3:2,0:0:0:0:
206,324,64899,2,0,P|196:290|184:262,1,53.9999983520508,10|2,2:0|2:0,0:0:0:0:
224,160,65185,5,8,2:0:0:0:
224,160,65327,1,8,2:0:0:0:
286,98,65613,5,8,2:0:0:0:
286,98,65756,1,8,2:0:0:0:
353,160,66042,5,8,2:0:0:0:
353,160,66185,1,8,2:0:0:0:
294,282,66613,6,0,B|250:271|250:271|239:250|239:250|189:238,2,107.999996704102,2|2|2,2:0|2:0|2:0,0:0:0:0:
165,369,67470,6,0,P|206:343|242:360,1,77.9999964294435,6|0,3:2|0:0,0:0:0:0:
356,353,67756,2,0,P|389:305|358:214,1,155.999992858887,8|0,2:0|3:2,0:0:0:0:
278,185,68185,1,0,3:2:0:0:
347,132,68327,1,2,2:0:0:0:
347,132,68470,2,0,P|393:135|426:167,1,77.9999964294435,10|0,2:0|0:0,0:0:0:0:
272,189,68756,5,0,3:2:0:0:
263,97,68899,2,0,P|288:58|332:46,1,77.9999964294435,8|0,2:0|0:0,0:0:0:0:
201,7,69185,2,0,P|152:26|34:42,1,155.999992858887,0|10,3:2|2:0,0:0:0:0:
16,117,69613,1,0,0:0:0:0:
101,128,69756,6,0,P|128:84|120:53,1,77.9999964294435,2|0,3:2|0:0,0:0:0:0:
218,93,70042,1,10,2:0:0:0:
218,93,70185,2,0,P|237:166|265:272,1,155.999992858887,2|0,2:0|3:2,0:0:0:0:
335,267,70613,1,2,2:0:0:0:
271,330,70756,6,0,B|222:352|197:316|199:316|203:315|174:269|120:302,1,155.999992858887,10|0,2:0|3:2,0:0:0:0:
54,274,71185,1,8,2:0:0:0:
66,196,71327,1,0,0:0:0:0:
147,180,71470,2,0,P|182:210|180:258,1,77.9999964294435,0|0,3:2|3:2,0:0:0:0:
193,366,71756,2,0,B|217:343|222:312|222:312|326:275,1,155.999992858887,10|2,2:0|3:2,0:0:0:0:
464,198,72327,5,10,2:0:0:0:
464,198,72470,2,0,P|446:247|442:288,1,77.9999964294435,2|0,2:0|3:2,0:0:0:0:
392,139,72756,2,0,P|351:172|327:205,1,77.9999964294435,2|0,3:2|0:0,0:0:0:0:
339,64,73042,2,0,P|287:72|188:117,1,155.999992858887,10|0,2:0|3:2,0:0:0:0:
109,94,73470,6,0,P|101:39|133:19,1,77.9999964294435,8|0,2:0|0:0,0:0:0:0:
211,12,73756,1,0,3:2:0:0:
211,12,73899,1,0,3:2:0:0:
271,104,74042,2,0,B|280:157|237:184|237:184|214:212|243:255,1,155.999992858887,10|2,2:0|3:2,0:0:0:0:
99,347,74613,5,10,2:0:0:0:
37,290,74756,2,0,P|78:260|125:273,1,77.9999964294435,2|2,2:0|3:2,0:0:0:0:
195,308,75042,2,0,B|214:320|218:337|218:337|236:321|266:316,1,77.9999964294435,2|0,3:2|0:0,0:0:0:0:
353,294,75327,2,0,P|416:303|456:385,1,155.999992858887,10|0,2:0|3:2,0:0:0:0:
348,305,75756,6,0,B|352:214|390:251|391:150,2,155.999992858887,10|2|10,2:0|3:2|2:0,0:0:0:0:
472,181,76613,6,0,P|395:151|333:88,1,155.999992858887,6|8,3:2|2:0,0:0:0:0:
148,78,77185,1,0,3:2:0:0:
148,78,77327,1,0,3:2:0:0:
217,35,77470,1,2,2:0:0:0:
266,99,77613,2,0,P|260:146|221:167,1,77.9999964294435,10|0,2:0|0:0,0:0:0:0:
162,190,77899,5,0,3:2:0:0:
162,190,78042,2,0,B|214:189|232:227|229:229|226:230|251:270|322:256,1,155.999992858887,8|0,2:0|3:2,0:0:0:0:
354,201,78470,1,0,3:2:0:0:
429,225,78613,2,0,P|406:268|371:278,1,77.9999964294435,10|0,2:0|0:0,0:0:0:0:
278,160,78899,6,0,B|310:132|303:91|303:91|325:125|382:121,1,155.999992858887,2|10,3:2|2:0,0:0:0:0:
446,62,79327,2,0,B|434:44|432:24|432:24|416:39|389:36,1,77.9999964294435,2|0,2:0|3:2,0:0:0:0:
457,148,79613,1,0,3:2:0:0:
457,148,79756,1,2,2:0:0:0:
389,201,79899,6,0,P|401:255|421:362,1,155.999992858887,10|0,2:0|3:2,0:0:0:0:
324,330,80327,2,0,P|317:303|308:249,1,77.9999964294435,8|2,2:0|2:0,0:0:0:0:
234,308,80613,1,2,3:2:0:0:
234,308,80756,1,2,3:2:0:0:
165,372,80899,2,0,B|106:355|106:355|121:292,1,116.999994644165,8|0,2:0|0:0,0:0:0:0:
120,289,81185,6,0,B|139:264|139:264|129:212,1,77.9999964294435,2|0,3:2|0:0,0:0:0:0:
61,172,81470,2,0,B|42:197|42:197|52:249,1,77.9999964294435,10|0,2:0|0:0,0:0:0:0:
136,136,81756,1,2,3:2:0:0:
136,136,81899,1,2,3:2:0:0:
205,190,82042,1,2,2:0:0:0:
205,190,82185,1,10,2:0:0:0:
277,150,82327,6,0,B|301:115|301:115|281:42|281:42|242:26,1,155.999992858887,2|10,2:0|2:0,0:0:0:0:
145,37,82756,2,0,B|113:60|113:60|121:115,1,77.9999964294435,2|0,2:0|3:2,0:0:0:0:
203,98,83042,1,2,3:2:0:0:
203,98,83185,2,0,L|387:57,1,155.999992858887,10|0,2:0|3:2,0:0:0:0:
489,187,83756,6,0,P|440:181|417:162,1,77.9999964294435,8|0,2:0|0:0,0:0:0:0:
319,161,84042,1,0,3:2:0:0:
319,161,84185,2,0,P|338:206|333:235,1,77.9999964294435,0|0,3:2|0:0,0:0:0:0:
485,291,84470,2,0,P|410:290|356:370,1,155.999992858887,8|0,2:0|3:2,0:0:0:0:
272,384,84899,6,0,P|259:337|280:301,1,77.9999964294435,8|2,2:0|2:0,0:0:0:0:
248,222,85185,1,2,3:2:0:0:
248,222,85327,1,2,3:2:0:0:
160,209,85470,2,0,P|174:271|212:287,1,77.9999964294435,10|2,2:0|2:0,0:0:0:0:
276,306,85756,5,4,3:2:0:0:
335,232,85899,2,0,L|381:241,2,35.9999989013672,2|2|10,2:0|2:0|2:0,0:0:0:0:
285,146,86185,1,2,2:0:0:0:
285,146,86327,2,0,P|301:88|304:61,1,71.9999978027344,2|2,3:2|3:2,0:0:0:0:
231,13,86613,2,0,P|215:71|212:98,1,71.9999978027344,10|2,2:0|2:0,0:0:0:0:
140,131,86899,6,0,P|82:115|55:112,1,71.9999978027344,2|2,3:2|2:0,0:0:0:0:
7,185,87185,2,0,P|65:201|92:204,1,71.9999978027344,10|2,2:0|2:0,0:0:0:0:
82,207,87399,1,2,2:0:0:0:
86,212,87470,2,0,B|95:247|95:247|61:291,1,71.9999978027344,2|2,3:2|3:2,0:0:0:0:
156,358,87756,2,0,B|147:323|147:323|181:279,1,71.9999978027344,10|2,2:0|2:0,0:0:0:0:
246,231,88042,6,0,B|281:216|281:216|347:231|347:231|387:212,1,143.999995605469,2|10,3:2|2:0,0:0:0:0:
462,155,88470,2,0,B|458:179|458:179|467:198|467:198|460:237,1,71.9999978027344,2|0,2:0|3:2,0:0:0:0:
306,109,88756,2,0,B|310:133|310:133|301:152|301:152|308:191,1,71.9999978027344,2|8,3:2|2:0,0:0:0:0:
387,110,89042,6,0,P|434:62|519:89,2,143.999995605469,2|2|2,3:2|3:2|2:0,0:0:0:0:
305,178,89756,2,0,P|257:171|236:135,1,71.9999978027344,2|2,3:2|3:2,0:0:0:0:
218,68,90042,2,0,P|174:77|143:83,1,71.9999978027344,10|2,2:0|2:0,0:0:0:0:
59,75,90327,6,0,B|105:79|116:116|112:116|108:117|122:168|191:158,1,143.999995605469,2|10,3:2|2:0,0:0:0:0:
143,266,90756,2,0,B|190:254|165:238|217:228,1,71.9999978027344,2|2,2:0|3:2,0:0:0:0:
304,291,91042,2,0,B|304:242|282:262|286:209,1,71.9999978027344,2|8,3:2|2:0,0:0:0:0:
316,142,91327,6,0,B|364:153|391:163|391:163|402:130|418:94,1,143.999995605469,2|2,2:0|2:0,0:0:0:0:
340,3,91756,2,0,B|325:25|325:25|346:77,1,71.9999978027344,10|2,2:0|2:0,0:0:0:0:
435,23,92042,2,0,B|480:32|480:32|517:136,1,143.999995605469,2|10,3:2|2:0,0:0:0:0:
470,192,92470,1,2,3:2:0:0:
505,270,92613,6,0,P|481:308|389:290,1,143.999995605469,4|8,3:2|2:0,0:0:0:0:
322,242,93042,2,0,P|258:230|219:299,1,143.999995605469,0|0,3:2|3:2,0:0:0:0:
152,357,93470,2,0,P|126:318|147:273,1,71.9999978027344,8|0,2:0|3:2,0:0:0:0:
132,288,93685,1,0,3:2:0:0:
134,281,93756,6,0,L|43:292,1,71.9999978027344,0|0,3:2|3:2,0:0:0:0:
21,211,94042,2,0,L|191:190,1,143.999995605469,8|0,2:0|3:2,0:0:0:0:
204,127,94470,1,0,3:2:0:0:
281,139,94613,1,8,2:0:0:0:
314,209,94756,1,0,3:2:0:0:
389,193,94899,1,6,2:0:0:0:
51,73,104042,6,0,P|128:104|131:150,1,120,6|2,3:2|2:0,0:0:0:0:
227,121,104470,1,2,3:2:0:0:
227,121,104613,2,0,P|213:166|197:246,1,120,10|2,2:0|3:2,0:0:0:0:
63,254,105042,2,0,P|106:266|140:284,1,60,2|2,3:2|2:0,0:0:0:0:
211,338,105327,6,0,B|255:327|255:327|272:302|272:302|338:286,1,120,10|2,2:0|3:2,0:0:0:0:
406,308,105756,2,0,B|417:326|417:326|403:379,1,60,10|0,2:0|0:0,0:0:0:0:
370,232,106042,1,2,3:2:0:0:
370,232,106185,1,0,3:2:0:0:
460,228,106327,6,0,P|443:167|383:138,1,120,2|2,3:2|3:2,0:0:0:0:
315,151,106756,1,2,3:2:0:0:
343,73,106899,2,0,P|310:64|287:47,1,60,10|0,2:0|0:0,0:0:0:0:
224,125,107185,1,2,3:2:0:0:
224,125,107327,2,0,P|230:165|231:193,1,60,2|0,3:2|3:2,0:0:0:0:
174,247,107613,6,0,L|36:267,1,120,10|2,2:0|3:2,0:0:0:0:
229,313,108042,2,0,B|258:295|260:266|260:266|277:297|324:293,1,120,8|0,2:0|3:2,0:0:0:0:
397,263,108470,1,2,3:2:0:0:
325,210,108613,6,0,P|371:171|440:195,1,120,2|2,3:2|3:2,0:0:0:0:
485,120,109042,2,0,P|508:157|505:195,1,60,2|8,3:2|2:0,0:0:0:0:
324,96,109470,1,2,3:2:0:0:
324,96,109613,2,0,P|325:46|320:18,1,60,0|2,3:2|3:2,0:0:0:0:
242,12,109899,6,0,P|195:21|170:98,1,120,8|0,2:0|3:2,0:0:0:0:
101,149,110327,2,0,P|92:117|70:89,1,60,10|0,2:0|0:0,0:0:0:0:
214,185,110613,2,0,P|223:153|245:125,1,60,2|0,3:2|3:2,0:0:0:0:
138,232,110899,5,10,2:0:0:0:
138,232,111042,1,10,2:0:0:0:
205,299,111327,5,8,2:0:0:0:
205,299,111470,1,8,2:0:0:0:
287,253,111756,5,8,2:0:0:0:
287,253,111899,1,8,2:0:0:0:
354,320,112185,5,8,2:0:0:0:
354,320,112327,1,8,2:0:0:0:
433,270,112613,6,0,L|468:277,2,20,2|2|2,2:0|2:0|2:0,0:0:0:0:
478,130,113185,6,0,L|331:148,1,132.00000402832,6|8,3:2|2:0,0:0:0:0:
268,124,113613,1,2,2:0:0:0:
317,59,113756,1,2,3:2:0:0:
317,59,113899,2,0,P|376:56|395:71,1,66.0000020141602,2|8,2:0|2:0,0:0:0:0:
232,14,114185,2,0,P|186:30|150:30,1,66.0000020141602,2|2,2:0|3:2,0:0:0:0:
179,124,114470,5,2,3:2:0:0:
179,124,114613,2,0,P|107:145|81:213,1,132.00000402832,10|0,2:0|3:2,0:0:0:0:
22,243,115042,1,0,0:0:0:0:
120,331,115185,2,0,P|109:282|95:263,1,66.0000020141602,8|2,2:0|2:0,0:0:0:0:
206,358,115470,6,0,P|223:314|305:256,1,132.00000402832,2|10,3:2|2:0,0:0:0:0:
359,130,116042,1,2,3:2:0:0:
359,130,116185,2,0,P|301:120|277:106,1,66.0000020141602,2|8,2:0|2:0,0:0:0:0:
422,65,116470,2,0,P|444:96|418:197,1,132.00000402832,2|2,2:0|3:2,0:0:0:0:
356,213,116899,6,0,B|366:251|375:239|384:281,1,66.0000020141602,10|0,2:0|2:0,0:0:0:0:
325,337,117185,2,0,B|279:341|263:319|262:316|265:316|242:276|183:297,1,132.00000402832,0|8,3:2|2:0,0:0:0:0:
136,244,117613,1,2,2:0:0:0:
80,316,117756,6,0,P|91:354|95:389,2,66.0000020141602,6|2|10,3:2|2:0|2:0,0:0:0:0:
4,266,118185,2,0,P|1:224|25:197,1,66.0000020141602,2|2,2:0|3:2,0:0:0:0:
76,147,118470,2,0,L|155:155,1,66.0000020141602,2|8,2:0|2:0,0:0:0:0:
216,105,118756,1,2,2:0:0:0:
216,105,118899,6,0,P|210:57|210:28,2,66.0000020141602,2|2|10,3:2|3:2|2:0,0:0:0:0:
281,169,119327,2,0,P|320:187|357:179,1,66.0000020141602,2|0,2:0|3:2,0:0:0:0:
420,162,119613,1,0,0:0:0:0:
482,224,119756,2,0,P|463:269|454:329,1,99.0000030212403,8|0,2:0|0:0,0:0:0:0:
447,328,120042,6,0,P|402:341|382:351,2,66.0000020141602,6|4|10,3:2|2:3|2:0,0:0:0:0:
350,275,120470,1,2,3:2:0:0:
350,275,120613,2,0,P|305:262|285:252,2,66.0000020141602,6|0|10,3:2|3:2|2:0,0:0:0:0:
285,353,121042,2,0,B|211:354|237:380|152:376,1,132.00000402832,10|2,2:0|3:2,0:0:0:0:
87,331,121470,6,0,B|73:322|57:324|57:324|76:317|94:294,1,66.0000020141602,10|2,2:0|3:2,0:0:0:0:
161,263,121756,1,0,3:2:0:0:
161,263,121899,1,0,3:2:0:0:
80,221,122042,2,0,P|32:207|23:127,1,132.00000402832,10|6,2:0|3:2,0:0:0:0:
217,108,122613,6,0,P|191:142|151:142,1,66.0000020141602,8|2,2:0|2:0,0:0:0:0:
99,89,122899,1,2,3:2:0:0:
99,89,123042,2,0,P|110:45|115:19,1,66.0000020141602,2|10,3:2|2:0,0:0:0:0:
189,0,123327,1,2,2:0:0:0:
269,22,123470,6,0,L|417:36,1,132.00000402832,0|8,3:2|2:0,0:0:0:0:
468,80,123899,2,0,P|485:43|469:8,1,66.0000020141602,2|2,3:2|2:0,0:0:0:0:
398,115,124185,2,0,P|421:148|459:151,1,66.0000020141602,2|8,3:2|2:0,0:0:0:0:
504,214,124470,6,0,P|499:263|501:296,1,66.0000020141602,2|0,2:0|3:2,0:0:0:0:
419,283,124756,1,2,2:0:0:0:
379,353,124899,1,10,2:0:0:0:
379,353,125042,1,2,2:0:0:0:
298,335,125185,2,0,P|308:272|316:200,1,132.00000402832,2|10,3:2|2:0,0:0:0:0:
366,138,125613,2,0,B|387:151|387:151|401:210,1,66.0000020141602,2|0,2:0|3:2,0:0:0:0:
261,260,125899,5,2,3:2:0:0:
261,260,126042,2,0,B|166:227|166:227|120:241,1,132.00000402832,10|0,2:0|0:0,0:0:0:0:
62,202,126470,1,0,3:2:0:0:
9,263,126613,2,0,B|33:288|33:288|75:280,1,66.0000020141602,10|0,2:0|0:0,0:0:0:0:
119,342,126899,6,0,B|130:325|153:333|153:333|205:352|205:352|231:362|252:335,1,132.00000402832,6|10,3:2|2:0,0:0:0:0:
324,377,127327,2,0,B|339:367|329:341|329:341|310:288|310:288|302:266|319:254,1,132.00000402832,2|0,2:0|3:2,0:0:0:0:
220,268,127756,1,10,2:0:0:0:
220,268,127899,1,2,2:0:0:0:
158,205,128042,6,0,P|133:239|138:279,2,66.0000020141602,0|0|8,3:2|3:2|2:0,0:0:0:0:
241,183,128470,1,0,3:2:0:0:
178,124,128613,2,0,P|136:119|103:143,2,66.0000020141602,0|0|10,0:0|3:2|2:0,0:0:0:0:
247,186,129042,1,0,0:0:0:0:
314,144,129185,6,0,B|327:121|327:121|316:73,1,66.0000020141602,2|0,3:2|0:0,0:0:0:0:
371,14,129470,2,0,B|432:35|432:35|411:112,1,132.00000402832,10|0,2:0|3:2,0:0:0:0:
395,182,129899,1,0,3:2:0:0:
395,182,130042,2,0,B|456:203|456:203|435:280,1,132.00000402832,10|0,2:0|3:2,0:0:0:0:
493,345,130470,5,2,3:2:0:0:
493,345,130613,2,0,P|455:365|438:390,1,66.0000020141602,10|2,2:0|3:2,0:0:0:0:
358,277,130899,2,0,P|356:319|369:347,1,66.0000020141602,2|2,2:0|3:2,0:0:0:0:
231,359,131185,2,0,P|267:381|297:384,1,66.0000020141602,10|2,2:0|2:0,0:0:0:0:
277,287,131470,5,8,2:0:0:0:
277,287,131613,1,8,2:0:0:0:
210,220,131899,5,8,2:0:0:0:
210,220,132042,1,8,2:0:0:0:
274,154,132327,5,8,2:0:0:0:
274,154,132470,1,8,2:0:0:0:
207,87,132756,5,8,2:0:0:0:
207,87,132899,1,8,2:0:0:0:
279,26,133185,5,8,2:0:0:0:
279,26,133327,1,8,2:0:0:0:
65,100,133756,6,0,B|83:122|111:129|111:129|74:242,1,155.999992858887,6|8,3:2|2:0,0:0:0:0:
30,290,134185,1,0,0:0:0:0:
148,283,134327,2,0,P|111:313|105:363,1,77.9999964294435,0|0,3:2|3:2,0:0:0:0:
155,278,134613,1,10,2:0:0:0:
183,358,134756,6,0,P|246:373|301:290,1,155.999992858887,2|0,3:2|3:2,0:0:0:0:
212,188,135185,2,0,P|246:228|277:228,1,77.9999964294435,8|0,2:0|0:0,0:0:0:0:
328,96,135470,2,0,P|288:130|288:161,1,77.9999964294435,0|0,3:2|3:2,0:0:0:0:
368,167,135756,2,0,B|412:194|412:194|447:182|447:182|411:183|376:162,1,155.999992858887,10|2,2:0|3:2,0:0:0:0:
208,103,136327,5,10,2:0:0:0:
208,103,136470,2,0,P|151:118|118:121,1,77.9999964294435,2|0,2:0|3:2,0:0:0:0:
56,99,136756,1,0,3:2:0:0:
79,176,136899,1,10,2:0:0:0:
6,213,137042,6,0,B|64:198|77:237|75:237|73:238|91:279|160:252,1,155.999992858887,2|0,3:2|3:2,0:0:0:0:
235,234,137470,2,0,P|224:282|219:324,1,77.9999964294435,8|0,2:0|0:0,0:0:0:0:
311,281,137756,2,0,P|325:328|342:366,1,77.9999964294435,0|0,3:2|3:2,0:0:0:0:
381,230,138042,2,0,B|421:212|459:225|459:225|439:193|455:144,1,155.999992858887,10|2,2:0|3:2,0:0:0:0:
308,47,138613,5,10,2:0:0:0:
245,101,138756,2,0,P|265:152|307:157,1,77.9999964294435,2|2,2:0|3:2,0:0:0:0:
373,131,139042,2,0,B|375:86|393:107|388:45,1,77.9999964294435,2|10,3:2|2:0,0:0:0:0:
236,102,139327,2,0,B|248:192|281:144|286:263,1,155.999992858887,2|0,3:2|3:2,0:0:0:0:
227,316,139756,6,0,B|215:333|215:354|215:354|195:334|166:346,1,77.9999964294435,8|0,2:0|0:0,0:0:0:0:
233,222,140042,2,0,B|253:223|271:213|271:213|264:240|289:259,1,77.9999964294435,0|0,3:2|3:2,0:0:0:0:
149,264,140327,2,0,B|140:245|122:234|122:234|149:227|153:196,1,77.9999964294435,10|0,2:0|0:0,0:0:0:0:
140,126,140613,6,0,P|96:120|60:111,2,77.9999964294435,6|0|10,3:2|3:2|2:0,0:0:0:0:
214,67,141042,1,2,3:2:0:0:
218,61,141113,1,0,3:2:0:0:
222,55,141185,2,0,P|266:49|302:40,1,77.9999964294435,2|2,3:2|3:2,0:0:0:0:
287,136,141470,2,0,P|328:152|363:163,1,77.9999964294435,8|2,2:0|3:2,0:0:0:0:
385,75,141756,6,0,B|384:77|402:76|437:68|472:56,1,77.9999964294435,0|0,3:0|0:0,0:0:0:0:
511,174,142042,2,0,P|483:227|375:226,1,155.999992858887,10|2,2:2|3:2,0:0:0:0:
360,162,142470,1,0,3:2:0:0:
314,231,142613,2,0,P|313:268|343:305,1,77.9999964294435,10|0,2:0|0:0,0:0:0:0:
393,370,142899,6,0,P|321:344|227:334,1,155.999992858887,6|8,3:2|2:0,0:0:0:0:
58,249,143470,1,0,3:2:0:0:
58,249,143613,2,0,P|68:197|68:163,1,77.9999964294435,0|2,3:2|2:0,0:0:0:0:
41,86,143899,6,0,B|149:62|149:62|129:79|117:102,1,155.999992858887,10|2,2:0|3:2,0:0:0:0:
155,179,144327,1,10,2:0:0:0:
155,179,144470,2,0,B|263:203|263:203|243:186|231:163,1,155.999992858887,2|2,2:0|3:2,0:0:0:0:
300,64,144899,2,0,P|321:107|306:136,1,77.9999964294435,10|2,2:0|2:0,0:0:0:0:
386,190,145185,6,0,B|430:177|465:170|465:170|455:130|447:88,2,155.999992858887,0|10|0,3:2|2:0|3:2,0:0:0:0:
454,259,145899,1,0,3:2:0:0:
381,303,146042,2,0,B|355:271|355:271|313:285,1,77.9999964294435,2|8,2:0|2:0,0:0:0:0:
241,276,146327,6,0,B|224:300|224:300|245:359,1,77.9999964294435,2|0,2:0|3:2,0:0:0:0:
139,374,146613,2,0,B|156:350|156:350|135:291,1,77.9999964294435,10|0,2:0|0:0,0:0:0:0:
171,215,146899,2,0,B|141:203|141:203|58:238|58:238|45:283,1,155.999992858887,2|8,3:2|2:0,0:0:0:0:
50,134,147327,1,0,0:0:0:0:
50,134,147470,6,0,B|78:140|78:140|102:198,1,77.9999964294435,2|2,3:2|2:0,0:0:0:0:
155,43,147756,2,0,B|135:64|135:64|72:56,1,77.9999964294435,10|2,2:0|2:0,0:0:0:0:
181,179,148042,2,0,B|172:150|172:150|210:101,2,77.9999964294435,2|2|2,3:2|3:2|2:0,0:0:0:0:
227,251,148470,1,10,2:0:0:0:
304,204,148613,5,2,2:0:0:0:
304,204,148756,2,0,P|360:217|468:237,1,155.999992858887,2|2,3:2|2:0,0:0:0:0:
420,316,149185,2,0,P|392:345|394:385,1,77.9999964294435,0|2,3:2|3:2,0:0:0:0:
375,234,149470,2,0,P|334:234|307:264,1,77.9999964294435,10|2,2:0|2:0,0:0:0:0:
445,155,149756,6,0,P|402:116|416:23,2,155.999992858887,0|8|0,3:2|2:0|3:2,0:0:0:0:
315,71,150470,2,0,P|321:132|350:170,1,77.9999964294435,0|0,3:2|0:0,0:0:0:0:
231,121,150756,2,0,L|57:145,1,155.999992858887,8|0,2:0|3:2,0:0:0:0:
114,45,151185,6,0,P|146:68|144:115,1,77.9999964294435,8|2,2:0|2:0,0:0:0:0:
24,207,151470,1,2,3:2:0:0:
24,207,151613,1,2,3:2:0:0:
102,238,151756,1,10,2:0:0:0:
102,238,151899,1,2,2:0:0:0:
34,293,152042,6,0,B|90:278|113:317|110:317|105:318|133:359|196:322,1,155.999992858887,6|10,3:2|2:0,0:0:0:0:
294,229,152613,1,2,3:2:0:0:
294,229,152756,2,0,P|274:269|266:306,1,77.9999964294435,2|8,3:2|2:0,0:0:0:0:
251,151,153042,6,0,P|211:131|174:123,1,77.9999964294435,2|0,3:2|0:0,0:0:0:0:
335,137,153327,2,0,P|355:97|363:60,1,77.9999964294435,2|8,3:2|2:0,0:0:0:0:
387,214,153613,2,0,B|408:251|429:289|429:289|405:302|362:337,1,155.999992858887,2|2,2:0|3:2,0:0:0:0:
292,359,154042,2,0,B|276:320|276:320|304:282,1,77.9999964294435,10|2,2:0|2:0,0:0:0:0:
245,214,154327,6,0,B|209:201|209:201|135:235|135:235|126:276,2,155.999992858887,2|10|2,3:2|2:0|3:2,0:0:0:0:
330,207,155042,2,0,B|343:169|343:169|314:126,1,77.9999964294435,2|8,3:2|2:0,0:0:0:0:
277,68,155327,6,0,L|360:37,1,77.9999964294435,2|0,3:2|0:0,0:0:0:0:
404,105,155613,2,0,L|487:74,1,77.9999964294435,2|8,3:2|2:0,0:0:0:0:
460,173,155899,2,0,B|425:210|425:210|459:267|435:324,1,155.999992858887,2|2,2:0|3:2,0:0:0:0:
365,333,156327,2,0,B|349:311|349:311|369:270|343:242,1,77.9999964294435,10|2,2:0|2:0,0:0:0:0:
271,266,156613,6,0,L|116:298,2,155.999992858887,2|10|2,3:2|2:0|3:2,0:0:0:0:
234,355,157327,2,0,P|198:318|204:284,1,77.9999964294435,0|8,3:2|2:0,0:0:0:0:
217,199,157613,1,2,3:2:0:0:
161,137,157756,6,0,P|121:114|91:125,1,77.9999964294435,2|2,2:0|3:2,0:0:0:0:
241,117,158042,2,0,P|240:70|216:50,1,77.9999964294435,10|2,2:0|2:0,0:0:0:0:
286,4,158327,2,0,P|321:64|315:150,1,155.999992858887,2|8,3:2|2:0,0:0:0:0:
365,213,158756,1,2,2:0:0:0:
421,275,158899,6,0,P|461:298|491:287,1,77.9999964294435,2|2,3:2|2:0,0:0:0:0:
341,295,159185,2,0,P|341:341|365:361,1,77.9999964294435,10|2,2:0|2:0,0:0:0:0:
283,227,159470,1,2,3:2:0:0:
206,204,159613,1,2,3:2:0:0:
223,282,159756,1,10,2:0:0:0:
141,256,159899,6,0,B|83:270|83:270|72:305|72:305|9:322,3,155.999992858887,10|10|10|10,2:0|2:0|2:0|2:0,0:0:0:0:
90,106,179470,6,0,L|218:86,1,107.999996704102,2|0,3:2|0:0,0:0:0:0:
266,37,179899,1,0,3:2:0:0:
349,65,180042,2,0,P|381:108|344:163,1,107.999996704102,8|2,2:0|3:2,0:0:0:0:
302,230,180470,2,0,P|283:181|269:158,1,53.9999983520508,2|0,3:2|0:0,0:0:0:0:
396,232,180756,6,0,P|367:335|367:352,1,107.999996704102,8|0,2:0|3:2,0:0:0:0:
291,378,181185,2,0,B|217:359|253:334|174:324,1,107.999996704102,8|2,2:0|3:2,0:0:0:0:
121,303,181613,1,0,3:2:0:0:
121,303,181756,1,2,3:2:0:0:
227,168,182042,6,0,P|251:207|244:234,1,53.9999983520508,2|2,2:0|3:2,0:0:0:0:
166,225,182327,2,0,B|111:210|111:210|124:155,1,107.999996704102,8|2,2:0|3:2,0:0:0:0:
138,80,182756,2,0,L|123:17,1,53.9999983520508,2|0,3:2|0:0,0:0:0:0:
206,7,183042,6,0,B|261:22|261:22|248:77,1,107.999996704102,8|0,2:0|3:2,0:0:0:0:
320,123,183470,2,0,B|381:113|346:85|436:77,1,107.999996704102,8|2,2:0|3:2,0:0:0:0:
503,101,183899,1,0,3:2:0:0:
503,101,184042,1,2,3:2:0:0:
409,204,184327,5,2,2:0:0:0:
409,204,184470,2,0,P|433:240|436:271,1,53.9999983520508,2|8,3:2|2:0,0:0:0:0:
337,322,184756,2,0,P|348:297|351:271,1,53.9999983520508,2|0,2:0|3:2,0:0:0:0:
265,278,185042,2,0,P|215:302|140:291,1,107.999996704102,2|8,3:2|2:0,0:0:0:0:
40,206,185613,5,0,3:2:0:0:
133,221,185756,2,0,P|124:160|117:113,1,107.999996704102,8|2,2:0|3:2,0:0:0:0:
215,3,186327,6,0,P|257:19|236:89,1,107.999996704102,2|2,3:2|2:0,0:0:0:0:
302,142,186756,2,0,P|327:119|336:99,2,53.9999983520508,2|10|2,3:2|2:0|2:0,0:0:0:0:
212,146,187185,1,0,3:2:0:0:
212,146,187327,2,0,L|241:266,1,107.999996704102,2|8,3:2|2:0,0:0:0:0:
321,279,187756,6,0,P|351:292|379:291,1,53.9999983520508,2|0,2:0|3:2,0:0:0:0:
257,334,188042,2,0,P|260:367|275:390,1,53.9999983520508,10|0,2:0|0:0,0:0:0:0:
177,308,188327,2,0,P|149:327|136:352,1,53.9999983520508,2|0,3:2|3:2,0:0:0:0:
237,250,188613,6,0,L|212:146,1,107.999996704102,2|0,3:2|0:0,0:0:0:0:
256,73,189042,1,0,3:2:0:0:
256,73,189185,2,0,P|293:78|324:79,1,53.9999983520508,8|0,2:0|0:0,0:0:0:0:
180,22,189470,1,2,3:2:0:0:
180,22,189613,2,0,P|114:43|63:43,2,107.999996704102,2|8|0,3:2|2:0|3:2,0:0:0:0:
256,73,190327,6,0,P|260:109|249:139,1,53.9999983520508,8|0,2:0|0:0,0:0:0:0:
316,183,190613,2,0,P|368:189|414:245,1,107.999996704102,2|2,3:2|3:2,0:0:0:0:
315,349,191185,5,2,2:0:0:0:
315,349,191327,2,0,B|257:329|286:312|220:296,1,107.999996704102,2|0,3:2|0:0,0:0:0:0:
138,288,191756,1,2,3:2:0:0:
138,288,191899,2,0,B|91:252|91:252|111:198,2,107.999996704102,2|8|0,3:2|2:0|3:2,0:0:0:0:
191,214,192613,6,0,L|168:90,1,107.999996704102,8|2,2:0|3:2,0:0:0:0:
207,37,193042,1,2,3:2:0:0:
280,69,193185,2,0,P|321:78|384:29,1,107.999996704102,2|2,3:2|2:0,0:0:0:0:
455,12,193613,2,0,P|454:47|452:72,1,53.9999983520508,2|8,3:2|2:0,0:0:0:0:
407,134,193899,5,2,2:0:0:0:
407,134,194042,1,2,3:2:0:0:
478,194,194185,1,2,3:2:0:0:
478,194,194613,6,0,P|440:222|455:304,2,120,2|2|2,2:0|2:0|2:0,0:0:0:0:
439,295,195470,6,0,B|387:304|371:260|375:259|382:258|358:216|295:228,1,155.999992858887,6|8,3:2|2:0,0:0:0:0:
224,247,195899,1,0,0:0:0:0:
251,327,196042,2,0,P|239:275|228:244,1,77.9999964294435,0|0,3:2|3:2,0:0:0:0:
158,202,196327,1,2,2:0:0:0:
119,271,196470,6,0,P|135:203|157:109,1,155.999992858887,10|0,2:0|3:2,0:0:0:0:
95,42,196899,2,0,P|65:73|72:118,1,77.9999964294435,8|0,2:0|0:0,0:0:0:0:
242,89,197185,2,0,P|230:47|187:31,1,77.9999964294435,0|0,3:2|3:2,0:0:0:0:
154,119,197470,2,0,B|182:157|197:189|197:189|231:172|294:163,1,155.999992858887,10|2,2:0|3:2,0:0:0:0:
351,60,198042,5,10,2:0:0:0:
351,60,198185,2,0,B|440:74|440:74|445:105|486:136,1,155.999992858887,2|0,2:0|3:2,0:0:0:0:
415,182,198613,1,2,2:0:0:0:
482,230,198756,2,0,P|493:274|467:312,1,77.9999964294435,10|0,2:0|0:0,0:0:0:0:
386,348,199042,5,0,3:2:0:0:
386,348,199185,2,0,P|375:292|367:268,1,77.9999964294435,8|0,2:0|0:0,0:0:0:0:
292,226,199470,2,0,L|194:238,1,77.9999964294435,0|0,3:2|3:2,0:0:0:0:
293,309,199756,2,0,L|133:328,1,155.999992858887,10|2,2:0|3:2,0:0:0:0:
48,208,200327,6,0,P|71:169|111:159,1,77.9999964294435,10|2,2:0|2:0,0:0:0:0:
176,122,200613,2,0,P|196:80|181:43,2,77.9999964294435,2|2|2,3:2|3:2|2:0,0:0:0:0:
166,207,201042,6,0,P|192:241|299:221,1,155.999992858887,10|2,2:0|3:2,0:0:0:0:
316,150,201470,1,10,2:0:0:0:
316,150,201613,1,2,2:0:0:0:
379,207,201756,1,2,3:2:0:0:
379,207,201899,2,0,P|384:259|386:376,1,155.999992858887,2|2,3:2|2:0,0:0:0:0:
459,304,202327,6,0,P|412:296|376:283,1,77.9999964294435,2|0,3:2|0:0,0:0:0:0:
304,333,202613,2,0,P|257:341|221:354,1,77.9999964294435,10|2,2:0|2:0,0:0:0:0:
157,300,202899,2,0,P|121:270|116:227,1,77.9999964294435,2|2,3:2|3:2,0:0:0:0:
196,222,203185,1,2,2:0:0:0:
196,222,203327,2,0,P|252:231|371:249,1,155.999992858887,10|2,2:0|3:2,0:0:0:0:
425,209,203756,6,0,P|436:164|415:135,1,77.9999964294435,10|2,2:0|2:0,0:0:0:0:
334,157,204042,2,0,B|307:122|280:95|280:95|310:70|346:27,1,155.999992858887,0|8,3:2|2:0,0:0:0:0:
119,16,204613,6,0,B|66:19|59:69|64:69|68:69|57:117|-7:110,1,155.999992858887,6|8,3:2|2:0,0:0:0:0:
142,93,205042,2,0,P|185:105|211:140,1,77.9999964294435,0|0,0:0|3:2,0:0:0:0:
93,162,205327,1,0,3:2:0:0:
93,162,205470,1,10,2:0:0:0:
168,220,205613,2,0,P|235:206|325:191,1,155.999992858887,2|0,3:2|3:2,0:0:0:0:
344,110,206042,6,0,P|337:64|301:40,1,77.9999964294435,8|0,2:0|0:0,0:0:0:0:
401,168,206327,2,0,P|437:139|439:96,1,77.9999964294435,0|0,3:2|3:2,0:0:0:0:
378,247,206613,2,0,P|409:298|504:311,1,155.999992858887,10|6,2:0|3:2,0:0:0:0:
496,309,207185,6,0,P|450:322|436:362,1,77.9999964294435,10|0,2:0|2:0,0:0:0:0:
349,367,207470,1,2,3:2:0:0:
349,367,207613,2,0,P|322:321|296:291,1,77.9999964294435,0|10,3:2|2:0,0:0:0:0:
227,273,207899,2,0,P|162:289|85:216,1,155.999992858887,2|0,3:2|3:2,0:0:0:0:
120,160,208327,5,8,2:0:0:0:
60,108,208470,2,0,P|39:147|60:195,1,77.9999964294435,2|0,2:0|3:2,0:0:0:0:
129,161,208756,2,0,P|176:151|210:138,2,77.9999964294435,2|10|2,3:2|2:0|2:0,0:0:0:0:
93,240,209185,6,0,P|144:255|181:356,1,155.999992858887,6|10,3:2|2:0,0:0:0:0:
269,356,209613,1,2,2:0:0:0:
269,356,209756,2,0,P|289:312|321:295,2,77.9999964294435,2|2|10,3:2|3:2|2:0,0:0:0:0:
356,371,210185,2,0,B|440:381|440:381|451:293,1,155.999992858887,2|2,3:2|3:2,0:0:0:0:
378,179,210613,6,0,P|376:227|386:259,1,77.9999964294435,10|2,2:0|2:0,0:0:0:0:
301,131,210899,2,0,P|265:163|250:193,1,77.9999964294435,2|0,3:2|3:2,0:0:0:0:
280,43,211185,2,0,P|232:40|200:50,1,77.9999964294435,10|0,2:0|2:0,0:0:0:0:
382,80,211470,1,6,3:2:0:0:
251,189,211756,5,10,2:0:0:0:
251,189,211899,2,0,L|261:242,2,38.9999982147218,2|0|2,3:2|3:2|3:2,0:0:0:0:
169,145,212185,2,0,P|130:157|85:163,1,77.9999964294435,2|8,3:2|2:0,0:0:0:0:
29,223,212470,5,2,3:2:0:0:
23,227,212542,1,0,3:2:0:0:
17,231,212613,2,0,B|19:258|12:271|12:271|31:268|59:286,1,77.9999964294435,2|0,3:2|3:2,0:0:0:0:
122,315,212899,2,0,B|146:326|154:339|154:339|161:321|190:306,1,77.9999964294435,10|0,2:0|3:2,0:0:0:0:
254,264,213185,6,0,B|283:252|299:210|299:210|316:254|374:267,1,155.999992858887,2|10,3:2|2:0,0:0:0:0:
309,337,213613,1,0,3:2:0:0:
309,337,213756,2,0,P|312:205|352:101,1,233.999989288331,4|2,3:2|2:0,0:0:0:0:
400,38,214327,6,0,P|435:76|430:132,1,77.9999964294435,2|2,3:2|3:2,0:0:0:0:
353,109,214613,2,0,P|337:158|286:181,1,77.9999964294435,2|10,2:0|2:0,0:0:0:0:
267,102,214899,2,0,P|216:113|170:80,2,77.9999964294435,2|2|10,2:0|3:2|2:0,0:0:0:0:
141,45,215327,6,0,P|168:98|195:225,1,155.999992858887,2|2,2:0|3:2,0:0:0:0:
131,248,215756,2,0,P|80:236|34:269,1,77.9999964294435,10|2,2:0|2:0,0:0:0:0:
205,297,216042,6,0,B|268:307|271:255|274:255|280:254|290:213|363:237,1,155.999992858887,2|10,3:2|2:0,0:0:0:0:
412,256,216470,1,2,2:0:0:0:
338,315,216613,2,0,P|379:335|423:374,2,77.9999964294435,2|2|2,3:2|3:2|2:0,0:0:0:0:
420,254,217042,2,0,P|431:198|475:109,1,155.999992858887,10|2,2:0|3:2,0:0:0:0:
512,37,217470,6,0,P|461:25|426:46,1,77.9999964294435,10|2,2:0|2:0,0:0:0:0:
373,90,217756,1,0,3:2:0:0:
373,90,217899,1,2,3:2:0:0:
284,84,218042,2,0,P|237:59|230:18,1,77.9999964294435,10|2,2:0|2:0,0:0:0:0:
150,4,218327,6,0,B|77:26|77:26|102:120,2,155.999992858887,2|10|2,3:2|2:0|3:2,0:0:0:0:
106,105,219042,1,2,3:2:0:0:
190,112,219185,2,0,P|187:137|149:178,1,77.9999964294435,2|10,2:0|2:0,0:0:0:0:
63,185,219470,6,0,P|78:204|80:260,2,77.9999964294435,2|2|10,2:0|3:2|2:0,0:0:0:0:
0,250,219899,2,0,L|173:293,1,155.999992858887,2|0,2:0|3:2,0:0:0:0:
186,358,220327,2,0,B|214:355|214:355|232:308,1,77.9999964294435,10|0,2:0|2:0,0:0:0:0:
210,230,220613,6,0,B|226:202|226:202|321:188|321:188|357:209,1,155.999992858887,2|10,3:2|2:0,0:0:0:0:
300,110,221042,1,2,2:0:0:0:
300,110,221185,2,0,L|202:125,1,77.9999964294435,2|2,3:2|3:2,0:0:0:0:
216,38,221470,2,0,B|248:14|248:14|306:36,1,77.9999964294435,2|10,2:0|2:0,0:0:0:0:
363,44,221756,6,0,B|442:70|442:70|508:25,2,155.999992858887,2|10|2,2:0|2:0|3:2,0:0:0:0:
216,38,222613,2,0,B|189:49|189:49|170:115,1,77.9999964294435,10|0,2:0|0:0,0:0:0:0:
145,175,222899,6,0,P|109:218|17:192,1,155.999992858887,4|10,3:2|2:0,0:0:0:0:
19,117,223327,1,2,2:0:0:0:
19,117,223470,2,0,P|63:102|98:124,1,77.9999964294435,2|2,3:2|3:2,0:0:0:0:
152,178,223756,2,0,P|200:173|219:142,1,77.9999964294435,2|10,2:0|2:0,0:0:0:0:
274,87,224042,6,0,B|269:36|287:53|282:2,2,77.9999964294435,2|2|10,2:0|3:2|2:0,0:0:0:0:
306,174,224470,1,2,2:0:0:0:
306,174,224613,2,0,P|324:207|361:216,1,77.9999964294435,0|2,3:2|3:2,0:0:0:0:
441,254,224899,2,0,B|429:286|397:294|397:294|375:347|375:347|399:381,1,155.999992858887,10|4,2:0|3:2,0:0:0:0:
194,373,225470,6,0,B|218:350|218:350|201:287,1,77.9999964294435,10|2,2:0|2:0,0:0:0:0:
127,261,225756,2,0,B|103:284|103:284|120:347,1,77.9999964294435,2|2,3:2|3:2,0:0:0:0:
270,243,226042,2,0,P|235:216|197:225,1,77.9999964294435,2|10,2:0|2:0,0:0:0:0:
133,173,226327,6,0,B|137:122|155:144|157:83,1,77.9999964294435,2|2,2:0|3:2,0:0:0:0:
78,86,226613,1,10,2:0:0:0:
128,16,226756,2,0,L|299:42,1,155.999992858887,2|2,2:0|3:2,0:0:0:0:
359,77,227185,2,0,P|395:51|396:14,1,77.9999964294435,10|2,2:0|2:0,0:0:0:0:
301,132,227470,6,0,P|335:160|371:151,1,77.9999964294435,4|2,3:2|2:0,0:0:0:0:
449,183,227756,1,10,2:0:0:0:
449,183,227899,1,2,2:0:0:0:
395,243,228042,2,0,P|358:287|393:373,1,155.999992858887,2|2,3:2|2:0,0:0:0:0:
288,367,228470,1,10,2:0:0:0:
288,367,228613,6,0,P|276:298|288:271,1,77.9999964294435,2|2,2:0|3:2,0:0:0:0:
227,226,228899,2,0,L|148:243,1,77.9999964294435,10|2,2:0|2:0,0:0:0:0:
68,223,229185,2,0,P|85:169|60:74,1,155.999992858887,0|10,3:2|2:0,0:0:0:0:
105,9,229613,1,2,2:0:0:0:
191,22,229756,5,10,2:0:0:0:
191,22,229899,1,10,2:0:0:0:
258,89,230185,5,10,2:0:0:0:
258,89,230327,1,10,2:0:0:0:
324,25,230613,5,10,2:0:0:0:
324,25,230756,1,10,2:0:0:0:
391,92,231042,5,10,2:0:0:0:
391,92,231185,1,10,2:0:0:0:
452,20,231470,5,10,2:0:0:0:
452,20,231613,1,10,2:0:0:0:
