osu file format v14

[General]
AudioFilename: audio.mp3
AudioLeadIn: 0
PreviewTime: 194542
Countdown: 0
SampleSet: Soft
StackLeniency: 0.5
Mode: 0
LetterboxInBreaks: 0
WidescreenStoryboard: 1

[Editor]
Bookmarks: 19470,28613,37756,46899,67470,85756,94899,104042,122327,133756,152042,161185,179470,195470,213185
DistanceSpacing: 0.4
BeatDivisor: 4
GridSize: 32
TimelineZoom: 1.5

[Metadata]
Title:Tatoeba
TitleUnicode:例えば
Artist:KAF
ArtistUnicode:花譜
Creator:Rtyzen
Version:Extra
Source:映画大好きポンポさん
Tags:co22 corsace open 2022 hr1 gf Slyze- Sparhten KAMITSUBAKI STUDIO 神椿スタジオ vtuber vtb virtual youtuber カンザキイオリ kanzaki iori japanese pop j-pop jpop rock jrock j-rock thinkr eiga daisuki pompo-san pompo san Pompo: The Cinéphile cinephile insert ins
BeatmapID:3924007
BeatmapSetID:1850935

[Difficulty]
HPDrainRate:4.5
CircleSize:4
OverallDifficulty:8.8
ApproachRate:9.2
SliderMultiplier:1.6
SliderTickRate:1

[Events]
//Background and Video events
0,0,"bg.jpg",0,0
Video,-1909,"tatoeba.mp4"
//Break Periods
2,95104,103472
2,161032,178900
//Storyboard Layer 0 (Background)
//Storyboard Layer 1 (Fail)
//Storyboard Layer 2 (Pass)
//Storyboard Layer 3 (Foreground)
//Storyboard Layer 4 (Overlay)
//Storyboard Sound Samples

[TimingPoints]
1185,285.714285714286,4,2,2,50,1,0
16185,-100,4,2,2,60,0,0
17185,-100,4,2,2,90,0,0
19042,-133.333333333333,4,2,2,90,0,0
19470,-83.3333333333333,4,2,2,85,0,0
19756,-83.3333333333333,4,2,1,85,0,0
27185,-100,4,2,1,85,0,0
28613,-100,4,2,1,60,0,0
29042,-125,4,2,2,60,0,0
37756,-100,4,2,2,65,0,0
38042,-100,4,2,1,65,0,0
44613,-100,4,2,1,85,0,0
45899,-125,4,2,1,85,0,0
46899,-100,4,2,1,65,0,0
53756,-100,4,2,1,90,0,0
55756,-83.3333333333333,4,2,1,90,0,0
56042,-83.3333333333333,4,2,1,65,0,0
56756,-100,4,2,1,65,0,0
60613,-90.9090909090909,4,2,1,65,0,0
62899,-90.9090909090909,4,2,1,75,0,0
65185,-90.9090909090909,4,2,1,90,0,0
66613,-333.333333333333,4,2,1,70,0,0
67470,-76.9230769230769,4,2,1,85,0,0
75756,-76.9230769230769,4,2,1,75,0,0
76042,-76.9230769230769,4,2,1,85,0,0
76327,-76.9230769230769,4,2,1,95,0,0
76613,-76.9230769230769,4,2,1,100,0,0
76899,-76.9230769230769,4,2,1,85,0,0
85899,-83.3333333333333,4,2,1,85,0,0
90470,-66.6666666666667,4,2,1,85,0,0
90899,-83.3333333333333,4,2,1,85,0,0
92613,-83.3333333333333,4,2,1,75,0,0
94613,-83.3333333333333,4,2,1,65,0,0
94899,-83.3333333333333,4,2,1,40,0,0
104042,-125,4,2,1,60,0,0
108613,-100,4,2,1,60,0,0
110899,-100,4,2,1,90,0,0
112613,-333.333333333333,4,2,1,55,0,0
112899,-333.333333333333,4,2,1,65,0,0
113185,-90.9090909090909,4,2,1,65,0,0
119756,-66.6666666666667,4,2,1,65,0,0
120042,-66.6666666666667,4,2,1,90,0,0
121042,-83.3333333333333,4,2,1,90,0,0
122327,-83.3333333333333,4,2,1,65,0,0
123327,-90.9090909090909,4,2,1,65,0,0
131470,-90.9090909090909,4,2,1,90,0,0
133470,-90.9090909090909,4,2,1,70,0,0
133756,-76.9230769230769,4,2,1,85,0,0
140613,-76.9230769230769,4,2,1,75,0,0
141185,-76.9230769230769,4,2,1,85,0,0
141756,-76.9230769230769,4,2,1,95,0,0
142042,-76.9230769230769,4,2,1,75,0,0
142327,-76.9230769230769,4,2,1,85,0,0
142613,-76.9230769230769,4,2,1,95,0,0
142899,-76.9230769230769,4,2,1,100,0,0
143185,-76.9230769230769,4,2,1,85,0,0
159899,-76.9230769230769,4,2,1,90,0,0
161185,-76.9230769230769,4,2,1,40,0,0
179470,-133.333333333333,4,2,1,50,0,0
180042,-133.333333333333,4,2,2,50,0,0
193470,-133.333333333333,4,2,2,60,0,0
194613,-76.9230769230769,4,2,2,50,0,0
195185,-100,4,2,2,50,0,0
195470,-76.9230769230769,4,2,2,100,0,0
195756,-76.9230769230769,4,2,1,85,0,0
206613,-76.9230769230769,4,2,1,75,0,0
206899,-76.9230769230769,4,2,1,100,0,0
207185,-76.9230769230769,4,2,1,85,0,0
211756,-76.9230769230769,4,2,1,75,0,0
212613,-76.9230769230769,4,2,1,85,0,0
213470,-76.9230769230769,4,2,1,95,0,0
213756,-76.9230769230769,4,2,1,100,0,0
213899,-76.9230769230769,4,2,1,85,0,0
214899,-83.3333333333333,4,2,1,85,0,0
229756,-83.3333333333333,4,2,1,90,0,0
232042,-83.3333333333333,4,2,1,60,0,0

[Colours]
Combo1 : 221,11,58
Combo2 : 237,249,89
Combo3 : 243,151,154
Combo4 : 68,110,254

[HitObjects]
53,130,1185,6,0,P|75:76|87:34,1,80,2|0,2:0|0:0,0:0:0:0:
181,231,1470,2,0,P|193:193|209:156,1,80,2|0,2:0|0:0,0:0:0:0:
89,53,1756,2,0,P|58:134|21:212,1,160,10|2,2:0|2:0,0:0:0:0:
172,72,2185,1,2,2:0:0:0:
287,140,2327,6,0,L|199:158,1,80,2|10,2:0|2:0,0:0:0:0:
90,255,2613,1,2,2:0:0:0:
90,255,2756,2,0,P|134:299|132:348,1,80,2|8,2:0|2:0,0:0:0:0:
268,365,3042,2,0,P|292:306|389:292,1,160
487,229,3470,6,0,P|441:217|407:198,1,80,2|2,2:0|2:0,0:0:0:0:
411,75,3756,2,0,P|369:99|332:109,1,80,2|0,2:0|0:0,0:0:0:0:
248,20,4042,2,0,P|236:66|216:100,1,80,10|0,2:0|0:0,0:0:0:0:
206,244,4327,5,2,2:0:0:0:
280,215,4470,1,2,2:0:0:0:
138,93,4613,6,0,P|105:132|111:179,1,80,0|8,0:0|2:0,0:0:0:0:
270,294,4899,1,0,0:0:0:0:
178,167,5042,2,0,P|193:218|196:274,1,80,0|8,0:0|2:0,0:0:0:0:
350,262,5327,2,0,P|363:224|382:189,1,80
268,302,5613,1,2,2:0:0:0:
324,133,5756,6,0,L|492:161,1,160,2|2,2:0|2:0,0:0:0:0:
246,108,6185,6,0,P|232:52|266:17,1,80,2|8,2:0|2:0,0:0:0:0:
321,11,6470,1,2,2:0:0:0:
390,43,6613,1,2,2:0:0:0:
235,191,6756,6,0,B|182:185|211:170|141:166,1,80,2|0,2:0|2:0,0:0:0:0:
95,209,7042,1,8,2:0:0:0:
252,109,7185,5,0,0:0:0:0:
182,87,7327,1,0,0:0:0:0:
319,252,7470,6,0,B|266:258|295:273|225:277,1,80,8|0,2:0|0:0,0:0:0:0:
329,252,7756,1,0,0:0:0:0:
170,315,7899,1,2,2:0:0:0:
328,332,8042,6,0,P|403:335|479:380,1,160,0|2,2:0|2:0,0:0:0:0:
231,196,8470,5,2,2:0:0:0:
231,196,8613,2,0,P|241:252|243:290,1,80,10|2,2:0|2:0,0:0:0:0:
402,99,9042,1,2,2:0:0:0:
401,99,9185,2,0,P|393:138|389:177,1,80,2|10,2:0|2:0,0:0:0:0:
182,20,9470,1,2,2:0:0:0:
183,20,9613,2,0,P|190:59|194:98,1,80,2|10,2:0|2:0,0:0:0:0:
262,8,9899,2,0,P|274:71|283:174,1,160,2|2,2:0|2:0,0:0:0:0:
77,154,10327,5,2,2:0:0:0:
126,78,10470,2,0,P|186:86|197:132,1,80,2|0,2:0|0:0,0:0:0:0:
68,161,10756,1,2,2:0:0:0:
133,216,10899,2,0,P|193:208|204:162,1,80,10|2,2:0|2:0,0:0:0:0:
212,190,11185,2,0,L|190:344,1,120,2|0,2:0|0:0,0:0:0:0:
196,320,11470,5,2,2:0:0:0:
278,314,11613,1,10,2:0:0:0:
329,379,11756,1,2,2:0:0:0:
466,285,11899,2,0,P|407:278|373:270,1,80,2|8,2:0|2:0,0:0:0:0:
379,266,12185,2,0,L|399:98,1,160,0|2,0:0|2:0,0:0:0:0:
264,149,12613,6,0,B|306:163|312:209|312:209|332:177|388:180,1,160,2|2,2:0|2:0,0:0:0:0:
430,35,13042,2,0,P|376:28|339:62,1,80,2|8,2:0|2:0,0:0:0:0:
170,164,13327,1,0,0:0:0:0:
170,164,13470,2,0,P|109:147|66:140,1,80,2|2,2:0|2:0,0:0:0:0:
279,67,13756,5,0,0:0:0:0:
210,13,13899,2,0,B|159:6|135:44|137:44|139:43|119:78|42:60,1,160,8|0,2:0|0:0,0:0:0:0:
287,69,14327,2,0,P|329:50|337:12,1,80,8|0,2:0|0:0,0:0:0:0:
443,93,14613,1,0,0:0:0:0:
405,161,14756,1,2,2:0:0:0:
500,247,14899,6,0,P|429:262|405:348,1,160,2|2,2:0|2:0,0:0:0:0:
278,180,15327,2,0,P|317:213|320:267,1,80,2|8,2:0|2:0,0:0:0:0:
281,370,15613,1,2,2:0:0:0:
332,314,15756,1,2,2:0:0:0:
171,288,15899,2,0,P|212:258|265:269,1,80,2|0,2:0|0:0,0:0:0:0:
395,171,16185,5,10,2:0:0:0:
338,104,16327,1,2,2:0:0:0:
403,164,16470,1,2,2:0:0:0:
278,186,16613,5,10,2:0:0:0:
231,114,16756,1,2,2:0:0:0:
360,26,16899,1,2,2:0:0:0:
335,111,17042,1,2,2:0:0:0:
120,41,17185,5,0,3:2:0:0:
343,116,17327,1,0,3:2:0:0:
25,193,17613,5,0,3:2:0:0:
200,37,17756,1,0,3:2:0:0:
109,351,18042,5,0,3:2:0:0:
61,121,18185,1,0,3:2:0:0:
287,357,18470,5,0,3:2:0:0:
64,283,18613,1,0,3:2:0:0:
381,205,18899,5,2,3:2:0:0:
205,361,19042,1,2,3:2:0:0:
27,66,19470,6,0,P|97:64|114:113,1,95.9999970703126,4|2,3:2|2:0,0:0:0:0:
138,147,19685,1,2,2:0:0:0:
132,156,19756,1,10,2:0:0:0:
214,36,19899,5,2,2:0:0:0:
258,99,20042,1,2,3:2:0:0:
216,165,20185,1,2,3:2:0:0:
63,191,20327,5,10,2:0:0:0:
132,156,20470,1,2,2:0:0:0:
295,334,20613,5,2,3:2:0:0:
161,355,20756,1,2,2:0:0:0:
126,241,20899,1,10,2:0:0:0:
338,175,21042,6,0,P|324:217|320:237,1,47.9999985351563,2|2,2:0|2:0,0:0:0:0:
252,189,21185,2,0,P|266:147|270:127,1,47.9999985351563,2|0,3:2|0:0,0:0:0:0:
261,262,21327,1,2,3:2:0:0:
412,198,21470,5,10,2:0:0:0:
482,229,21613,1,2,2:0:0:0:
270,49,21756,6,0,B|210:37|176:79|181:79|186:79|155:117|76:92,1,191.999994140625,2|10,3:2|2:0,0:0:0:0:
153,344,22185,6,0,P|127:291|97:254,1,95.9999970703126,2|0,2:0|3:2,0:0:0:0:
266,267,22470,2,0,P|264:207|253:161,1,95.9999970703126,2|8,3:2|2:0,0:0:0:0:
375,337,22756,2,0,P|403:285|431:189,1,143.999995605469,2|0,3:2|0:0,0:0:0:0:
377,148,23042,5,2,3:2:0:0:
374,139,23113,1,2,2:0:0:0:
380,132,23185,1,10,2:0:0:0:
449,97,23327,1,2,2:0:0:0:
499,165,23470,5,2,3:2:0:0:
346,222,23613,1,2,3:2:0:0:
381,135,23756,5,10,2:0:0:0:
211,75,23899,1,2,2:0:0:0:
274,10,24042,6,0,L|301:153,1,143.999995605469,2|0,3:2|0:0,0:0:0:0:
268,220,24327,1,10,2:0:0:0:
189,206,24470,1,2,2:0:0:0:
101,66,24613,6,0,L|45:79,1,47.9999985351563,0|0,3:2|0:0,0:0:0:0:
99,140,24756,2,0,L|43:153,1,47.9999985351563,2|0,3:2|0:0,0:0:0:0:
171,23,24899,1,8,2:0:0:0:
43,153,25042,6,0,P|70:238|84:316,1,143.999995605469,2|0,2:0|0:0,0:0:0:0:
154,326,25327,1,2,2:0:0:0:
154,335,25399,1,2,2:0:0:0:
146,340,25470,1,10,2:0:0:0:
68,368,25613,1,2,2:0:0:0:
146,236,25756,5,2,3:2:0:0:
30,202,25899,1,2,3:2:0:0:
234,201,26042,5,10,2:0:0:0:
74,289,26185,1,2,2:0:0:0:
278,380,26327,5,4,3:2:0:0:
235,318,26470,1,0,3:2:0:0:
288,261,26613,1,8,2:0:0:0:
430,173,26756,5,0,3:2:0:0:
432,180,26827,1,0,3:2:0:0:
433,187,26899,1,0,3:2:0:0:
396,256,27042,1,0,3:2:0:0:
265,171,27185,6,0,P|290:128|336:135,1,80,8|0,2:0|3:2,0:0:0:0:
324,129,27399,1,0,3:2:0:0:
328,137,27470,1,0,3:2:0:0:
328,214,27613,1,0,3:2:0:0:
235,285,27756,5,8,2:0:0:0:
154,252,27899,1,0,3:2:0:0:
340,218,28042,5,0,3:2:0:0:
148,262,28185,1,0,3:2:0:0:
358,320,28327,5,8,2:0:0:0:
209,154,28470,1,0,3:2:0:0:
259,72,28613,1,6,2:0:0:0:
471,273,29042,5,8,2:0:0:0:
471,273,29185,2,0,P|413:279|352:327,1,128,2|10,3:2|2:0,0:0:0:0:
259,358,29613,6,0,P|254:315|272:278,1,64,2|0,2:0|3:2,0:0:0:0:
139,284,29899,2,0,P|165:250|204:236,1,64,2|2,2:0|3:2,0:0:0:0:
273,211,30185,1,10,2:0:0:0:
116,362,30327,6,0,P|97:284|67:223,1,128,0|8,3:2|2:0,0:0:0:0:
180,87,30756,5,2,2:0:0:0:
186,88,30827,1,0,0:0:0:0:
190,93,30899,2,0,P|170:147|100:148,1,128,2|2,3:2|3:2,0:0:0:0:
67,15,31327,2,0,P|109:11|134:37,1,64,10|0,2:0|3:2,0:0:0:0:
275,129,31613,1,0,0:0:0:0:
345,43,31756,6,0,P|303:39|278:65,1,64,10|2,2:0|2:0,0:0:0:0:
454,103,32042,2,0,P|417:133|418:230,1,128,0|0,3:2|3:2,0:0:0:0:
313,345,32470,6,0,P|304:307|293:273,1,64,8|0,2:0|3:2,0:0:0:0:
394,356,32756,1,0,0:0:0:0:
158,242,32899,2,0,P|214:248|249:253,1,64,8|2,2:0|2:0,0:0:0:0:
286,201,33113,1,0,0:0:0:0:
290,191,33185,6,0,P|283:139|210:118,1,128,2|2,3:2|3:2,0:0:0:0:
150,248,33613,2,0,P|111:262|75:242,1,64,10|0,2:0|3:2,0:0:0:0:
313,269,33899,1,0,0:0:0:0:
270,384,34042,2,0,P|262:342|255:316,1,64,10|2,2:0|2:0,0:0:0:0:
322,267,34256,1,2,2:0:0:0:
333,268,34327,5,2,3:2:0:0:
397,322,34470,1,2,2:0:0:0:
472,293,34613,1,2,3:2:0:0:
408,239,34756,1,10,2:0:0:0:
247,322,34899,6,0,P|254:353|260:384,1,64,0|0,3:2|0:0,0:0:0:0:
219,186,35185,1,8,2:0:0:0:
476,94,35470,5,0,3:2:0:0:
406,41,35613,2,0,L|411:-1,2,32,2|2|2,2:0|2:0|3:2,0:0:0:0:
330,73,35899,1,10,2:0:0:0:
467,98,36042,5,2,3:2:0:0:
335,155,36185,1,2,2:0:0:0:
431,167,36327,5,8,2:0:0:0:
237,38,36470,2,0,L|255:113,1,64,2|0,2:0|3:2,0:0:0:0:
223,168,36756,1,2,2:0:0:0:
291,231,36899,5,0,3:2:0:0:
240,348,37042,1,10,2:0:0:0:
366,292,37185,5,2,3:2:0:0:
208,248,37327,1,0,0:0:0:0:
93,354,37470,1,8,2:0:0:0:
93,354,37756,6,0,P|83:299|103:277,1,80,6|0,3:2|0:0,0:0:0:0:
300,187,38042,2,0,L|427:206,1,120,10|0,2:0|0:0,0:0:0:0:
485,172,38327,2,0,L|469:81,1,80,2|0,3:2|0:0,0:0:0:0:
286,25,38613,1,10,2:0:0:0:
151,180,38756,6,0,B|91:162|91:162|78:135|78:135|-9:106,1,160,2|2,2:0|2:0,0:0:0:0:
59,20,39185,1,10,2:0:0:0:
152,42,39327,1,2,2:0:0:0:
249,204,39470,6,0,B|283:227|283:227|326:215,1,80,0|0,3:2|0:0,0:0:0:0:
393,164,39756,1,8,2:0:0:0:
356,89,39899,1,0,0:0:0:0:
238,211,40042,6,0,L|254:302,1,80,2|2,3:2|2:0,0:0:0:0:
346,380,40327,1,10,2:0:0:0:
381,297,40470,1,0,0:0:0:0:
163,265,40613,5,2,3:2:0:0:
163,265,40756,2,0,L|147:356,1,80,2|8,2:0|2:0,0:0:0:0:
374,144,41042,1,2,2:0:0:0:
310,191,41185,5,0,3:2:0:0:
384,228,41327,1,0,0:0:0:0:
447,173,41470,1,8,2:0:0:0:
316,46,41613,5,0,0:0:0:0:
245,66,41756,1,0,3:2:0:0:
174,86,41899,1,0,0:0:0:0:
324,49,42042,5,8,2:0:0:0:
163,91,42185,2,0,L|104:82,1,40,2|0,2:0|0:0,0:0:0:0:
300,124,42327,6,0,L|330:303,1,160,2|10,3:2|2:0,0:0:0:0:
84,340,42756,2,0,P|95:285|137:278,1,80,2|0,2:0|3:2,0:0:0:0:
190,239,43042,1,2,2:0:0:0:
46,200,43185,2,0,P|99:182|126:214,1,80,10|0,2:0|0:0,0:0:0:0:
175,346,43470,5,0,3:2:0:0:
264,254,43613,1,0,0:0:0:0:
355,377,43756,1,8,2:0:0:0:
260,332,43899,5,0,0:0:0:0:
406,279,44042,1,0,3:2:0:0:
355,225,44185,1,0,0:0:0:0:
428,111,44327,6,0,P|492:126|531:129,1,80,10|0,2:0|0:0,0:0:0:0:
350,212,44613,5,2,3:2:0:0:
371,52,44756,1,8,2:0:0:0:
373,45,44827,1,8,2:0:0:0:
375,38,44899,1,10,2:0:0:0:
426,119,45042,5,10,2:0:0:0:
259,34,45185,1,8,2:0:0:0:
317,132,45327,1,10,2:0:0:0:
181,181,45470,2,0,L|98:167,1,80,10|0,2:0|0:0,0:0:0:0:
232,115,45756,5,0,0:0:0:0:
357,203,45899,2,0,L|393:182,2,32,2|2|10,3:2|3:2|2:0,0:0:0:0:
321,125,46185,5,4,2:3:0:0:
225,256,46327,1,8,2:3:0:0:
282,316,46470,1,8,3:0:0:0:
275,193,46613,5,8,3:2:0:0:
127,242,46756,1,0,3:0:0:0:
200,68,46899,6,0,L|382:92,1,160,6|8,3:2|2:0,0:0:0:0:
416,186,47327,1,2,2:0:0:0:
486,149,47470,1,2,3:2:0:0:
318,161,47613,2,0,P|304:208|335:250,1,80,2|8,2:0|2:0,0:0:0:0:
457,364,47899,6,0,P|477:317|478:276,1,80,2|0,2:0|3:2,0:0:0:0:
344,306,48185,2,0,P|324:258|296:228,1,80,0|8,3:2|2:0,0:0:0:0:
194,325,48470,1,0,0:0:0:0:
122,351,48613,1,0,3:2:0:0:
290,155,48899,1,8,2:0:0:0:
28,78,49185,6,0,P|19:130|50:160,1,80,2|0,3:2|0:0,0:0:0:0:
211,273,49470,2,0,P|223:204|165:168,1,120,10|0,2:0|0:0,0:0:0:0:
115,157,49756,5,2,3:2:0:0:
85,224,49899,1,2,2:0:0:0:
214,281,50042,2,0,B|274:273|238:252|318:259,1,80,10|0,2:0|0:0,0:0:0:0:
459,284,50327,1,2,3:2:0:0:
487,109,50470,5,2,3:2:0:0:
350,36,50613,1,10,2:0:0:0:
258,149,50756,1,2,2:0:0:0:
421,143,50899,5,2,3:2:0:0:
339,121,51042,1,2,2:0:0:0:
431,148,51185,1,10,2:0:0:0:
361,204,51327,5,2,2:0:0:0:
350,36,51470,6,0,L|448:51,1,80,2|2,3:2|2:0,0:0:0:0:
279,89,51756,1,10,2:0:0:0:
395,117,51899,6,0,P|364:150|359:185,1,80,2|0,2:0|3:2,0:0:0:0:
233,204,52185,2,0,P|214:162|183:144,1,80,0|8,0:0|2:0,0:0:0:0:
279,89,52470,1,2,2:0:0:0:
155,243,52613,5,2,3:2:0:0:
199,305,52756,1,2,3:2:0:0:
271,282,52899,1,10,2:0:0:0:
146,241,53042,6,0,P|156:291|160:337,1,80,2|0,2:0|3:2,0:0:0:0:
373,361,53327,2,0,P|363:311|359:265,1,80,0|8,0:0|2:0,0:0:0:0:
197,183,53613,1,2,2:0:0:0:
272,295,53756,5,6,3:2:0:0:
439,213,53899,1,4,2:3:0:0:
330,133,54042,1,10,2:0:0:0:
278,190,54185,1,2,3:2:0:0:
416,128,54327,5,6,3:2:0:0:
213,84,54470,1,0,3:2:0:0:
370,64,54613,1,10,2:0:0:0:
302,17,54756,1,10,2:0:0:0:
180,164,54899,5,2,3:2:0:0:
165,14,55042,1,2,3:2:0:0:
301,103,55185,1,10,2:0:0:0:
207,87,55327,1,2,3:2:0:0:
292,16,55470,5,0,3:2:0:0:
413,139,55613,1,0,3:2:0:0:
281,242,55756,2,0,B|231:228|231:228|217:191|217:191|156:174,1,143.999995605469,10|0,2:0|0:0,0:0:0:0:
94,162,56042,6,0,B|160:143|160:143|178:94|178:94|260:71,1,191.999994140625,6|8,3:2|2:0,0:0:0:0:
469,56,56470,5,2,2:0:0:0:
398,17,56613,1,2,3:2:0:0:
344,73,56756,1,2,3:2:0:0:
479,213,56899,2,0,P|489:164|503:119,1,80,10|2,2:0|2:0,0:0:0:0:
390,11,57185,5,0,3:2:0:0:
316,152,57327,1,0,3:2:0:0:
386,201,57470,1,8,2:0:0:0:
506,137,57613,6,0,P|495:175|487:214,1,80,2|2,3:2|2:0,0:0:0:0:
356,373,57899,1,2,3:2:0:0:
295,310,58042,2,0,P|305:271|313:232,1,80,8|2,2:0|2:0,0:0:0:0:
499,341,58327,5,2,3:2:0:0:
395,240,58470,1,2,2:0:0:0:
230,366,58613,1,10,2:0:0:0:
372,328,58756,6,0,P|333:317|294:309,1,80,2|0,2:0|3:2,0:0:0:0:
87,185,59042,1,2,3:2:0:0:
110,106,59185,1,10,2:0:0:0:
219,285,59327,6,0,L|187:121,1,160,2|2,2:0|3:2,0:0:0:0:
1,201,59756,2,0,L|19:296,1,80,10|0,2:0|3:2,0:0:0:0:
257,89,60042,5,0,0:0:0:0:
191,52,60185,1,0,3:2:0:0:
111,218,60327,1,10,2:0:0:0:
258,167,60470,1,0,0:0:0:0:
12,157,60613,6,0,B|106:136|106:136|128:105,1,132.00000402832,6|0,3:2|0:0,0:0:0:0:
191,52,60899,2,0,P|244:54|266:101,1,88.000002685547,10|2,2:0|2:0,0:0:0:0:
350,207,61185,1,0,3:2:0:0:
423,128,61327,1,0,3:2:0:0:
512,213,61470,2,0,P|459:215|437:262,1,88.000002685547,10|2,2:0|2:0,0:0:0:0:
247,368,61756,5,0,3:2:0:0:
268,256,61899,1,0,3:2:0:0:
362,287,62042,1,8,2:0:0:0:
329,357,62185,1,0,3:2:0:0:
185,303,62327,5,0,0:0:0:0:
359,277,62470,1,0,3:2:0:0:
422,348,62613,1,10,2:0:0:0:
177,292,62899,6,0,B|193:201|193:201|212:189|223:162,1,132.00000402832,2|0,3:2|0:0,0:0:0:0:
134,60,63185,2,0,P|131:119|164:135,1,88.000002685547,10|2,2:0|2:0,0:0:0:0:
293,109,63470,5,0,3:2:0:0:
225,21,63613,1,0,3:2:0:0:
216,97,63756,1,10,2:0:0:0:
301,107,63899,1,2,2:0:0:0:
145,135,64042,5,0,3:2:0:0:
249,171,64185,1,2,3:2:0:0:
284,264,64327,1,10,2:0:0:0:
118,212,64470,5,2,3:2:0:0:
253,167,64613,1,2,2:0:0:0:
362,284,64756,1,2,3:2:0:0:
201,241,64899,5,10,2:0:0:0:
335,195,65042,1,2,2:0:0:0:
287,357,65185,5,8,2:0:0:0:
64,283,65327,1,8,2:0:0:0:
109,351,65613,5,8,2:0:0:0:
61,121,65756,1,8,2:0:0:0:
25,193,66042,5,8,2:0:0:0:
200,37,66185,1,8,2:0:0:0:
269,84,66613,6,0,L|276:134,2,47.9999985351563,2|2|2,2:0|2:0|2:0,0:0:0:0:
479,81,67470,6,0,P|420:108|382:253,1,207.999990478516,6|8,3:2|2:0,0:0:0:0:
451,298,67899,1,0,0:0:0:0:
303,251,68042,6,0,P|319:287|359:296,1,51.999997619629,0|0,3:2|0:0,0:0:0:0:
287,352,68185,2,0,P|323:366|358:344,1,51.999997619629,0|0,3:2|0:0,0:0:0:0:
443,303,68327,1,2,2:0:0:0:
301,244,68470,6,0,L|81:285,1,207.999990478516,10|0,2:0|3:2,0:0:0:0:
268,163,68899,5,8,2:0:0:0:
299,90,69042,1,0,0:0:0:0:
150,153,69185,1,0,3:2:0:0:
188,220,69327,1,0,3:2:0:0:
226,87,69470,6,0,B|154:84|189:59|96:61,1,103.999995239258,10|0,2:0|0:0,0:0:0:0:
0,140,69756,2,0,P|28:210|112:198,1,155.999992858887,2|0,3:2|0:0,0:0:0:0:
150,153,70042,1,10,2:0:0:0:
121,334,70185,1,2,2:0:0:0:
266,249,70327,5,0,3:2:0:0:
188,220,70470,1,0,3:2:0:0:
128,325,70613,1,2,2:0:0:0:
295,364,70756,6,0,B|339:351|339:351|351:337|351:337|406:321,1,103.999995239258,10|0,2:0|0:0,0:0:0:0:
185,228,71042,1,0,3:2:0:0:
363,114,71185,2,0,B|398:145|398:145|368:256,1,155.999992858887,8|0,2:0|0:0,0:0:0:0:
389,325,71470,6,0,L|409:380,1,51.999997619629,0|0,3:2|0:0,0:0:0:0:
466,312,71613,2,0,L|486:367,1,51.999997619629,0|0,3:2|0:0,0:0:0:0:
291,272,71756,1,10,2:0:0:0:
454,168,71899,5,0,0:0:0:0:
461,172,71970,1,0,0:0:0:0:
468,176,72042,2,0,L|302:161,1,155.999992858887,2|0,3:2|0:0,0:0:0:0:
249,124,72327,1,10,2:0:0:0:
347,4,72470,5,2,2:0:0:0:
402,84,72613,1,0,3:2:0:0:
247,116,72756,5,2,3:2:0:0:
314,77,72899,1,0,0:0:0:0:
192,13,73042,6,0,P|135:25|76:29,1,103.999995239258,10|0,2:0|0:0,0:0:0:0:
320,79,73327,1,0,3:2:0:0:
157,100,73470,6,0,P|98:132|98:219,1,155.999992858887,8|0,2:0|0:0,0:0:0:0:
162,257,73756,2,0,P|172:233|171:208,1,51.999997619629,0|0,3:2|0:0,0:0:0:0:
26,253,73899,2,0,P|41:273|64:285,1,51.999997619629,0|0,3:2|0:0,0:0:0:0:
129,328,74042,5,10,2:0:0:0:
94,213,74185,1,0,0:0:0:0:
122,339,74327,6,0,L|339:363,1,207.999990478516,2|10,3:2|2:0,0:0:0:0:
490,213,74756,2,0,P|414:216|402:275,1,103.999995239258,2|2,2:0|3:2,0:0:0:0:
419,346,75042,1,2,3:2:0:0:
490,367,75185,1,0,0:0:0:0:
314,188,75327,6,0,P|332:247|341:298,1,103.999995239258,10|0,2:0|0:0,0:0:0:0:
490,357,75613,1,0,3:2:0:0:
504,274,75756,5,10,2:0:0:0:
402,232,75899,1,0,0:0:0:0:
473,191,76042,5,2,3:2:0:0:
328,297,76185,1,0,3:2:0:0:
418,316,76327,5,10,2:0:0:0:
173,204,76470,1,0,0:0:0:0:
318,302,76613,6,0,B|242:288|219:339|221:339|224:339|190:398|117:364,1,207.999990478516,6|8,3:2|2:0,0:0:0:0:
134,370,77185,5,0,3:2:0:0:
235,268,77327,1,0,3:2:0:0:
37,220,77470,5,2,2:0:0:0:
152,293,77613,2,0,L|133:124,1,155.999992858887,10|0,2:0|0:0,0:0:0:0:
176,74,77899,1,0,3:2:0:0:
18,68,78042,6,0,L|31:6,1,51.999997619629,8|0,2:0|0:0,0:0:0:0:
182,69,78185,2,0,L|195:7,1,51.999997619629
103,20,78327,5,0,3:2:0:0:
259,98,78470,1,0,3:2:0:0:
342,52,78613,1,10,2:0:0:0:
267,21,78756,5,0,0:0:0:0:
373,151,78899,2,0,B|441:137|397:121|483:106,1,103.999995239258,2|0,3:2|0:0,0:0:0:0:
254,102,79185,1,10,2:0:0:0:
325,222,79327,2,0,B|382:260|363:217|434:267,1,103.999995239258,2|0,2:0|3:2,0:0:0:0:
154,358,79613,5,0,3:2:0:0:
266,284,79756,1,2,2:0:0:0:
66,287,79899,2,0,B|120:295|130:250|136:251|140:252|148:215|204:225,1,155.999992858887,10|0,2:0|0:0,0:0:0:0:
271,287,80185,1,0,3:2:0:0:
118,44,80327,6,0,P|91:98|126:138,1,103.999995239258,8|2,2:0|2:0,0:0:0:0:
252,167,80542,1,0,0:0:0:0:
260,171,80613,2,0,P|287:150|292:106,1,51.999997619629,2|0,3:2|0:0,0:0:0:0:
369,137,80756,2,0,P|364:103|328:76,1,51.999997619629,2|0,3:2|0:0,0:0:0:0:
203,67,80899,5,8,2:0:0:0:
266,17,81042,1,0,0:0:0:0:
14,113,81185,6,0,P|44:181|50:237,1,103.999995239258,2|0,3:2|0:0,0:0:0:0:
302,358,81470,2,0,P|313:307|336:261,1,103.999995239258,10|0,2:0|0:0,0:0:0:0:
6,278,81756,5,2,3:2:0:0:
89,296,81899,1,2,3:2:0:0:
311,186,82042,5,2,2:0:0:0:
158,116,82185,1,10,2:0:0:0:
291,27,82327,2,0,B|291:93|251:68|257:145,1,103.999995239258,2|0,2:0|3:2,0:0:0:0:
461,302,82613,6,0,L|473:235,1,51.999997619629,10|0,2:0|0:0,0:0:0:0:
410,195,82756,1,2,2:0:0:0:
469,309,82899,6,0,L|402:324,1,51.999997619629,0|0,3:2|0:0,0:0:0:0:
342,340,83042,2,0,L|275:355,1,51.999997619629,2|0,3:2|0:0,0:0:0:0:
414,189,83185,1,10,2:0:0:0:
274,253,83327,5,2,2:0:0:0:
272,260,83399,1,0,0:0:0:0:
271,267,83470,1,0,3:2:0:0:
125,187,83613,1,0,0:0:0:0:
17,276,83756,1,8,2:0:0:0:
202,310,83899,6,0,P|151:274|112:292,1,103.999995239258,0|0,0:0|3:2,0:0:0:0:
9,160,84185,1,0,3:2:0:0:
78,118,84327,1,0,0:0:0:0:
209,313,84470,6,0,L|181:130,1,155.999992858887,8|0,2:0|0:0,0:0:0:0:
217,93,84756,1,0,3:2:0:0:
377,369,84899,6,0,L|357:238,1,103.999995239258,8|2,2:0|2:0,0:0:0:0:
405,202,85113,1,0,0:0:0:0:
415,200,85185,2,0,P|454:212|470:253,1,51.999997619629,2|0,3:2|0:0,0:0:0:0:
246,243,85327,2,0,L|180:229,1,51.999997619629,2|0,3:2|0:0,0:0:0:0:
328,196,85470,1,10,2:0:0:0:
217,93,85613,5,2,2:0:0:0:
195,53,85685,1,0,0:0:0:0:
220,16,85756,1,4,3:2:0:0:
249,246,85899,6,0,L|259:311,2,47.9999985351563,2|2|10,2:0|2:0|2:0,0:0:0:0:
325,189,86185,5,2,2:0:0:0:
153,298,86327,1,2,3:2:0:0:
345,355,86470,1,2,3:2:0:0:
210,160,86613,5,10,2:0:0:0:
163,218,86756,1,2,2:0:0:0:
370,268,86899,5,2,3:2:0:0:
285,102,87042,1,2,2:0:0:0:
158,224,87185,1,10,2:0:0:0:
372,187,87327,5,2,2:0:0:0:
379,185,87399,1,2,2:0:0:0:
386,184,87470,1,2,3:2:0:0:
276,100,87613,1,2,3:2:0:0:
461,215,87756,5,10,2:0:0:0:
305,333,87899,1,2,2:0:0:0:
370,268,88042,6,0,B|320:275|303:234|306:235|308:235|291:196|233:205,1,143.999995605469,2|0,3:2|0:0,0:0:0:0:
158,224,88327,2,0,L|168:293,1,47.9999985351563,10|0,2:0|0:0,0:0:0:0:
90,351,88470,2,0,L|76:255,1,95.9999970703126,2|0,2:0|3:2,0:0:0:0:
307,23,88756,2,0,L|320:118,1,95.9999970703126,2|8,3:2|2:0,0:0:0:0:
326,122,89042,6,0,L|153:89,1,143.999995605469,2|0,3:2|0:0,0:0:0:0:
220,23,89327,1,2,3:2:0:0:
32,120,89470,1,8,2:0:0:0:
49,45,89613,1,2,2:0:0:0:
250,140,89756,6,0,L|256:187,1,47.9999985351563,2|0,3:2|0:0,0:0:0:0:
96,210,89899,2,0,L|102:257,1,47.9999985351563,2|0,3:2|0:0,0:0:0:0:
248,362,90042,2,0,B|289:348|289:348|299:334|299:334|348:317,1,95.9999970703126,10|2,2:0|2:0,0:0:0:0:
445,268,90256,1,0,0:0:0:0:
453,283,90327,1,2,3:2:0:0:
459,296,90613,6,0,L|261:267,1,180.000006866455,10|0,2:0|0:0,0:0:0:0:
217,225,90899,5,2,3:2:0:0:
307,108,91042,1,2,3:2:0:0:
236,56,91185,1,8,2:0:0:0:
209,221,91327,6,0,P|221:170|190:137,1,95.9999970703126,2|0,2:0|3:2,0:0:0:0:
211,307,91613,1,2,2:0:0:0:
56,245,91756,2,0,P|94:280|138:270,1,95.9999970703126,10|2,2:0|2:0,0:0:0:0:
42,69,92042,5,2,3:2:0:0:
14,144,92185,1,2,3:2:0:0:
94,135,92327,1,10,2:0:0:0:
102,136,92470,1,2,3:2:0:0:
39,63,92613,5,4,3:2:0:0:
172,207,92756,1,0,3:2:0:0:
305,96,92899,1,8,2:0:0:0:
224,37,93042,5,0,3:2:0:0:
226,44,93113,1,0,3:2:0:0:
227,51,93185,1,0,3:2:0:0:
310,98,93327,1,0,3:2:0:0:
166,207,93470,6,0,P|217:242|208:297,1,95.9999970703126,8|0,2:0|3:2,0:0:0:0:
216,278,93685,1,0,3:2:0:0:
210,283,93756,1,0,3:2:0:0:
310,316,93899,1,0,3:2:0:0:
38,357,94042,6,0,B|96:355|69:323|137:322,1,95.9999970703126,8|0,2:0|3:2,0:0:0:0:
351,213,94327,5,0,3:2:0:0:
265,179,94470,1,0,3:2:0:0:
417,266,94613,5,8,2:0:0:0:
237,364,94756,1,0,3:2:0:0:
481,220,94899,5,6,2:0:0:0:
40,247,104042,6,0,P|81:185|150:203,1,128,6|2,3:2|2:0,0:0:0:0:
226,38,104470,1,2,3:2:0:0:
226,38,104613,2,0,B|240:121|198:83|213:177,1,128,10|2,2:0|3:2,0:0:0:0:
383,347,105042,2,0,B|385:308|374:321|377:279,1,64,2|2,3:2|2:0,0:0:0:0:
219,254,105327,6,0,L|302:237,1,64,10|2,2:0|2:0,0:0:0:0:
407,184,105613,1,2,3:2:0:0:
304,158,105756,2,0,L|417:180,1,96,10|0,2:0|0:0,0:0:0:0:
464,137,106042,2,0,L|454:72,1,64,2|0,3:2|3:2,0:0:0:0:
240,19,106327,6,0,P|222:75|260:108,1,96,2|0,3:2|0:0,0:0:0:0:
298,160,106613,2,0,L|308:225,1,64,2|2,3:2|3:2,0:0:0:0:
127,328,106899,5,10,2:0:0:0:
4,283,107042,1,0,0:0:0:0:
58,224,107185,1,2,3:2:0:0:
128,333,107327,2,0,P|77:341|48:355,1,64,2|0,3:2|3:2,0:0:0:0:
211,246,107613,2,0,P|160:238|131:224,1,64,10|2,2:0|2:0,0:0:0:0:
211,362,107899,1,2,3:2:0:0:
309,190,108042,6,0,P|293:253|285:330,1,128,8|0,2:0|3:2,0:0:0:0:
303,182,108470,1,2,3:2:0:0:
404,378,108613,6,0,P|467:353|455:268,1,160,2|2,3:2|3:2,0:0:0:0:
376,224,109042,1,2,3:2:0:0:
475,98,109185,2,0,P|470:149|431:168,1,80,8|0,2:0|0:0,0:0:0:0:
225,115,109470,5,2,3:2:0:0:
301,80,109613,1,0,3:2:0:0:
112,82,109756,2,0,P|59:72|25:47,1,80,2|8,3:2|2:0,0:0:0:0:
129,181,110042,2,0,P|84:211|42:217,1,80,2|0,2:0|3:2,0:0:0:0:
229,219,110327,2,0,P|215:291|180:338,1,120,10|0,2:0|0:0,0:0:0:0:
118,345,110613,5,2,3:2:0:0:
139,272,110756,1,0,3:2:0:0:
287,357,110899,5,10,2:0:0:0:
64,283,111042,1,10,2:0:0:0:
381,205,111327,5,8,2:0:0:0:
205,361,111470,1,8,2:0:0:0:
296,47,111756,5,8,2:0:0:0:
343,278,111899,1,8,2:0:0:0:
116,41,112185,5,8,2:0:0:0:
340,116,112327,1,8,2:0:0:0:
344,122,112613,6,0,L|346:132,2,7.99999975585938,2|2|2,2:0|2:0|2:0,0:0:0:0:
423,161,113185,5,6,3:2:0:0:
176,66,113327,1,2,2:0:0:0:
252,23,113470,1,8,2:0:0:0:
345,133,113613,5,2,2:0:0:0:
347,140,113685,1,0,0:0:0:0:
348,147,113756,1,2,3:2:0:0:
403,80,113899,1,2,2:0:0:0:
199,233,114042,6,0,L|90:213,1,88.000002685547,8|2,2:0|2:0,0:0:0:0:
271,197,114327,5,2,3:2:0:0:
91,295,114470,1,2,3:2:0:0:
164,338,114613,1,10,2:0:0:0:
36,88,114756,6,0,P|57:144|42:178,1,88.000002685547,2|0,2:0|3:2,0:0:0:0:
283,277,115042,2,0,P|262:221|277:187,1,88.000002685547,0|8,0:0|2:0,0:0:0:0:
17,309,115327,1,2,2:0:0:0:
113,49,115470,6,0,P|137:106|129:191,1,132.00000402832,2|0,3:2|0:0,0:0:0:0:
91,241,115756,2,0,P|139:258|184:231,1,88.000002685547,10|0,2:0|0:0,0:0:0:0:
36,88,116042,5,2,3:2:0:0:
230,47,116185,2,0,P|262:75|266:118,1,88.000002685547,2|8,2:0|2:0,0:0:0:0:
171,244,116470,5,2,2:0:0:0:
340,159,116613,1,0,3:2:0:0:
285,217,116756,1,2,3:2:0:0:
422,271,116899,1,10,2:0:0:0:
164,246,117042,6,0,P|170:298|171:339,1,88.000002685547,0|0,2:0|3:2,0:0:0:0:
338,150,117327,1,0,2:0:0:0:
416,186,117470,2,0,P|418:251|426:317,1,132.00000402832,8|0,2:0|0:0,0:0:0:0:
491,354,117756,5,6,3:2:0:0:
336,275,117899,1,2,2:0:0:0:
500,173,118042,1,10,2:0:0:0:
441,97,118185,5,2,2:0:0:0:
443,104,118256,1,0,0:0:0:0:
444,111,118327,1,2,3:2:0:0:
494,39,118470,1,2,2:0:0:0:
357,102,118613,2,0,P|311:100|254:91,1,88.000002685547,8|2,2:0|2:0,0:0:0:0:
191,89,118827,1,2,2:0:0:0:
177,85,118899,5,2,3:2:0:0:
341,187,119042,1,2,3:2:0:0:
186,266,119185,1,10,2:0:0:0:
261,173,119327,6,0,L|272:262,1,88.000002685547,2|0,2:0|3:2,0:0:0:0:
177,85,119613,1,0,0:0:0:0:
43,234,119756,2,0,P|119:253|161:346,1,180.000006866455,8|0,2:0|0:0,0:0:0:0:
235,368,120042,5,6,3:2:0:0:
311,242,120185,1,4,2:3:0:0:
427,335,120327,1,10,2:0:0:0:
349,309,120470,1,2,3:2:0:0:
395,237,120613,5,6,3:2:0:0:
327,130,120756,1,0,3:2:0:0:
477,132,120899,1,10,2:0:0:0:
385,236,121042,6,0,L|271:213,1,95.9999970703126,10|2,2:0|3:2,0:0:0:0:
167,129,121327,1,2,3:2:0:0:
312,31,121470,1,10,2:0:0:0:
268,94,121613,1,2,3:2:0:0:
193,7,121756,6,0,L|201:66,1,47.9999985351563,0|0,3:2|0:0,0:0:0:0:
424,94,121899,2,0,L|432:153,1,47.9999985351563,0|0,3:2|0:0,0:0:0:0:
217,257,122042,2,0,B|161:248|161:248|144:217|144:217|76:209,1,143.999995605469,10|0,2:0|0:0,0:0:0:0:
12,237,122327,6,0,B|47:251|47:251|155:207|155:207|185:148,1,191.999994140625,6|8,3:2|2:0,0:0:0:0:
193,7,122756,2,0,B|172:40|172:40|200:119,1,95.9999970703126,2|2,2:0|3:2,0:0:0:0:
322,179,123042,1,2,3:2:0:0:
426,135,123185,1,10,2:0:0:0:
494,258,123327,6,0,L|397:237,1,88.000002685547,2|0,2:0|3:2,0:0:0:0:
253,240,123613,1,0,3:2:0:0:
264,316,123756,1,8,2:0:0:0:
258,78,123899,5,2,3:2:0:0:
174,201,124042,1,2,2:0:0:0:
327,270,124185,1,2,3:2:0:0:
260,321,124327,1,8,2:0:0:0:
262,73,124470,6,0,L|362:90,1,88.000002685547,2|0,2:0|3:2,0:0:0:0:
493,115,124756,1,2,2:0:0:0:
442,24,124899,1,10,2:0:0:0:
295,172,125042,1,2,2:0:0:0:
177,28,125185,6,0,P|117:12|80:36,1,88.000002685547,2|0,3:2|3:2,0:0:0:0:
54,92,125470,1,10,2:0:0:0:
219,115,125613,6,0,P|161:171|166:273,1,176.000005371094,2|2,2:0|3:2,0:0:0:0:
391,171,126042,2,0,P|364:114|320:100,1,88.000002685547,10|0,2:0|3:2,0:0:0:0:
212,312,126327,5,0,0:0:0:0:
398,249,126470,1,0,3:2:0:0:
259,248,126613,5,10,2:0:0:0:
331,282,126756,1,0,0:0:0:0:
280,358,126899,6,0,L|307:192,1,132.00000402832,6|0,3:2|0:0,0:0:0:0:
314,153,127185,2,0,P|363:125|408:159,1,88.000002685547,10|2,2:0|2:0,0:0:0:0:
460,233,127470,1,0,3:2:0:0:
511,174,127613,1,0,3:2:0:0:
388,130,127756,6,0,L|224:163,1,132.00000402832,10|0,2:0|0:0,0:0:0:0:
181,138,128042,1,0,3:2:0:0:
246,44,128185,1,0,3:2:0:0:
34,30,128327,1,8,2:0:0:0:
73,107,128470,1,0,3:2:0:0:
141,34,128613,5,0,0:0:0:0:
8,169,128756,1,0,3:2:0:0:
193,136,128899,1,10,2:0:0:0:
31,323,129185,6,0,P|73:273|148:273,1,132.00000402832,2|0,3:2|0:0,0:0:0:0:
210,299,129470,2,0,P|258:305|294:276,1,88.000002685547,10|2,2:0|2:0,0:0:0:0:
111,344,129756,5,0,3:2:0:0:
116,351,129899,1,0,3:2:0:0:
251,197,130042,1,10,2:0:0:0:
393,272,130185,1,2,2:0:0:0:
158,241,130327,5,0,3:2:0:0:
288,283,130470,1,2,3:2:0:0:
240,189,130613,1,10,2:0:0:0:
332,118,130756,1,2,3:2:0:0:
164,141,130899,5,2,2:0:0:0:
351,197,131042,1,2,3:2:0:0:
297,37,131185,1,10,2:0:0:0:
217,64,131327,1,2,2:0:0:0:
340,116,131470,5,8,2:0:0:0:
116,41,131613,1,8,2:0:0:0:
343,278,131899,5,8,2:0:0:0:
296,47,132042,1,8,2:0:0:0:
205,361,132327,5,8,2:0:0:0:
381,205,132470,1,8,2:0:0:0:
64,283,132756,5,8,2:0:0:0:
287,357,132899,1,8,2:0:0:0:
61,121,133185,5,8,2:0:0:0:
109,351,133327,1,8,2:0:0:0:
109,351,133756,6,0,B|116:277|168:278|173:278|181:277|242:245|213:165,1,207.999990478516,6|8,3:2|2:0,0:0:0:0:
303,241,134185,1,0,0:0:0:0:
130,154,134327,6,0,P|165:131|178:106,1,51.999997619629,0|0,3:2|0:0,0:0:0:0:
307,229,134470,2,0,P|298:188|306:161,1,51.999997619629,0|0,3:2|0:0,0:0:0:0:
248,113,134613,1,10,2:0:0:0:
131,161,134756,6,0,L|350:125,1,207.999990478516,2|0,3:2|3:2,0:0:0:0:
435,14,135185,2,0,P|440:81|399:107,1,103.999995239258,8|0,2:0|0:0,0:0:0:0:
210,32,135470,5,0,3:2:0:0:
287,11,135613,1,0,3:2:0:0:
118,167,135756,2,0,B|75:152|29:137|29:137|44:104|52:66,1,155.999992858887,10|0,2:0|0:0,0:0:0:0:
136,87,136042,6,0,P|144:166|158:291,1,155.999992858887,2|0,3:2|0:0,0:0:0:0:
109,307,136327,1,10,2:0:0:0:
295,246,136470,1,2,2:0:0:0:
193,342,136613,5,0,3:2:0:0:
270,375,136756,1,0,3:2:0:0:
225,184,136899,1,10,2:0:0:0:
359,310,137042,6,0,B|411:294|411:294|413:290|413:290|478:272,1,103.999995239258,2|0,3:2|0:0,0:0:0:0:
295,246,137327,1,0,3:2:0:0:
434,373,137470,2,0,P|417:246|412:183,1,155.999992858887,8|0,2:0|0:0,0:0:0:0:
453,150,137756,6,0,L|518:160,1,51.999997619629,0|0,3:2|0:0,0:0:0:0:
291,29,137899,2,0,L|356:39,1,51.999997619629,0|0,3:2|0:0,0:0:0:0:
421,14,138042,1,10,2:0:0:0:
320,129,138185,5,0,0:0:0:0:
313,133,138256,1,0,0:0:0:0:
306,137,138327,2,0,P|217:115|201:57,1,155.999992858887,2|0,3:2|0:0,0:0:0:0:
290,20,138613,2,0,L|355:30,1,51.999997619629,10|0,2:0|0:0,0:0:0:0:
105,115,138756,2,0,L|95:180,1,51.999997619629,2|0,2:0|0:0,0:0:0:0:
80,32,138899,1,2,3:2:0:0:
208,247,139042,6,0,L|223:144,1,103.999995239258,2|10,3:2|2:0,0:0:0:0:
25,353,139327,2,0,P|72:301|163:318,1,155.999992858887,2|0,3:2|0:0,0:0:0:0:
228,321,139613,1,0,3:2:0:0:
322,253,139756,5,8,2:0:0:0:
167,382,139899,1,0,0:0:0:0:
338,353,140042,5,0,3:2:0:0:
236,324,140185,1,0,3:2:0:0:
465,349,140327,6,0,B|461:294|429:313|426:250,1,103.999995239258,10|0,2:0|0:0,0:0:0:0:
222,53,140613,5,6,3:2:0:0:
270,128,140756,1,0,3:2:0:0:
352,103,140899,1,10,2:0:0:0:
215,46,141042,5,2,3:2:0:0:
191,43,141113,1,0,3:2:0:0:
169,56,141185,1,2,3:2:0:0:
328,185,141327,1,2,3:2:0:0:
404,34,141470,1,8,2:0:0:0:
192,127,141613,5,2,3:2:0:0:
171,166,141685,1,0,3:2:0:0:
188,207,141756,1,0,3:2:0:0:
412,233,141899,1,0,3:2:0:0:
281,90,142042,5,10,2:0:0:0:
181,216,142185,1,0,3:2:0:0:
355,111,142327,5,2,3:2:0:0:
205,33,142470,1,0,3:2:0:0:
425,73,142613,5,10,2:0:0:0:
194,124,142756,1,0,0:0:0:0:
380,203,142899,6,0,B|311:208|283:169|286:168|291:168|262:117|164:139,1,207.999990478516,6|8,3:2|2:0,0:0:0:0:
192,134,143470,5,0,3:2:0:0:
95,147,143613,1,0,3:2:0:0:
52,62,143756,1,2,2:0:0:0:
201,136,143899,6,0,B|217:168|217:168|189:245,1,103.999995239258,10|0,2:0|0:0,0:0:0:0:
57,292,144185,1,2,3:2:0:0:
136,290,144327,1,10,2:0:0:0:
281,384,144470,6,0,B|265:352|265:352|293:275,1,103.999995239258,2|0,2:0|3:2,0:0:0:0:
380,220,144756,1,2,3:2:0:0:
308,187,144899,1,10,2:0:0:0:
490,195,145042,6,0,B|506:227|506:227|478:304,1,103.999995239258,2|0,2:0|3:2,0:0:0:0:
292,133,145327,2,0,L|303:199,1,51.999997619629,2|0,2:0|0:0,0:0:0:0:
445,67,145470,2,0,L|456:133,1,51.999997619629,10|0,2:0|0:0,0:0:0:0:
283,17,145613,6,0,L|155:33,1,103.999995239258,2|0,2:0|3:2,0:0:0:0:
361,56,145899,1,0,3:2:0:0:
132,113,146042,6,0,L|291:93,1,155.999992858887,2|0,2:0|0:0,0:0:0:0:
361,56,146327,2,0,B|425:68|395:86|468:103,1,103.999995239258,2|0,2:0|3:2,0:0:0:0:
129,208,146613,2,0,B|65:220|95:238|22:255,1,103.999995239258,10|0,2:0|0:0,0:0:0:0:
355,322,146899,5,2,3:2:0:0:
444,284,147042,1,0,3:2:0:0:
280,270,147185,1,8,2:0:0:0:
468,362,147327,5,0,0:0:0:0:
474,363,147399,1,0,0:0:0:0:
481,364,147470,1,2,3:2:0:0:
341,225,147613,1,2,2:0:0:0:
195,350,147756,1,10,2:0:0:0:
135,300,147899,5,2,2:0:0:0:
267,370,148042,1,2,3:2:0:0:
127,296,148185,1,2,3:2:0:0:
266,192,148327,5,2,2:0:0:0:
185,213,148470,1,10,2:0:0:0:
111,70,148613,2,0,L|100:137,1,51.999997619629,2|0,2:0|0:0,0:0:0:0:
224,34,148756,6,0,L|204:155,1,103.999995239258,2|8,3:2|2:0,0:0:0:0:
324,338,149042,2,0,P|367:276|459:288,1,155.999992858887,2|0,2:0|0:0,0:0:0:0:
509,236,149327,5,2,3:2:0:0:
347,171,149470,1,10,2:0:0:0:
411,119,149613,1,2,2:0:0:0:
237,228,149756,5,0,3:2:0:0:
97,172,149899,2,0,P|93:106|143:93,1,103.999995239258,0|8,0:0|2:0,0:0:0:0:
199,82,150185,1,0,0:0:0:0:
149,233,150327,6,0,P|107:252|82:238,1,51.999997619629,0|0,3:2|0:0,0:0:0:0:
202,73,150470,2,0,P|267:80|271:132,1,103.999995239258,0|0,3:2|0:0,0:0:0:0:
277,108,150756,6,0,B|271:146|246:164|246:164|273:285,1,155.999992858887,8|0,2:0|0:0,0:0:0:0:
331,293,151042,1,0,3:2:0:0:
128,357,151185,1,8,2:0:0:0:
341,289,151327,5,2,2:0:0:0:
189,267,151470,1,2,3:2:0:0:
231,338,151613,1,2,3:2:0:0:
335,212,151756,5,10,2:0:0:0:
121,152,151899,1,2,2:0:0:0:
342,65,152042,5,6,3:2:0:0:
351,69,152185,1,2,2:0:0:0:
225,15,152327,2,0,P|210:81|251:115,1,103.999995239258,10|0,2:0|0:0,0:0:0:0:
395,274,152613,1,2,3:2:0:0:
437,119,152756,6,0,P|446:183|462:237,1,103.999995239258,2|8,3:2|2:0,0:0:0:0:
248,359,153042,2,0,P|239:295|223:241,1,103.999995239258,2|0,3:2|0:0,0:0:0:0:
364,50,153327,2,0,P|355:114|339:168,1,103.999995239258,2|8,3:2|2:0,0:0:0:0:
143,125,153613,2,0,P|148:83|159:48,1,51.999997619629,2|0,2:0|0:0,0:0:0:0:
214,19,153756,5,0,3:2:0:0:
48,105,153899,1,2,3:2:0:0:
224,96,154042,5,10,2:0:0:0:
128,6,154185,1,2,2:0:0:0:
231,103,154327,6,0,L|203:265,1,155.999992858887,2|0,3:2|0:0,0:0:0:0:
247,323,154613,2,0,P|330:297|334:277,1,103.999995239258,10|0,2:0|0:0,0:0:0:0:
89,217,154899,5,2,3:2:0:0:
239,105,155042,2,0,L|219:220,1,103.999995239258,2|8,3:2|2:0,0:0:0:0:
35,362,155327,6,0,P|90:314|183:346,1,155.999992858887,2|0,3:2|0:0,0:0:0:0:
247,323,155613,2,0,P|330:297|334:277,1,103.999995239258,2|8,3:2|2:0,0:0:0:0:
444,239,155899,1,2,2:0:0:0:
333,204,156042,5,0,3:2:0:0:
473,318,156185,1,2,3:2:0:0:
262,241,156327,5,10,2:0:0:0:
409,149,156470,1,2,2:0:0:0:
246,54,156613,6,0,L|227:166,1,103.999995239258,2|0,3:2|0:0,0:0:0:0:
62,61,156899,2,0,L|43:173,1,103.999995239258,10|0,2:0|0:0,0:0:0:0:
262,241,157185,1,2,3:2:0:0:
38,246,157327,2,0,B|112:238|67:219|153:216,1,103.999995239258,0|8,3:2|2:0,0:0:0:0:
268,244,157613,1,2,3:2:0:0:
206,184,157756,5,2,2:0:0:0:
350,228,157899,1,2,3:2:0:0:
217,310,158042,1,10,2:0:0:0:
300,345,158185,1,2,2:0:0:0:
200,181,158327,5,2,3:2:0:0:
321,134,158470,1,0,3:2:0:0:
456,190,158613,1,8,2:0:0:0:
271,233,158756,5,2,2:0:0:0:
272,226,158827,1,0,0:0:0:0:
274,219,158899,1,2,3:2:0:0:
202,92,159042,1,2,2:0:0:0:
94,211,159185,1,10,2:0:0:0:
191,184,159327,1,2,2:0:0:0:
75,122,159470,6,0,L|143:133,1,51.999997619629,2|0,3:2|0:0,0:0:0:0:
272,42,159613,2,0,L|340:53,1,51.999997619629,2|0,3:2|0:0,0:0:0:0:
165,22,159756,1,10,2:0:0:0:
115,301,159899,6,0,P|99:218|74:190,1,103.999995239258,10|0,2:0|0:0,0:0:0:0:
250,294,160185,2,0,P|277:214|269:177,1,103.999995239258,10|0,2:0|0:0,0:0:0:0:
374,371,160470,2,0,P|437:315|447:233,1,155.999992858887,10|0,2:0|0:0,0:0:0:0:
387,146,160756,6,0,P|390:181|403:199,1,51.999997619629,10|0,2:0|0:0,0:0:0:0:
64,59,179470,6,0,P|128:46|190:147,1,180.000006866455,2|0,3:2|3:2,0:0:0:0:
235,251,180042,2,0,L|245:180,1,60.0000022888184,8|0,2:0|0:0,0:0:0:0:
240,258,180327,1,2,3:2:0:0:
415,132,180470,6,0,P|364:124|321:184,2,120.000004577637,2|8|0,3:2|2:0|3:2,0:0:0:0:
491,173,181185,2,0,P|507:135|526:107,1,60.0000022888184,8|0,2:0|0:0,0:0:0:0:
465,39,181470,2,0,P|427:23|399:4,1,60.0000022888184,2|0,3:2|3:2,0:0:0:0:
287,58,181756,6,0,P|301:82|320:199,1,120.000004577637,2|2,3:2|2:0,0:0:0:0:
177,215,182185,1,2,3:2:0:0:
177,215,182327,2,0,P|163:191|144:74,1,120.000004577637,8|2,2:0|3:2,0:0:0:0:
324,173,182756,6,0,P|312:217|307:245,1,60.0000022888184,2|0,3:2|0:0,0:0:0:0:
113,218,183042,2,0,P|135:135|144:82,1,120.000004577637,8|0,2:0|3:2,0:0:0:0:
297,36,183470,6,0,L|366:51,1,60.0000022888184,8|0,2:0|0:0,0:0:0:0:
470,56,183756,2,0,P|493:25|486:-6,1,60.0000022888184,2|0,3:2|3:2,0:0:0:0:
290,38,184042,6,0,P|350:86|328:181,1,180.000006866455,2|2,3:2|3:2,0:0:0:0:
185,294,184613,2,0,P|183:244|202:229,1,60.0000022888184,8|2,2:0|2:0,0:0:0:0:
256,192,184899,1,0,3:2:0:0:
367,266,185042,6,0,B|329:267|313:302|315:302|320:302|299:334|261:330,2,120.000004577637,2|8|0,3:2|2:0|3:2,0:0:0:0:
459,346,185756,2,0,P|468:303|475:286,1,60.0000022888184,8|0,2:0|0:0,0:0:0:0:
271,134,186042,2,0,P|262:177|255:194,1,60.0000022888184,2|0,3:2|3:2,0:0:0:0:
486,210,186327,5,2,3:2:0:0:
479,205,186613,5,2,2:0:0:0:
417,155,186756,1,2,3:2:0:0:
355,205,186899,1,10,2:0:0:0:
251,284,187042,2,0,P|256:326|257:354,1,60.0000022888184,2|0,2:0|3:2,0:0:0:0:
37,303,187327,2,0,P|27:223|25:170,1,120.000004577637,2|8,3:2|2:0,0:0:0:0:
157,100,187756,5,2,2:0:0:0:
90,73,187899,1,0,3:2:0:0:
258,15,188042,5,10,2:0:0:0:
188,29,188185,1,0,0:0:0:0:
296,157,188327,6,0,L|367:140,1,60.0000022888184,2|0,3:2|3:2,0:0:0:0:
481,28,188613,6,0,P|464:83|439:223,1,180.000006866455,2|0,3:2|3:2,0:0:0:0:
312,214,189185,2,0,P|299:164|285:137,1,60.0000022888184,8|0,2:0|0:0,0:0:0:0:
383,264,189470,1,2,3:2:0:0:
289,151,189613,6,0,L|217:164,1,60.0000022888184,2|0,3:2|0:0,0:0:0:0:
76,62,189899,2,0,L|220:36,1,120.000004577637,8|0,2:0|3:2,0:0:0:0:
366,117,190327,6,0,P|378:72|366:51,1,60.0000022888184,8|0,2:0|0:0,0:0:0:0:
229,161,190613,2,0,P|223:190|236:216,1,60.0000022888184,2|0,3:2|3:2,0:0:0:0:
469,300,190899,6,0,P|445:259|320:251,1,180.000006866455,2|2,3:2|3:2,0:0:0:0:
201,309,191470,2,0,L|213:380,1,60.0000022888184,8|0,2:0|0:0,0:0:0:0:
146,248,191756,1,2,3:2:0:0:
320,328,191899,6,0,L|185:307,2,120.000004577637,2|8|0,3:2|2:0|3:2,0:0:0:0:
412,193,192613,2,0,L|421:262,1,60.0000022888184,8|0,2:0|0:0,0:0:0:0:
335,147,192899,5,2,3:2:0:0:
279,96,193042,1,2,3:2:0:0:
319,38,193185,1,2,3:2:0:0:
406,34,193470,5,2,2:0:0:0:
409,44,193613,1,2,3:2:0:0:
482,70,193899,5,2,2:0:0:0:
315,47,194042,1,2,3:2:0:0:
148,24,194185,1,2,3:2:0:0:
139,21,194613,6,0,P|166:82|182:194,1,155.999992858887,2|0,2:0|0:0,0:0:0:0:
330,169,194899,2,0,P|342:92|373:21,1,155.999992858887,2|0,2:0|0:0,0:0:0:0:
237,16,195185,6,0,P|256:59|257:8,1,120,2|0,2:0|0:0,0:0:0:0:
66,136,195470,6,0,B|131:122|171:162|167:162|164:162|189:209|262:195,1,207.999990478516,6|8,3:2|2:0,0:0:0:0:
413,274,195899,1,0,0:0:0:0:
316,323,196042,6,0,P|328:287|331:263,1,51.999997619629,0|0,3:2|0:0,0:0:0:0:
474,330,196185,2,0,P|462:366|459:390,1,51.999997619629,0|0,3:2|0:0,0:0:0:0:
416,267,196327,1,2,2:0:0:0:
477,110,196470,6,0,P|416:130|405:177,1,103.999995239258,10|0,2:0|0:0,0:0:0:0:
311,325,196756,1,0,3:2:0:0:
188,281,196899,5,8,2:0:0:0:
333,239,197042,1,0,0:0:0:0:
154,203,197185,5,0,3:2:0:0:
262,261,197327,1,0,3:2:0:0:
151,353,197470,1,10,2:0:0:0:
144,358,197756,6,0,P|128:270|114:200,1,155.999992858887,2|0,3:2|0:0,0:0:0:0:
41,183,198042,1,10,2:0:0:0:
206,27,198185,2,0,P|217:91|227:142,1,103.999995239258,2|0,2:0|3:2,0:0:0:0:
389,114,198470,1,0,3:2:0:0:
410,30,198613,1,2,2:0:0:0:
294,91,198756,6,0,B|358:91|335:129|404:121,1,103.999995239258,10|0,2:0|0:0,0:0:0:0:
496,125,199042,1,0,3:2:0:0:
281,230,199185,5,8,2:0:0:0:
432,189,199327,1,0,0:0:0:0:
470,321,199470,5,0,3:2:0:0:
350,187,199613,1,0,3:2:0:0:
227,305,199756,1,10,2:0:0:0:
117,138,199899,5,0,0:0:0:0:
110,139,199970,1,0,0:0:0:0:
103,141,200042,2,0,P|91:199|171:246,1,155.999992858887,2|0,3:2|0:0,0:0:0:0:
231,220,200327,1,10,2:0:0:0:
205,135,200470,1,2,2:0:0:0:
345,26,200613,5,2,3:2:0:0:
306,150,200756,1,2,3:2:0:0:
347,18,200899,1,2,2:0:0:0:
110,31,201042,6,0,L|280:48,1,155.999992858887,10|0,2:0|0:0,0:0:0:0:
347,18,201327,1,2,3:2:0:0:
386,182,201470,5,10,2:0:0:0:
220,128,201613,1,2,2:0:0:0:
321,247,201756,5,2,3:2:0:0:
395,95,201899,2,0,P|451:89|503:87,1,103.999995239258,2|8,3:2|2:0,0:0:0:0:
388,91,202185,1,2,2:0:0:0:
483,185,202327,5,2,3:2:0:0:
302,98,202470,1,0,0:0:0:0:
475,183,202613,1,10,2:0:0:0:
253,284,202756,5,2,2:0:0:0:
387,180,202899,1,2,3:2:0:0:
462,268,203042,1,2,3:2:0:0:
294,183,203185,5,2,2:0:0:0:
376,355,203327,2,0,B|296:364|276:324|278:323|283:322|253:284|160:303,1,207.999990478516,10|2,2:0|3:2,0:0:0:0:
301,179,203756,1,10,2:0:0:0:
357,241,203899,1,2,2:0:0:0:
102,311,204042,5,0,3:2:0:0:
217,188,204185,1,0,3:2:0:0:
82,114,204327,1,8,2:0:0:0:
418,17,204613,6,0,P|393:88|376:173,1,155.999992858887,6|0,3:2|0:0,0:0:0:0:
461,206,204899,2,0,P|469:158|430:114,1,103.999995239258,8|0,2:0|0:0,0:0:0:0:
182,65,205185,1,0,3:2:0:0:
305,98,205327,1,0,3:2:0:0:
346,40,205470,1,10,2:0:0:0:
172,62,205613,6,0,P|188:118|200:193,1,103.999995239258,2|0,3:2|0:0,0:0:0:0:
398,285,205899,1,0,3:2:0:0:
488,257,206042,2,0,P|458:203|361:193,1,155.999992858887,8|0,2:0|0:0,0:0:0:0:
306,233,206327,5,0,3:2:0:0:
152,332,206470,1,0,3:2:0:0:
273,318,206613,5,10,2:0:0:0:
208,271,206756,1,0,0:0:0:0:
347,377,206899,6,0,P|368:321|402:290,1,103.999995239258,6|0,3:2|0:0,0:0:0:0:
206,260,207185,2,0,P|206:200|227:159,1,103.999995239258,10|0,2:0|2:0,0:0:0:0:
44,334,207470,2,0,P|24:277|30:232,1,103.999995239258,2|0,3:2|3:2,0:0:0:0:
109,170,207756,1,10,2:0:0:0:
15,50,207899,6,0,L|197:67,1,155.999992858887,2|0,3:2|0:0,0:0:0:0:
234,23,208185,1,0,3:2:0:0:
362,177,208327,2,0,B|363:118|396:139|398:73,1,103.999995239258,8|2,2:0|2:0,0:0:0:0:
322,25,208542,1,0,0:0:0:0:
313,21,208613,6,0,L|322:89,1,51.999997619629,0|0,3:2|0:0,0:0:0:0:
498,129,208756,2,0,L|507:197,1,51.999997619629,2|0,3:2|0:0,0:0:0:0:
354,268,208899,2,0,B|293:254|293:254|278:223|278:223|207:208,1,155.999992858887,10|0,2:0|0:0,0:0:0:0:
149,260,209185,6,0,P|148:318|251:333,1,155.999992858887,6|0,3:2|0:0,0:0:0:0:
303,374,209470,1,10,2:0:0:0:
264,275,209613,1,2,2:0:0:0:
433,195,209756,5,2,3:2:0:0:
388,320,209899,1,2,3:2:0:0:
266,269,210042,1,10,2:0:0:0:
351,239,210185,1,2,3:2:0:0:
207,156,210327,5,2,2:0:0:0:
292,117,210470,1,2,3:2:0:0:
123,20,210613,2,0,P|112:78|162:105,1,103.999995239258,10|2,2:0|2:0,0:0:0:0:
390,150,210899,2,0,B|324:146|365:113|273:111,1,103.999995239258,2|0,3:2|3:2,0:0:0:0:
13,274,211185,6,0,B|70:280|85:239|88:239|91:239|109:204|176:222,1,155.999992858887,10|0,2:0|0:0,0:0:0:0:
207,156,211470,1,6,3:2:0:0:
350,340,211756,5,10,2:0:0:0:
427,364,211899,1,2,3:2:0:0:
434,362,211970,1,0,3:2:0:0:
441,361,212042,1,2,3:2:0:0:
281,280,212185,5,2,3:2:0:0:
404,218,212327,1,8,2:0:0:0:
271,286,212470,5,2,3:2:0:0:
273,293,212542,1,0,3:2:0:0:
274,300,212613,1,2,3:2:0:0:
197,236,212756,1,0,3:2:0:0:
324,212,212899,5,10,2:0:0:0:
144,305,213042,1,0,3:2:0:0:
330,207,213185,5,2,3:2:0:0:
124,147,213327,1,0,3:2:0:0:
251,50,213470,5,10,2:0:0:0:
253,57,213542,1,0,3:0:0:0:
255,64,213613,1,0,3:2:0:0:
257,71,213685,1,0,3:0:0:0:
258,78,213756,2,0,L|433:102,1,155.999992858887,4|2,3:2|2:0,0:0:0:0:
474,140,214042,1,10,2:0:0:0:
434,9,214185,1,2,2:0:0:0:
333,127,214327,5,2,3:2:0:0:
417,94,214470,1,2,3:2:0:0:
326,130,214613,1,2,2:0:0:0:
196,27,214756,5,10,2:0:0:0:
149,155,214899,2,0,P|122:103|74:94,1,95.9999970703126,2|2,2:0|3:2,0:0:0:0:
202,26,215185,1,10,2:0:0:0:
18,128,215327,1,2,2:0:0:0:
155,155,215470,6,0,L|163:218,1,47.9999985351563,0|0,3:2|0:0,0:0:0:0:
17,221,215613,2,0,L|25:284,1,47.9999985351563,2|0,3:2|0:0,0:0:0:0:
209,265,215756,1,10,2:0:0:0:
13,356,215899,5,2,2:0:0:0:
12,363,215970,1,0,0:0:0:0:
11,370,216042,2,0,B|69:353|69:353|85:337|85:337|152:317,1,143.999995605469,2|2,3:2|2:0,0:0:0:0:
209,265,216327,2,0,P|232:315|213:362,1,95.9999970703126,10|2,2:0|2:0,0:0:0:0:
91,221,216613,5,2,3:2:0:0:
236,160,216756,1,2,3:2:0:0:
150,122,216899,1,2,2:0:0:0:
342,40,217042,6,0,P|321:98|313:152,1,95.9999970703126,10|2,2:0|2:0,0:0:0:0:
142,120,217327,1,2,3:2:0:0:
435,175,217470,2,0,B|387:159|362:191|365:191|369:191|345:231|280:203,1,143.999995605469,10|0,2:0|0:0,0:0:0:0:
233,154,217756,6,0,L|226:93,1,47.9999985351563,0|0,3:2|0:0,0:0:0:0:
81,232,217899,2,0,L|74:171,1,47.9999985351563,2|0,3:2|0:0,0:0:0:0:
225,293,218042,1,10,2:0:0:0:
177,230,218185,1,2,2:0:0:0:
17,298,218327,5,2,3:2:0:0:
168,355,218470,1,2,2:0:0:0:
225,293,218613,5,10,2:0:0:0:
255,368,218756,1,2,2:0:0:0:
357,228,218899,5,2,3:2:0:0:
309,305,219042,1,2,3:2:0:0:
464,362,219185,1,2,2:0:0:0:
388,308,219327,5,10,2:0:0:0:
390,315,219399,1,0,0:0:0:0:
391,322,219470,1,2,2:0:0:0:
496,239,219613,1,2,3:2:0:0:
373,145,219756,1,10,2:0:0:0:
507,91,219899,6,0,B|443:88|479:69|400:67,1,95.9999970703126,2|0,2:0|3:2,0:0:0:0:
192,72,220185,1,0,3:2:0:0:
327,73,220327,2,0,L|151:87,1,143.999995605469,10|0,2:0|0:0,0:0:0:0:
103,96,220613,6,0,L|92:-4,1,95.9999970703126,2|2,3:2|2:0,0:0:0:0:
404,252,220899,2,0,L|393:152,1,95.9999970703126,10|2,2:0|2:0,0:0:0:0:
94,323,221185,6,0,P|80:276|90:259,1,47.9999985351563,2|0,3:2|0:0,0:0:0:0:
149,218,221327,2,0,P|196:229|206:246,1,47.9999985351563,2|2,3:2|2:0,0:0:0:0:
189,315,221470,1,2,2:0:0:0:
75,280,221613,6,0,L|288:244,1,191.999994140625,10|2,2:0|3:2,0:0:0:0:
441,166,222042,1,10,2:0:0:0:
364,137,222185,1,2,2:0:0:0:
506,123,222327,5,2,3:2:0:0:
338,215,222470,1,0,3:2:0:0:
499,328,222613,1,10,2:0:0:0:
463,252,222756,1,0,0:0:0:0:
296,348,222899,6,0,P|243:334|202:327,1,95.9999970703126,4|2,3:2|2:0,0:0:0:0:
301,119,223185,2,0,P|354:133|395:140,1,95.9999970703126,10|2,2:0|2:0,0:0:0:0:
131,257,223470,6,0,P|145:226|170:218,1,47.9999985351563,2|0,3:2|0:0,0:0:0:0:
229,193,223613,2,0,P|202:148|138:160,1,95.9999970703126,2|2,3:2|2:0,0:0:0:0:
0,65,223899,6,0,P|5:127|80:146,1,143.999995605469,10|0,2:0|0:0,0:0:0:0:
116,85,224185,1,2,3:2:0:0:
212,269,224327,1,10,2:0:0:0:
149,225,224470,1,2,2:0:0:0:
49,258,224613,5,0,3:2:0:0:
275,219,224756,1,2,3:2:0:0:
57,255,224899,1,10,2:0:0:0:
216,276,225042,5,2,2:0:0:0:
218,283,225113,1,0,0:0:0:0:
219,290,225185,1,4,3:2:0:0:
186,361,225327,1,2,2:0:0:0:
279,209,225470,5,10,2:0:0:0:
303,287,225613,1,2,2:0:0:0:
146,91,225756,5,2,3:2:0:0:
105,227,225899,1,2,3:2:0:0:
276,63,226042,1,2,2:0:0:0:
375,215,226185,6,0,B|431:214|408:237|487:238,1,95.9999970703126,10|2,2:0|2:0,0:0:0:0:
326,149,226470,1,2,3:2:0:0:
467,237,226613,2,0,B|378:242|428:263|316:275,1,143.999995605469,10|0,2:0|0:0,0:0:0:0:
252,260,226899,6,0,L|258:202,1,47.9999985351563,0|0,3:2|0:0,0:0:0:0:
395,357,227042,2,0,L|401:299,1,47.9999985351563,2|0,3:2|0:0,0:0:0:0:
167,347,227185,2,0,L|179:231,1,95.9999970703126,10|2,2:0|2:0,0:0:0:0:
118,192,227399,1,0,0:0:0:0:
104,180,227470,1,4,3:2:0:0:
90,168,227756,6,0,L|252:138,1,143.999995605469,10|0,2:0|0:0,0:0:0:0:
300,106,228042,1,2,3:2:0:0:
458,170,228185,2,0,B|464:119|491:144|502:71,1,95.9999970703126,2|2,3:2|2:0,0:0:0:0:
283,30,228470,6,0,P|338:73|419:52,1,143.999995605469,10|0,2:0|0:0,0:0:0:0:
449,0,228756,1,2,3:2:0:0:
277,36,228899,6,0,P|269:101|324:133,1,95.9999970703126,10|2,2:0|2:0,0:0:0:0:
353,169,229113,1,0,0:0:0:0:
369,174,229185,1,0,3:2:0:0:
192,205,229327,1,2,3:2:0:0:
343,258,229470,1,10,2:0:0:0:
235,297,229613,1,2,2:0:0:0:
287,357,229756,5,10,2:0:0:0:
64,283,229899,1,10,2:0:0:0:
109,351,230185,5,10,2:0:0:0:
61,121,230327,1,10,2:0:0:0:
25,193,230613,5,10,2:0:0:0:
200,37,230756,1,10,2:0:0:0:
119,41,231042,5,10,2:0:0:0:
342,114,231185,1,10,2:0:0:0:
297,46,231470,5,10,2:0:0:0:
345,276,231613,1,10,2:0:0:0:
345,285,232042,5,2,2:0:0:0:
