osu file format v14

[General]
AudioFilename: audio.mp3
AudioLeadIn: 0
PreviewTime: 51340
Countdown: 0
SampleSet: Soft
StackLeniency: 0.3
Mode: 0
LetterboxInBreaks: 0
WidescreenStoryboard: 0

[Editor]
DistanceSpacing: 1.1
BeatDivisor: 4
GridSize: 4
TimelineZoom: 1.6

[Metadata]
Title:Nihil
TitleUnicode:ニヒル
Artist:KAF
ArtistUnicode:花譜
Creator:Nelliel
Version:Null
Source:モナーク/Monark
Tags:KAMITSUBAKI Monark Collaboration Album studio thinkr 神椿スタジオ vtuber vtb virtual youtuber vsinger singer カンザキイオリ kanzaki iori theme song movie ver version short japanese jrock rock -_ex_- -ex- hantrik yumerios leominexd
BeatmapID:3300573
BeatmapSetID:1616499

[Difficulty]
HPDrainRate:5.4
CircleSize:4.2
OverallDifficulty:9
ApproachRate:9.3
SliderMultiplier:1.8
SliderTickRate:1

[Events]
//Background and Video events
0,0,"bg.jpg",0,0
//Break Periods
//Storyboard Layer 0 (Background)
//Storyboard Layer 1 (Fail)
//Storyboard Layer 2 (Pass)
//Storyboard Layer 3 (Foreground)
//Storyboard Layer 4 (Overlay)
//Storyboard Sound Samples

[TimingPoints]
3406,306.122448979592,4,2,1,55,1,0
3406,-133.333333333333,4,2,1,55,0,0
8253,-133.333333333333,4,2,1,55,0,0
8303,-133.333333333333,4,2,1,60,0,0
12539,-133.333333333333,4,2,1,60,0,0
12589,-133.333333333333,4,2,1,75,0,0
12998,-133.333333333333,4,2,1,75,0,0
13048,-100,4,2,1,80,0,0
22947,-100,4,2,1,80,0,0
22997,-133.333333333333,4,2,1,70,0,0
32743,-133.333333333333,4,2,1,70,0,0
32793,-111.111111111111,4,2,1,75,0,0
42539,-111.111111111111,4,2,1,75,0,0
42589,-133.333333333333,4,2,1,65,0,0
49886,-133.333333333333,4,2,1,65,0,0
49936,-133.333333333333,4,2,1,70,0,0
51111,-133.333333333333,4,2,1,70,0,0
51161,-100,4,2,1,43,0,0
51264,-100,4,2,1,43,0,0
51314,-100,4,2,1,48,0,0
51417,-100,4,2,1,48,0,0
51467,-100,4,2,1,53,0,0
51570,-100,4,2,1,53,0,0
51620,-100,4,2,1,58,0,0
51723,-100,4,2,1,58,0,0
51773,-100,4,2,1,63,0,0
51876,-100,4,2,1,63,0,0
51926,-100,4,2,1,68,0,0
52029,-100,4,2,1,68,0,0
52079,-100,4,2,1,73,0,0
52182,-100,4,2,1,73,0,0
52232,-100,4,2,1,78,0,0
52335,-100,4,2,1,78,0,0
52385,-83.3333333333333,4,2,1,85,0,1
62181,-83.3333333333333,4,2,1,85,0,1
71927,-83.3333333333333,4,2,1,85,0,1
71977,-90.9090909090909,4,2,1,80,0,0
81773,-90.9090909090909,4,2,1,80,0,0
90907,-90.9090909090909,4,2,1,80,0,0
90957,-90.9090909090909,4,2,1,75,0,0
91569,-90.9090909090909,4,2,1,75,0,0

[Colours]
Combo1 : 255,128,128
Combo2 : 12,132,231
Combo3 : 255,98,70
Combo4 : 0,85,170

[HitObjects]
256,192,9528,12,2,12436,2:2:0:0:
98,221,12589,5,8,2:2:0:0:
396,143,12742,1,8,2:2:0:0:
396,143,13048,6,0,B|420:188|410:239|376:222|375:283|404:316,1,180,4|0,1:2|1:1,0:0:0:0:
402,313,13431,1,2,2:2:0:0:
402,313,13508,1,10,2:2:0:0:
499,181,13661,1,2,2:2:0:0:
301,120,13814,1,0,1:1:0:0:
505,215,13967,1,2,1:2:0:0:
385,36,14120,1,2,2:2:0:0:
279,222,14273,1,10,2:2:0:0:
483,90,14426,6,0,L|470:-13,1,90,2|0,2:2|1:1,0:0:0:0:
357,187,14732,1,10,2:2:0:0:
282,89,14885,2,0,L|295:-14,1,90,2|0,2:2|1:1,0:0:0:0:
142,181,15191,1,2,1:2:0:0:
351,97,15344,1,10,2:2:0:0:
146,36,15497,1,2,2:2:0:0:
345,134,15650,5,0,1:1:0:0:
192,291,15803,1,2,2:2:0:0:
192,291,15880,1,2,2:2:0:0:
192,291,15957,1,8,2:2:0:0:
249,122,16110,1,2,2:2:0:0:
325,297,16263,2,0,P|375:287|432:281,1,90,2|2,1:2|1:2,0:0:0:0:
196,376,16569,1,0,0:0:0:0:
291,189,16722,1,10,2:2:0:0:
394,373,16875,5,2,2:2:0:0:
207,278,17028,1,2,1:2:0:0:
374,153,17181,1,8,2:2:0:0:
237,361,17334,2,0,P|187:351|130:345,1,90,2|0,2:2|1:1,0:0:0:0:
61,134,17640,1,2,1:2:0:0:
216,266,17793,1,10,2:2:0:0:
275,31,17946,1,2,2:2:0:0:
94,211,18099,5,4,1:2:0:0:
292,154,18252,1,2,2:2:0:0:
292,154,18329,1,2,2:2:0:0:
292,154,18406,1,10,2:2:0:0:
133,86,18559,1,2,2:2:0:0:
306,260,18712,2,0,P|311:215|320:171,1,90,2|2,1:2|1:2,0:0:0:0:
201,288,19018,1,0,0:0:0:0:
392,228,19171,1,10,2:2:0:0:
210,104,19324,6,0,P|219:148|224:192,1,90,4|2,1:2|1:2,0:0:0:0:
318,18,19630,1,10,2:2:0:0:
138,167,19783,2,0,P|128:211|123:255,1,90,2|0,2:2|1:1,0:0:0:0:
14,87,20089,1,10,2:2:0:0:
14,87,20166,1,8,2:2:0:0:
14,87,20242,1,10,2:2:0:0:
221,194,20395,1,10,2:2:0:0:
40,356,20548,6,0,B|120:313|139:407|234:360,1,180,4|10,1:2|2:2,0:0:0:0:
332,280,21008,1,2,3:2:0:0:
226,179,21161,1,2,1:2:0:0:
308,304,21314,1,2,1:2:0:0:
404,188,21467,1,8,2:2:0:0:
404,188,21620,1,2,2:2:0:0:
486,303,21773,5,0,1:1:0:0:
324,220,21926,1,2,3:2:0:0:
424,63,22079,2,0,L|525:47,1,90,10|0,2:2|3:3,0:0:0:0:
418,53,22385,1,8,2:2:0:0:
375,38,22461,1,8,2:2:0:0:
330,36,22538,1,8,2:2:0:0:
287,47,22614,1,8,2:2:0:0:
246,67,22691,1,8,2:2:0:0:
205,85,22767,1,8,2:2:0:0:
162,94,22844,1,8,2:2:0:0:
117,88,22920,1,8,2:2:0:0:
76,69,22997,5,4,1:2:0:0:
5,183,23303,1,0,1:1:0:0:
128,279,23610,1,2,1:2:0:0:
271,193,23916,1,2,1:2:0:0:
207,243,24069,2,0,L|194:170,1,67.5000025749208,10|0,2:2|1:1,0:0:0:0:
288,117,24375,1,10,2:2:0:0:
352,167,24528,2,0,L|365:94,1,67.5000025749208,10|0,1:2|0:0,0:0:0:0:
432,234,24834,1,2,1:2:0:0:
491,106,25140,1,0,1:1:0:0:
342,273,25446,5,10,1:2:0:0:
342,273,25599,1,8,2:2:0:0:
437,339,25752,1,0,1:1:0:0:
359,178,26059,1,2,1:2:0:0:
225,283,26365,1,2,1:2:0:0:
155,328,26518,2,0,P|116:318|78:314,1,67.5000025749208,10|0,2:2|1:1,0:0:0:0:
44,186,26824,1,10,2:2:0:0:
114,231,26977,2,0,P|152:221|191:217,1,67.5000025749208,10|0,1:2|0:0,0:0:0:0:
270,138,27283,1,2,1:2:0:0:
123,89,27589,1,0,1:1:0:0:
278,227,27895,5,10,1:2:0:0:
278,227,28048,1,8,2:2:0:0:
369,168,28201,1,0,1:1:0:0:
463,271,28508,1,0,1:1:0:0:
291,141,28814,1,0,1:1:0:0:
362,80,28967,2,0,L|432:92,1,67.5000025749208,10|0,2:2|1:1,0:0:0:0:
512,225,29273,1,10,2:2:0:0:
441,164,29426,2,0,L|371:176,1,67.5000025749208,10|2,1:2|2:2,0:0:0:0:
268,232,29732,1,0,1:1:0:0:
122,150,30038,1,0,1:1:0:0:
172,320,30344,6,0,L|188:237,2,67.5000025749208,10|0|0,1:2|0:0|1:1,0:0:0:0:
89,364,30803,1,2,2:2:0:0:
19,244,30957,2,0,L|2:161,2,67.5000025749208,0|2|2,1:1|2:2|1:2,0:0:0:0:
102,288,31416,1,2,2:2:0:0:
175,172,31569,2,0,P|208:180|241:185,1,67.5000025749208,0|2,1:1|2:2,0:0:0:0:
338,132,31875,2,0,P|371:124|404:118,1,67.5000025749208,0|2,1:1|2:2,0:0:0:0:
322,307,32181,1,10,2:2:0:0:
322,307,32258,1,8,2:2:0:0:
322,307,32334,2,0,P|319:290|316:274,1,33.7500012874604,8|8,2:2|2:2,0:0:0:0:
424,223,32487,1,10,2:2:0:0:
424,223,32564,1,8,2:2:0:0:
424,223,32640,2,0,P|421:239|417:256,1,33.7500012874604,10|0,2:2|3:3,0:0:0:0:
230,299,32793,6,0,P|138:290|86:217,1,161.999995056153,4|8,1:2|2:2,0:0:0:0:
159,111,33252,1,2,2:2:0:0:
159,111,33406,2,0,P|165:155|172:195,1,80.9999975280763,0|2,1:1|1:2,0:0:0:0:
14,113,33712,2,0,P|20:73|26:32,1,80.9999975280763,2|10,2:2|2:2,0:0:0:0:
285,150,34018,2,0,P|244:168|204:162,1,80.9999975280763,2|0,2:2|1:1,0:0:0:0:
134,2,34324,2,0,P|173:-1|210:15,1,80.9999975280763,10|2,2:2|2:2,0:0:0:0:
99,168,34630,1,0,1:1:0:0:
99,168,34783,1,2,1:2:0:0:
225,78,34936,1,8,2:2:0:0:
351,324,35242,6,0,L|528:292,1,161.999995056153,0|8,1:1|2:2,0:0:0:0:
331,163,35701,1,2,2:2:0:0:
217,254,35854,2,0,L|305:270,1,80.9999975280763,0|2,1:1|1:2,0:0:0:0:
331,163,36161,1,2,2:2:0:0:
431,326,36314,2,0,L|351:340,1,80.9999975280763,10|0,2:2|0:0,0:0:0:0:
217,254,36620,1,2,1:2:0:0:
60,384,36773,2,0,B|64:349|74:318|74:318|67:283|67:283|77:252|81:213,1,161.999995056153,10|2,2:2|1:2,0:0:0:0:
102,116,37232,1,0,1:1:0:0:
159,324,37385,1,10,2:2:0:0:
468,129,37691,6,0,P|421:122|380:118,1,80.9999975280763,0|0,1:1|0:0,0:0:0:0:
294,239,37997,2,0,P|341:232|382:228,1,80.9999975280763,8|2,2:2|2:2,0:0:0:0:
303,51,38303,1,0,1:1:0:0:
303,51,38457,1,2,1:2:0:0:
219,146,38610,1,2,2:2:0:0:
383,76,38763,2,0,P|382:35|365:0,1,80.9999975280763,10|0,2:2|0:0,0:0:0:0:
203,27,39069,1,2,1:2:0:0:
411,162,39222,2,0,P|445:141|468:108,1,80.9999975280763,10|0,2:2|0:0,0:0:0:0:
286,91,39528,1,2,1:2:0:0:
286,91,39681,1,2,1:2:0:0:
356,246,39834,2,0,P|391:265|431:269,1,80.9999975280763,10|0,2:2|0:0,0:0:0:0:
242,164,40140,6,0,B|218:197|200:220|200:220|211:255|225:330,2,161.999995056153,0|8|2,1:1|2:2|1:2,0:0:0:0:
300,238,40906,1,0,1:1:0:0:
0,342,41212,2,0,P|44:277|122:275,1,161.999995056153,8|0,2:2|1:1,0:0:0:0:
298,384,41671,2,0,P|258:376|217:373,1,80.9999975280763,10|0,2:2|0:0,0:0:0:0:
275,172,41977,1,2,1:2:0:0:
334,284,42130,1,0,1:1:0:0:
436,119,42283,1,10,2:2:0:0:
436,119,42589,6,0,B|355:95|325:160|226:142,2,202.500007724762,4|0|0,1:2|1:1|1:1,0:0:0:0:
224,53,43814,1,2,2:2:0:0:
224,53,43967,1,2,2:2:0:0:
147,106,44120,1,2,2:2:0:0:
147,106,44273,1,2,2:2:0:0:
234,220,44426,2,0,P|196:228|162:233,1,67.5000025749208,2|2,2:2|2:2,0:0:0:0:
52,304,44732,2,0,P|85:309|118:316,1,67.5000025749208,2|2,2:2|2:2,0:0:0:0:
110,142,45038,6,0,P|39:205|73:326,2,202.500007724762,0|0|0,1:1|1:1|1:1,0:0:0:0:
253,286,46263,2,0,P|316:270|394:266,1,135.000005149842,8|8,2:1|2:1,0:0:0:0:
508,96,46875,2,0,P|474:93|441:85,1,67.5000025749208,8|0,2:1|1:1,0:0:0:0:
363,23,47181,2,0,P|330:31|296:33,1,67.5000025749208,10|0,2:2|0:0,0:0:0:0:
165,91,47487,6,0,P|252:136|264:246,2,202.500007724762,0|0|0,1:1|1:1|1:1,0:0:0:0:
21,187,48712,1,2,2:2:0:0:
21,187,48865,1,2,2:2:0:0:
67,260,49018,1,2,2:2:0:0:
67,260,49171,1,2,2:2:0:0:
25,384,49324,2,0,L|108:369,1,67.5000025749208,2|2,2:2|2:2,0:0:0:0:
181,322,49630,2,0,L|264:337,1,67.5000025749208,2|2,2:2|2:2,0:0:0:0:
378,201,49936,6,0,P|347:160|319:149,1,67.5000025749208,4|0,1:2|0:0,0:0:0:0:
256,73,50242,2,0,P|205:79|181:98,1,67.5000025749208,2|0,1:2|0:0,0:0:0:0:
43,280,50548,2,0,P|93:273|117:254,1,67.5000025749208,2|2,1:2|2:2,0:0:0:0:
214,238,50854,1,2,1:2:0:0:
12,153,51008,1,2,2:2:0:0:
82,58,51161,5,4,1:2:0:0:
82,58,51237,1,0,3:3:0:0:
82,58,51314,2,0,L|89:111,1,45,0|0,3:3|3:3,0:0:0:0:
0,244,51467,1,2,3:2:0:0:
0,244,51543,1,0,3:3:0:0:
0,244,51620,2,0,L|7:191,1,45,0|0,3:3|3:3,0:0:0:0:
165,294,51773,5,10,2:2:0:0:
186,287,51849,1,8,2:2:0:0:
219,283,51926,1,8,2:2:0:0:
260,299,52002,1,8,2:2:0:0:
305,321,52079,1,10,2:2:0:0:
360,324,52155,1,8,2:2:0:0:
419,297,52232,1,10,2:2:0:0:
459,237,52308,1,8,2:2:0:0:
443,161,52385,6,0,P|427:99|417:47,1,107.999996704102,4|2,1:2|2:2,0:0:0:0:
187,204,52691,1,10,2:2:0:0:
290,39,52844,1,2,2:2:0:0:
321,270,52997,1,2,1:2:0:0:
218,105,53150,1,2,1:2:0:0:
287,379,53303,2,0,P|348:363|401:353,1,107.999996704102,2|8,2:2|2:2,0:0:0:0:
146,257,53610,6,0,P|119:304|121:362,1,107.999996704102,0|0,0:0|1:1,0:0:0:0:
428,214,53916,2,0,P|374:213|328:186,1,107.999996704102,10|0,2:2|0:0,0:0:0:0:
232,29,54222,1,2,1:2:0:0:
211,244,54375,1,0,1:1:0:0:
405,107,54528,2,0,P|457:93|510:82,1,107.999996704102,10|2,2:2|2:2,0:0:0:0:
311,221,54834,6,0,B|286:181|258:154|258:154|277:96|303:11,1,215.999993408203,0|10,1:1|2:2,0:0:0:0:
311,221,55293,1,2,2:2:0:0:
409,99,55446,1,2,1:2:0:0:
409,99,55599,1,2,1:2:0:0:
465,311,55752,2,0,L|339:286,1,107.999996704102,2|8,2:2|2:2,0:0:0:0:
115,384,56059,6,0,L|241:359,1,107.999996704102,2|0,2:2|1:1,0:0:0:0:
323,113,56365,2,0,L|197:138,1,107.999996704102,8|0,2:2|0:0,0:0:0:0:
18,55,56671,1,2,1:2:0:0:
18,55,56824,1,0,1:1:0:0:
131,221,56977,2,0,L|257:246,1,107.999996704102,10|2,2:2|2:2,0:0:0:0:
259,23,57283,6,0,P|159:24|107:145,1,215.999993408203,4|10,1:2|2:2,0:0:0:0:
259,23,57742,1,0,0:0:0:0:
31,215,57895,2,0,B|149:169|131:272|262:236,1,215.999993408203,2|2,1:2|2:2,0:0:0:0:
316,157,58354,1,10,2:2:0:0:
454,310,58508,6,0,P|410:282|356:288,1,107.999996704102,2|0,2:2|1:1,0:0:0:0:
156,135,58814,2,0,P|200:107|254:113,1,107.999996704102,10|0,2:2|0:0,0:0:0:0:
70,326,59120,1,2,1:2:0:0:
14,117,59273,1,0,1:1:0:0:
173,264,59426,2,0,L|292:284,1,107.999996704102,10|2,2:2|2:2,0:0:0:0:
474,366,59732,6,0,B|489:320|509:295|509:295|456:152,1,215.999993408203,0|10,1:1|2:2,0:0:0:0:
407,43,60191,1,0,0:0:0:0:
311,192,60344,1,0,1:1:0:0:
311,192,60497,1,0,1:1:0:0:
480,84,60650,1,2,2:2:0:0:
287,15,60803,6,0,B|193:27|193:27|164:57|164:57|56:74,1,215.999993408203,10|0,2:2|1:1,0:0:0:0:
277,160,61263,2,0,B|324:165|324:165|338:181|338:181|392:189,1,107.999996704102,8|0,2:2|0:0,0:0:0:0:
101,313,61569,2,0,L|73:193,1,107.999996704102,2|0,1:2|1:1,0:0:0:0:
267,379,61875,2,0,L|295:259,1,107.999996704102,10|2,2:2|2:2,0:0:0:0:
509,314,62181,6,0,L|481:194,1,107.999996704102,4|2,1:2|2:2,0:0:0:0:
461,28,62487,5,8,2:2:0:0:
300,212,62640,1,2,1:2:0:0:
473,57,62793,5,10,2:2:0:0:
238,17,62946,1,2,1:2:0:0:
401,220,63099,5,8,2:2:0:0:
337,15,63252,1,2,1:2:0:0:
167,175,63406,5,10,2:2:0:0:
372,111,63559,1,2,1:2:0:0:
210,283,63712,5,8,2:2:0:0:
415,219,63865,1,0,1:1:0:0:
184,72,64018,6,0,P|97:74|27:185,1,215.999993408203,10|10,2:2|2:2,0:0:0:0:
96,46,64477,1,2,3:2:0:0:
193,247,64630,5,4,1:2:0:0:
108,179,64783,1,2,2:2:0:0:
282,155,64936,5,8,2:2:0:0:
107,264,65089,1,2,1:2:0:0:
341,234,65242,5,10,2:2:0:0:
150,101,65395,1,2,1:2:0:0:
365,45,65548,5,8,2:2:0:0:
257,269,65701,1,2,1:2:0:0:
338,9,65854,5,10,2:2:0:0:
449,224,66008,1,2,1:2:0:0:
229,59,66161,5,8,2:2:0:0:
454,119,66314,1,2,1:2:0:0:
187,217,66467,5,10,2:2:0:0:
369,32,66620,1,2,1:2:0:0:
326,311,66773,5,8,2:2:0:0:
164,110,66926,1,2,3:2:0:0:
105,374,67079,6,0,B|76:331|49:310|49:310|70:248|84:182,1,215.999993408203,4|8,1:2|2:2,0:0:0:0:
105,374,67538,1,0,1:1:0:0:
210,105,67691,5,8,2:2:0:0:
150,294,67844,1,0,1:1:0:0:
327,93,67997,5,10,2:2:0:0:
116,184,68150,1,2,1:2:0:0:
428,314,68303,5,10,2:2:0:0:
236,212,68456,1,0,1:1:0:0:
428,161,68610,5,10,2:2:0:0:
301,327,68763,1,0,1:1:0:0:
304,88,68916,5,10,2:2:0:0:
425,259,69069,1,2,1:2:0:0:
418,24,69222,5,10,2:2:0:0:
323,217,69375,1,0,3:3:0:0:
202,18,69528,5,4,1:2:0:0:
396,170,69681,1,0,1:1:0:0:
139,251,69834,5,14,2:2:0:0:
359,24,69987,1,2,2:2:0:0:
309,304,70140,5,12,2:2:0:0:
96,87,70293,1,0,1:1:0:0:
44,353,70446,6,0,L|174:334,1,107.999996704102,0|14,1:1|2:2,0:0:0:0:
329,165,70752,5,0,1:1:0:0:
43,55,70906,1,2,1:2:0:0:
268,346,71059,5,14,2:2:0:0:
192,68,71212,1,2,2:2:0:0:
433,257,71365,5,8,2:2:0:0:
434,221,71441,1,8,2:2:0:0:
426,186,71518,1,10,2:2:0:0:
407,155,71594,1,8,2:2:0:0:
380,132,71671,1,10,2:2:0:0:
372,185,71747,1,8,2:2:0:0:
363,239,71824,1,8,2:2:0:0:
355,292,71900,1,8,2:2:0:0:
347,345,71977,6,0,P|294:333|245:329,1,99.0000030212403,4|0,1:2|0:0,0:0:0:0:
52,211,72283,2,0,P|101:205|149:195,1,99.0000030212403,8|2,2:2|2:2,0:0:0:0:
288,68,72589,1,0,1:1:0:0:
207,256,72742,1,2,1:2:0:0:
198,28,72895,1,2,2:2:0:0:
279,216,73048,1,8,2:2:0:0:
407,20,73201,5,2,2:2:0:0:
219,101,73354,1,2,1:2:0:0:
393,207,73508,2,0,P|441:196|490:191,1,99.0000030212403,8|2,2:2|2:2,0:0:0:0:
253,298,73814,2,0,P|210:275|195:217,1,99.0000030212403,2|0,1:2|1:1,0:0:0:0:
456,281,74120,2,0,P|466:329|471:378,1,99.0000030212403,10|0,2:2|0:0,0:0:0:0:
278,217,74426,6,0,P|251:130|307:35,1,198.000006042481,2|10,1:2|2:2,0:0:0:0:
300,40,74885,1,2,2:2:0:0:
431,182,75038,1,0,1:1:0:0:
493,5,75191,2,0,P|444:15|395:20,1,99.0000030212403,0|2,1:1|2:2,0:0:0:0:
110,24,75497,6,0,P|198:44|252:140,1,198.000006042481,8|0,2:2|1:1,0:0:0:0:
231,203,75880,1,2,2:2:0:0:
231,203,75957,1,10,2:2:0:0:
118,330,76110,2,0,P|69:319|20:314,1,99.0000030212403,2|2,2:2|1:2,0:0:0:0:
176,146,76416,1,0,1:1:0:0:
249,327,76569,2,0,P|297:316|346:311,1,99.0000030212403,10|2,2:2|2:2,0:0:0:0:
145,60,76875,6,0,B|111:97|81:121|81:121|95:166|116:246,1,198.000006042481,4|8,1:2|2:2,0:0:0:0:
327,34,77334,2,0,P|300:143|279:245,1,198.000006042481,2|0,2:2|1:1,0:0:0:0:
411,101,77793,2,0,P|424:155|434:206,1,99.0000030212403,2|10,2:2|2:2,0:0:0:0:
481,12,78099,1,0,0:0:0:0:
322,167,78252,1,2,1:2:0:0:
263,0,78406,2,0,P|211:-5|166:21,1,99.0000030212403,8|0,2:2|0:0,0:0:0:0:
60,192,78712,1,2,1:2:0:0:
229,79,78865,1,0,1:1:0:0:
46,0,79018,2,0,P|51:50|62:105,1,99.0000030212403,10|2,2:2|2:2,0:0:0:0:
160,284,79324,6,0,B|209:251|269:278|252:306|298:335|359:304,1,198.000006042481,2|8,1:2|2:2,0:0:0:0:
282,58,79783,2,0,P|302:150|392:179,1,198.000006042481,2|0,2:2|1:1,0:0:0:0:
473,379,80242,2,0,L|494:268,1,99.0000030212403,2|8,2:2|2:2,0:0:0:0:
292,320,80548,6,0,L|389:301,1,99.0000030212403,2|0,2:2|1:1,0:0:0:0:
509,129,80854,2,0,L|411:110,1,99.0000030212403,8|2,2:2|2:2,0:0:0:0:
202,22,81161,1,2,1:2:0:0:
310,212,81314,1,0,1:1:0:0:
377,11,81467,1,10,2:2:0:0:
187,119,81620,1,0,0:0:0:0:
411,110,81773,6,0,P|461:174|419:295,1,198.000006042481,4|8,1:2|2:2,0:0:0:0:
251,375,82232,1,2,2:2:0:0:
161,220,82385,1,0,1:1:0:0:
349,302,82538,2,0,L|249:287,1,99.0000030212403,0|2,1:1|2:2,0:0:0:0:
101,128,82844,1,10,2:2:0:0:
0,289,82997,6,0,L|100:274,1,99.0000030212403,2|0,2:2|1:1,0:0:0:0:
252,124,83303,1,8,2:2:0:0:
48,12,83457,2,0,B|84:93|5:113|70:216,1,198.000006042481,2|0,2:2|1:1,0:0:0:0:
318,69,83916,2,0,P|275:39|230:44,1,99.0000030212403,10|2,2:2|2:2,0:0:0:0:
394,222,84222,6,0,P|442:225|481:196,1,99.0000030212403,2|0,1:2|0:0,0:0:0:0:
250,135,84528,1,8,2:2:0:0:
340,328,84681,1,2,2:2:0:0:
419,131,84834,1,0,1:1:0:0:
254,255,84987,2,0,P|147:235|60:208,1,198.000006042481,0|10,1:1|2:2,0:0:0:0:
270,375,85446,6,0,P|317:360|366:352,1,99.0000030212403,2|0,2:2|1:1,0:0:0:0:
340,165,85752,2,0,P|371:205|362:261,1,99.0000030212403,8|2,2:2|2:2,0:0:0:0:
246,102,86059,1,2,1:2:0:0:
193,282,86212,1,0,1:1:0:0:
87,128,86365,2,0,P|78:79|64:31,1,99.0000030212403,8|0,2:2|0:0,0:0:0:0:
7,267,86671,6,0,B|95:252|95:252|122:262|122:262|205:247,1,198.000006042481,4|8,1:2|2:2,0:0:0:0:
391,367,87130,1,2,2:2:0:0:
447,168,87283,1,0,1:1:0:0:
286,330,87436,1,0,1:1:0:0:
247,127,87589,1,2,2:2:0:0:
469,283,87742,1,10,2:2:0:0:
469,283,87819,1,2,2:2:0:0:
469,283,87895,5,2,2:2:0:0:
345,110,88048,1,0,1:1:0:0:
186,241,88201,1,10,2:2:0:0:
422,169,88354,2,0,B|440:127|461:105|461:105|425:58|394:-6,1,198.000006042481,2|2,2:2|1:2,0:0:0:0:
154,1,88814,2,0,L|131:109,1,99.0000030212403,10|0,2:2|0:0,0:0:0:0:
210,292,89120,5,0,1:1:0:0:
21,172,89273,1,0,0:0:0:0:
220,271,89426,1,8,2:2:0:0:
41,379,89579,2,0,L|144:360,1,99.0000030212403,2|0,2:2|1:1,0:0:0:0:
269,162,89885,1,0,1:1:0:0:
397,353,90038,1,2,2:2:0:0:
197,279,90191,1,8,2:2:0:0:
362,128,90344,5,2,2:2:0:0:
247,367,90497,1,2,1:2:0:0:
463,220,90650,2,0,L|441:89,1,99.0000030212403,10|0,2:2|0:0,0:0:0:0:
174,34,90957,1,0,1:1:0:0:
446,122,91110,1,0,1:1:0:0:
163,229,91263,1,0,1:1:0:0:
435,317,91416,1,0,1:1:0:0:
