osu file format v14

[General]
AudioFilename: audio.mp3
AudioLeadIn: 0
PreviewTime: 51340
Countdown: 0
SampleSet: Soft
StackLeniency: 0.3
Mode: 0
LetterboxInBreaks: 0
WidescreenStoryboard: 1

[Editor]
DistanceSpacing: 1.3
BeatDivisor: 4
GridSize: 4
TimelineZoom: 2.5

[Metadata]
Title:Nihil
TitleUnicode:ニヒル
Artist:KAF
ArtistUnicode:花譜
Creator:Nelliel
Version:Insane
Source:モナーク/Monark
Tags:KAMITSUBAKI Monark Collaboration Album studio thinkr 神椿スタジオ vtuber vtb virtual youtuber vsinger singer カンザキイオリ kanzaki iori theme song movie ver version short japanese jrock rock -_ex_- -ex- hantrik yumerios leominexd
BeatmapID:3303052
BeatmapSetID:1616499

[Difficulty]
HPDrainRate:4.5
CircleSize:3.8
OverallDifficulty:8.5
ApproachRate:9
SliderMultiplier:1.55
SliderTickRate:1

[Events]
//Background and Video events
0,0,"bg.jpg",0,0
//Break Periods
//Storyboard Layer 0 (Background)
//Storyboard Layer 1 (Fail)
//Storyboard Layer 2 (Pass)
//Storyboard Layer 3 (Foreground)
//Storyboard Layer 4 (Overlay)
//Storyboard Sound Samples

[TimingPoints]
3406,306.122448979592,4,2,1,55,1,0
3406,-133.333333333333,4,2,1,55,0,0
8303,-133.333333333333,4,2,1,60,0,0
12589,-133.333333333333,4,2,1,75,0,0
13048,-100,4,2,1,80,0,0
22997,-133.333333333333,4,2,1,70,0,0
32793,-111.111111111111,4,2,1,75,0,0
42589,-133.333333333333,4,2,1,65,0,0
49936,-133.333333333333,4,2,1,70,0,0
51161,-100,4,2,1,43,0,0
51314,-100,4,2,1,48,0,0
51467,-100,4,2,1,53,0,0
51620,-100,4,2,1,58,0,0
51773,-100,4,2,1,63,0,0
51926,-100,4,2,1,68,0,0
52079,-100,4,2,1,73,0,0
52232,-100,4,2,1,78,0,0
52385,-90.9090909090909,4,2,1,85,0,1
71977,-100,4,2,1,80,0,0
81773,-100,4,2,1,80,0,0
90957,-100,4,2,1,75,0,0
91569,-100,4,2,1,75,0,0

[Colours]
Combo1 : 255,128,128
Combo2 : 12,132,231
Combo3 : 255,98,70
Combo4 : 0,85,170

[HitObjects]
50,118,13048,6,0,B|123:83|135:165|223:134,1,155,4|0,1:2|1:1,0:0:0:0:
210,122,13431,1,2,2:2:0:0:
210,122,13508,1,10,2:2:0:0:
323,44,13661,1,2,2:2:0:0:
382,171,13814,1,0,1:1:0:0:
307,64,13967,1,2,1:2:0:0:
276,200,14120,2,0,P|280:243|289:290,1,77.5,2|10,2:2|2:2,0:0:0:0:
390,379,14426,6,0,P|396:340|399:302,1,77.5,2|0,2:2|1:1,0:0:0:0:
200,278,14732,1,10,2:2:0:0:
300,357,14885,2,0,B|238:363|238:363|221:378|221:378|139:386,1,155,2|2,2:2|1:2,0:0:0:0:
205,169,15344,1,10,2:2:0:0:
280,281,15497,1,2,2:2:0:0:
135,202,15650,5,0,1:1:0:0:
274,120,15803,1,2,2:2:0:0:
274,120,15880,1,2,2:2:0:0:
274,120,15957,1,8,2:2:0:0:
145,41,16110,1,2,2:2:0:0:
286,199,16263,2,0,P|335:186|374:182,1,77.5,2|2,1:2|1:2,0:0:0:0:
463,69,16569,2,0,P|424:63|387:52,1,77.5,0|10,0:0|2:2,0:0:0:0:
450,250,16875,6,0,P|456:211|467:174,1,77.5,2|2,2:2|1:2,0:0:0:0:
350,276,17181,1,8,2:2:0:0:
512,320,17334,2,0,P|437:298|360:287,1,155,2|2,2:2|1:2,0:0:0:0:
165,370,17793,1,10,2:2:0:0:
226,235,17946,1,2,2:2:0:0:
298,354,18099,5,4,1:2:0:0:
237,219,18252,1,2,2:2:0:0:
237,219,18329,1,2,2:2:0:0:
237,219,18406,1,10,2:2:0:0:
105,291,18559,1,2,2:2:0:0:
28,162,18712,2,0,P|76:147|108:142,1,77.5,2|2,1:2|1:2,0:0:0:0:
205,49,19018,2,0,P|241:61|279:68,1,77.5,0|10,0:0|2:2,0:0:0:0:
458,17,19324,5,4,1:2:0:0:
425,173,19477,1,2,1:2:0:0:
366,52,19630,1,10,2:2:0:0:
333,208,19783,2,0,P|294:214|258:227,1,77.5,2|0,2:2|1:1,0:0:0:0:
110,283,20089,2,0,P|116:264|120:245,2,38.75,10|8|10,2:2|2:2|2:2,0:0:0:0:
241,370,20395,1,10,2:2:0:0:
241,370,20472,1,8,2:2:0:0:
241,370,20548,6,0,P|323:342|409:327,1,155,4|10,1:2|2:2,0:0:0:0:
474,256,21008,1,2,3:2:0:0:
337,154,21161,1,2,1:2:0:0:
337,154,21314,1,2,1:2:0:0:
450,63,21467,2,0,L|437:141,1,77.5,8|2,2:2|2:2,0:0:0:0:
272,92,21773,6,0,L|346:63,1,77.5,0|2,1:1|3:2,0:0:0:0:
386,231,22079,2,0,L|323:181,1,77.5,10|0,2:2|3:3,0:0:0:0:
229,23,22385,1,8,2:2:0:0:
190,24,22461,1,8,2:2:0:0:
158,44,22538,1,8,2:2:0:0:
140,78,22614,1,8,2:2:0:0:
142,116,22691,2,0,L|153:174,3,38.75,8|8|8|8,2:2|2:2|2:2|2:2,0:0:0:0:
199,224,22997,6,0,L|186:290,1,58.1250022172929,4|0,1:2|0:0,0:0:0:0:
266,325,23303,2,0,L|276:267,1,58.1250022172929,0|2,1:1|2:2,0:0:0:0:
93,348,23610,2,0,L|82:290,1,58.1250022172929,2|2,1:2|2:2,0:0:0:0:
160,247,23916,1,2,1:2:0:0:
160,247,24069,2,0,L|170:304,1,58.1250022172929,10|0,2:2|1:1,0:0:0:0:
169,158,24375,1,10,2:2:0:0:
169,158,24528,2,0,L|111:168,1,58.1250022172929,10|0,1:2|0:0,0:0:0:0:
261,171,24834,2,0,L|250:113,1,58.1250022172929,2|2,1:2|2:2,0:0:0:0:
248,263,25140,1,0,1:1:0:0:
380,182,25446,5,10,1:2:0:0:
380,182,25599,1,8,2:2:0:0:
452,279,25752,2,0,L|394:268,1,58.1250022172929,0|2,1:1|2:2,0:0:0:0:
304,168,26059,2,0,L|361:157,1,58.1250022172929,2|0,1:2|0:0,0:0:0:0:
452,57,26365,1,2,1:2:0:0:
452,57,26518,2,0,L|394:46,1,58.1250022172929,10|0,2:2|1:1,0:0:0:0:
287,72,26824,1,10,2:2:0:0:
287,72,26977,2,0,L|229:61,1,58.1250022172929,10|0,1:2|0:0,0:0:0:0:
196,194,27283,2,0,L|233:149,1,58.1250022172929,2|2,1:2|2:2,0:0:0:0:
135,54,27589,1,0,1:1:0:0:
201,222,27895,5,10,1:2:0:0:
201,222,28048,1,8,2:2:0:0:
71,267,28201,2,0,L|128:277,1,58.1250022172929,0|2,1:1|2:2,0:0:0:0:
251,362,28508,2,0,L|193:372,1,58.1250022172929,0|2,1:1|2:2,0:0:0:0:
315,266,28814,1,0,1:1:0:0:
315,266,28967,2,0,L|373:277,1,58.1250022172929,10|0,2:2|1:1,0:0:0:0:
255,194,29273,1,10,2:2:0:0:
255,194,29426,2,0,L|217:238,1,58.1250022172929,10|2,1:2|2:2,0:0:0:0:
348,177,29732,2,0,L|328:122,1,58.1250022172929,0|2,1:1|2:2,0:0:0:0:
315,266,30038,2,0,L|373:277,1,58.1250022172929,0|2,1:1|2:2,0:0:0:0:
478,154,30344,6,0,P|405:158|377:197,1,116.250004434586,10|0,1:2|1:1,0:0:0:0:
478,154,30803,1,2,2:2:0:0:
297,82,30957,2,0,L|308:140,2,58.1250022172929,0|2|2,1:1|2:2|1:2,0:0:0:0:
236,28,31416,1,2,2:2:0:0:
136,156,31569,2,0,L|147:98,2,58.1250022172929,0|2|0,1:1|2:2|1:1,0:0:0:0:
68,202,32028,1,2,2:2:0:0:
145,55,32181,1,10,2:2:0:0:
171,45,32257,1,8,2:2:0:0:
200,46,32334,1,8,2:2:0:0:
225,61,32410,1,8,2:2:0:0:
242,84,32487,2,0,L|236:112,3,29.0625011086464,10|8|10|0,2:2|2:2|2:2|3:3,0:0:0:0:
281,181,32793,6,0,L|418:159,1,139.499995742798,4|8,1:2|2:2,0:0:0:0:
487,100,33252,1,2,2:2:0:0:
478,250,33406,2,0,L|409:239,1,69.749997871399,0|2,1:1|1:2,0:0:0:0:
277,336,33712,2,0,L|345:325,1,69.749997871399,2|10,2:2|2:2,0:0:0:0:
207,227,34018,6,0,B|167:271|167:271|188:369,1,139.499995742798,2|10,2:2|2:2,0:0:0:0:
301,224,34477,1,2,2:2:0:0:
166,154,34630,1,0,1:1:0:0:
166,154,34783,1,2,1:2:0:0:
280,82,34936,2,0,L|258:164,1,69.749997871399,8|2,2:2|2:2,0:0:0:0:
64,93,35242,6,0,P|123:53|190:65,1,139.499995742798,0|8,1:1|2:2,0:0:0:0:
16,23,35701,1,2,2:2:0:0:
147,153,35854,2,0,P|124:228|103:314,1,139.499995742798,0|2,1:1|2:2,0:0:0:0:
310,195,36314,6,0,P|283:166|250:135,1,69.749997871399,10|0,2:2|0:0,0:0:0:0:
278,313,36620,1,2,1:2:0:0:
278,313,36773,2,0,P|311:303|345:295,1,69.749997871399,10|2,2:2|2:2,0:0:0:0:
487,215,37079,1,2,1:2:0:0:
433,351,37232,1,0,1:1:0:0:
490,206,37385,2,0,P|499:239|507:273,1,69.749997871399,10|0,2:2|0:0,0:0:0:0:
362,162,37691,5,0,1:1:0:0:
362,162,37844,1,0,0:0:0:0:
499,101,37997,1,8,2:2:0:0:
499,101,38150,1,2,2:2:0:0:
369,248,38303,2,0,P|340:236|296:227,1,69.749997871399,0|2,1:1|1:2,0:0:0:0:
197,256,38610,1,2,2:2:0:0:
278,101,38763,6,0,B|289:162|289:162|277:180|277:180|287:251,1,139.499995742798,10|2,2:2|1:2,0:0:0:0:
73,216,39222,2,0,P|114:163|181:169,1,139.499995742798,10|2,2:2|1:2,0:0:0:0:
272,261,39681,1,2,1:2:0:0:
157,355,39834,2,0,L|168:281,1,69.749997871399,10|0,2:2|0:0,0:0:0:0:
384,356,40140,6,0,L|236:336,1,139.499995742798,0|8,1:1|2:2,0:0:0:0:
359,214,40599,1,2,2:2:0:0:
490,307,40752,1,2,1:2:0:0:
490,307,40906,1,0,1:1:0:0:
127,209,41212,6,0,B|98:164|98:164|141:74,1,139.499995742798,8|0,2:2|1:1,0:0:0:0:
346,58,41671,2,0,L|366:146,1,69.749997871399,10|0,2:2|0:0,0:0:0:0:
252,23,41977,1,2,1:2:0:0:
252,23,42130,1,0,1:1:0:0:
148,112,42283,2,0,L|128:200,1,69.749997871399,10|2,2:2|2:2,0:0:0:0:
197,321,42589,6,0,P|242:255|341:259,2,174.375006651879,4|0|0,1:2|1:1|1:1,0:0:0:0:
70,351,43814,1,2,2:2:0:0:
70,351,43967,2,0,L|57:284,2,58.1250022172929,2|2|2,2:2|2:2|2:2,0:0:0:0:
261,263,44426,2,0,L|274:196,1,58.1250022172929,2|2,2:2|2:2,0:0:0:0:
209,147,44732,2,0,L|197:204,1,58.1250022172929,2|2,2:2|2:2,0:0:0:0:
459,137,45038,6,0,B|386:119|386:119|336:127|336:127|272:113,2,174.375006651879,0|0|0,1:1|1:1|1:1,0:0:0:0:
259,37,46263,1,8,2:1:0:0:
198,112,46569,1,8,2:1:0:0:
266,180,46875,5,8,2:1:0:0:
161,100,47028,1,0,1:1:0:0:
120,243,47181,2,0,L|187:231,1,58.1250022172929,10|0,2:2|0:0,0:0:0:0:
350,294,47487,6,0,L|172:270,2,174.375006651879,0|0|0,1:1|1:1|1:1,0:0:0:0:
502,192,48712,1,2,2:2:0:0:
502,192,48865,2,0,P|512:219|513:248,2,58.1250022172929,2|2|2,2:2|2:2|2:2,0:0:0:0:
342,134,49324,2,0,P|314:124|285:123,1,58.1250022172929,2|2,2:2|2:2,0:0:0:0:
268,210,49630,2,0,P|295:219|324:220,1,58.1250022172929,2|2,2:2|2:2,0:0:0:0:
431,115,49936,6,0,L|419:53,1,58.1250022172929,4|0,1:2|0:0,0:0:0:0:
282,64,50242,2,0,L|294:2,1,58.1250022172929,2|0,1:2|0:0,0:0:0:0:
160,118,50548,2,0,L|148:56,1,58.1250022172929,2|2,1:2|2:2,0:0:0:0:
11,67,50854,2,0,L|23:5,1,58.1250022172929,2|2,1:2|2:2,0:0:0:0:
61,185,51161,6,0,L|101:192,3,38.75,4|0|0|0,1:2|3:3|3:3|3:3,0:0:0:0:
203,260,51467,2,0,L|162:267,3,38.75,2|0|0|0,3:2|3:3|3:3|3:3,0:0:0:0:
106,347,51773,1,10,2:2:0:0:
77,321,51849,1,8,2:2:0:0:
62,286,51926,1,8,2:2:0:0:
66,247,52002,1,8,2:2:0:0:
86,215,52079,2,0,L|124:207,3,38.75,10|8|10|8,2:2|2:2|2:2|2:2,0:0:0:0:
166,137,52385,6,0,L|275:149,1,85.2500026016236,4|2,1:2|2:2,0:0:0:0:
398,86,52691,1,10,2:2:0:0:
251,10,52844,1,2,2:2:0:0:
408,71,52997,1,2,1:2:0:0:
261,147,53150,1,2,1:2:0:0:
421,213,53303,2,0,L|505:203,1,85.2500026016236,2|8,2:2|2:2,0:0:0:0:
342,322,53610,6,0,L|257:312,1,85.2500026016236,0|0,0:0|1:1,0:0:0:0:
159,214,53916,2,0,P|250:250|254:319,1,170.500005203247,10|2,2:2|1:2,0:0:0:0:
159,214,54375,1,0,1:1:0:0:
49,298,54528,2,0,L|39:213,1,85.2500026016236,10|2,2:2|2:2,0:0:0:0:
118,54,54834,6,0,L|127:138,1,85.2500026016236,0|2,1:1|2:2,0:0:0:0:
310,97,55140,2,0,P|270:76|225:87,1,85.2500026016236,10|2,2:2|2:2,0:0:0:0:
394,12,55446,1,2,1:2:0:0:
438,158,55599,1,2,1:2:0:0:
503,97,55752,1,2,2:2:0:0:
477,275,55906,6,0,P|440:247|315:221,1,170.500005203247,8|0,2:2|1:1,0:0:0:0:
252,358,56365,2,0,L|341:326,1,85.2500026016236,8|0,2:2|0:0,0:0:0:0:
213,183,56671,2,0,L|229:276,1,85.2500026016236,2|0,1:2|1:1,0:0:0:0:
98,345,56977,2,0,L|112:260,1,85.2500026016236,10|2,2:2|2:2,0:0:0:0:
64,75,57283,2,0,P|13:112|2:219,1,170.500005203247,4|10,1:2|2:2,0:0:0:0:
64,75,57742,1,0,0:0:0:0:
159,169,57895,2,0,P|212:158|248:158,1,85.2500026016236,2|0,1:2|1:1,0:0:0:0:
363,59,58201,1,2,2:2:0:0:
306,216,58354,1,10,2:2:0:0:
219,78,58508,6,0,P|176:76|135:66,1,85.2500026016236,2|0,2:2|1:1,0:0:0:0:
107,236,58814,2,0,P|129:199|158:168,1,85.2500026016236,10|0,2:2|0:0,0:0:0:0:
26,60,59120,2,0,P|45:97|58:138,1,85.2500026016236,2|0,1:2|1:1,0:0:0:0:
7,263,59426,1,10,2:2:0:0:
7,263,59579,1,2,2:2:0:0:
149,323,59732,6,0,B|229:286|238:372|316:343,1,170.500005203247,0|10,1:1|2:2,0:0:0:0:
415,252,60191,1,0,0:0:0:0:
267,173,60344,2,0,L|288:265,1,85.2500026016236,0|0,1:1|1:1,0:0:0:0:
164,106,60650,1,2,2:2:0:0:
360,180,60803,6,0,B|411:137|411:137|371:32,1,170.500005203247,10|0,2:2|1:1,0:0:0:0:
221,10,61263,2,0,L|192:109,1,85.2500026016236,8|0,2:2|0:0,0:0:0:0:
76,198,61569,2,0,L|47:99,1,85.2500026016236,2|0,1:2|1:1,0:0:0:0:
222,254,61875,2,0,L|140:277,1,85.2500026016236,10|2,2:2|2:2,0:0:0:0:
290,181,62181,6,0,P|343:182|369:213,1,85.2500026016236,4|2,1:2|2:2,0:0:0:0:
189,148,62487,2,0,P|163:101|177:63,1,85.2500026016236,8|2,2:2|1:2,0:0:0:0:
358,5,62793,1,10,2:2:0:0:
257,96,62946,1,2,1:2:0:0:
389,37,63099,1,8,2:2:0:0:
249,0,63252,1,2,1:2:0:0:
366,132,63406,6,0,L|461:117,1,85.2500026016236,10|2,2:2|1:2,0:0:0:0:
284,249,63712,2,0,L|189:234,1,85.2500026016236,8|0,2:2|1:1,0:0:0:0:
0,170,64018,2,0,L|84:184,1,85.2500026016236,10|0,2:2|1:1,0:0:0:0:
250,287,64324,2,0,L|166:301,1,85.2500026016236,10|2,2:2|3:2,0:0:0:0:
294,171,64630,5,4,1:2:0:0:
331,333,64783,1,2,2:2:0:0:
398,181,64936,1,8,2:2:0:0:
435,343,65089,1,2,1:2:0:0:
225,221,65242,2,0,P|206:178|220:132,1,85.2500026016236,10|2,2:2|1:2,0:0:0:0:
363,7,65548,2,0,P|370:48|351:86,1,85.2500026016236,8|2,2:2|1:2,0:0:0:0:
116,78,65854,5,10,2:2:0:0:
285,28,66008,1,2,1:2:0:0:
120,1,66161,1,8,2:2:0:0:
264,113,66314,1,2,1:2:0:0:
106,156,66467,2,0,P|59:152|16:145,1,85.2500026016236,10|2,2:2|1:2,0:0:0:0:
225,269,66773,2,0,P|198:307|170:341,1,85.2500026016236,8|2,2:2|3:2,0:0:0:0:
386,197,67079,6,0,P|424:279|454:359,1,170.500005203247,4|8,1:2|2:2,0:0:0:0:
465,132,67538,1,0,1:1:0:0:
301,266,67691,1,8,2:2:0:0:
462,164,67844,1,0,1:1:0:0:
286,108,67997,1,10,2:2:0:0:
409,243,68150,1,2,1:2:0:0:
227,306,68303,6,0,P|181:294|134:289,1,85.2500026016236,10|0,2:2|1:1,0:0:0:0:
146,174,68610,2,0,P|100:186|53:191,1,85.2500026016236,10|0,2:2|1:1,0:0:0:0:
242,19,68916,2,0,P|196:31|149:36,1,85.2500026016236,10|2,2:2|1:2,0:0:0:0:
161,151,69223,2,0,P|115:139|68:134,1,85.2500026016236,10|0,2:2|3:3,0:0:0:0:
236,257,69528,6,0,B|281:205|281:205|241:84,1,170.500005203247,4|14,1:2|2:2,0:0:0:0:
127,49,69987,1,2,2:2:0:0:
4,224,70140,2,0,P|75:204|181:194,1,170.500005203247,12|0,2:2|1:1,0:0:0:0:
334,271,70599,1,14,2:2:0:0:
206,343,70752,5,0,1:1:0:0:
293,193,70906,1,2,1:2:0:0:
451,287,71059,1,14,2:2:0:0:
364,137,71213,1,2,2:2:0:0:
363,337,71365,1,8,2:2:0:0:
392,366,71441,1,8,2:2:0:0:
432,382,71518,1,10,2:2:0:0:
474,380,71594,1,8,2:2:0:0:
512,362,71671,2,0,L|503:312,3,42.6250013008118,10|8|8|8,2:2|2:2|2:2|2:2,0:0:0:0:
453,260,71977,6,0,L|465:157,1,77.5,4|0,1:2|0:0,0:0:0:0:
357,50,72283,2,0,L|365:126,1,77.5,8|2,2:2|2:2,0:0:0:0:
271,227,72589,1,0,1:1:0:0:
271,227,72742,1,2,1:2:0:0:
183,94,72895,2,0,B|110:69|97:134|17:107,1,155,2|2,2:2|2:2,0:0:0:0:
91,297,73354,6,0,P|153:254|152:170,1,155,2|2,1:2|2:2,0:0:0:0:
56,30,73814,1,2,1:2:0:0:
10,180,73967,1,0,1:1:0:0:
172,65,74120,2,0,L|260:80,1,77.5,10|0,2:2|0:0,0:0:0:0:
382,184,74426,6,0,L|294:199,1,77.5,2|0,1:2|0:0,0:0:0:0:
459,98,74732,1,10,2:2:0:0:
418,271,74885,1,2,2:2:0:0:
313,117,75038,1,0,1:1:0:0:
313,117,75191,1,0,1:1:0:0:
261,282,75344,1,2,2:2:0:0:
161,137,75497,6,0,B|93:142|93:142|75:161|75:161|5:167,1,155,8|0,2:2|1:1,0:0:0:0:
14,166,75880,1,2,2:2:0:0:
14,166,75957,1,10,2:2:0:0:
78,55,76110,1,2,2:2:0:0:
147,226,76263,1,2,1:2:0:0:
147,226,76416,1,0,1:1:0:0:
221,81,76569,2,0,B|255:83|255:83|264:93|264:93|299:95,1,77.5,10|2,2:2|2:2,0:0:0:0:
396,13,76875,6,0,P|321:28|295:105,1,155,4|8,1:2|2:2,0:0:0:0:
372,262,77334,2,0,L|390:102,1,155,2|0,2:2|1:1,0:0:0:0:
459,277,77793,1,2,2:2:0:0:
294,313,77946,1,10,2:2:0:0:
442,309,78099,5,0,0:0:0:0:
327,219,78252,2,0,P|264:214|195:297,1,155,2|0,1:2|0:0,0:0:0:0:
45,356,78712,1,2,1:2:0:0:
75,213,78865,1,0,1:1:0:0:
201,318,79018,1,10,2:2:0:0:
171,175,79171,1,2,2:2:0:0:
11,287,79324,6,0,L|37:125,1,155,2|8,1:2|2:2,0:0:0:0:
93,56,79783,1,2,2:2:0:0:
174,176,79936,1,0,1:1:0:0:
113,59,80089,1,0,1:1:0:0:
160,259,80242,2,0,L|243:239,1,77.5,2|8,2:2|2:2,0:0:0:0:
365,109,80548,6,0,B|418:152|418:152|386:252,1,155,2|8,2:2|2:2,0:0:0:0:
354,337,81008,1,2,2:2:0:0:
255,160,81161,1,2,1:2:0:0:
316,326,81314,1,0,1:1:0:0:
157,259,81467,1,10,2:2:0:0:
323,198,81620,1,0,0:0:0:0:
185,346,81773,6,0,P|103:331|66:270,1,155,4|8,1:2|2:2,0:0:0:0:
176,105,82232,2,0,L|156:263,1,155,2|0,2:2|1:1,0:0:0:0:
34,43,82691,1,2,2:2:0:0:
70,171,82844,1,10,2:2:0:0:
180,25,82997,6,0,B|257:-6|253:83|333:50,1,155,2|8,2:2|2:2,0:0:0:0:
492,15,83457,2,0,P|445:23|407:132,1,155,2|0,2:2|1:1,0:0:0:0:
456,243,83916,1,10,2:2:0:0:
456,243,84069,1,2,2:2:0:0:
260,184,84222,6,0,P|305:178|348:168,1,77.5,2|0,1:2|0:0,0:0:0:0:
176,261,84528,1,8,2:2:0:0:
178,130,84681,2,0,P|257:146|338:157,1,155,2|0,2:2|1:1,0:0:0:0:
136,30,85140,1,2,2:2:0:0:
94,175,85293,1,10,2:2:0:0:
224,48,85446,6,0,P|262:42|300:34,1,77.5,2|0,2:2|1:1,0:0:0:0:
468,97,85752,2,0,P|430:89|391:83,1,77.5,8|2,2:2|2:2,0:0:0:0:
274,246,86059,1,2,1:2:0:0:
433,175,86212,1,0,1:1:0:0:
423,333,86365,2,0,P|385:325|346:319,1,77.5,8|0,2:2|0:0,0:0:0:0:
160,362,86671,6,0,P|214:312|214:213,1,155,4|8,1:2|2:2,0:0:0:0:
98,117,87130,1,2,2:2:0:0:
98,117,87207,1,2,2:2:0:0:
98,117,87283,1,0,1:1:0:0:
61,235,87436,1,0,1:1:0:0:
184,150,87589,1,2,2:2:0:0:
56,94,87742,6,0,L|46:48,2,38.75,10|0|2,2:2|0:0|2:2,0:0:0:0:
136,210,88048,1,0,1:1:0:0:
218,83,88201,1,10,2:2:0:0:
322,187,88354,2,0,B|405:157|403:229|482:203,1,155,2|2,2:2|1:2,0:0:0:0:
441,21,88814,2,0,L|423:104,1,77.5,10|0,2:2|0:0,0:0:0:0:
298,279,89120,5,0,1:1:0:0:
226,132,89273,1,0,0:0:0:0:
363,226,89426,1,8,2:2:0:0:
207,303,89579,1,2,2:2:0:0:
343,145,89732,2,0,P|381:142|418:161,1,77.5,0|0,1:1|1:1,0:0:0:0:
307,313,90038,2,0,P|268:315|234:299,1,77.5,2|8,2:2|2:2,0:0:0:0:
72,205,90344,6,0,P|33:202|-3:221,1,77.5,2|2,2:2|1:2,0:0:0:0:
122,383,90650,2,0,P|160:385|194:369,1,77.5,10|0,2:2|0:0,0:0:0:0:
213,123,90957,1,0,1:1:0:0:
150,298,91110,1,0,1:1:0:0:
232,88,91263,1,0,1:1:0:0:
303,268,91416,1,0,1:1:0:0:
