osu file format v14

[General]
AudioFilename: audio.mp3
AudioLeadIn: 0
PreviewTime:57535
Countdown: 0
SampleSet: Soft
StackLeniency: 0.4
Mode: 0
LetterboxInBreaks: 0
WidescreenStoryboard: 1

[Editor]
Bookmarks: 19885,39085,57085,86935,96385,96685,115885,133885,163885,192685,221485,240685,274285
DistanceSpacing: 1
BeatDivisor: 4
GridSize: 16
TimelineZoom: 2.1

[Metadata]
Title:Majo
TitleUnicode:魔女
Artist:KAF
ArtistUnicode:花譜
Creator:LeeGod
Version:Poyoyo & Li's Extra
Source:
Tags:Poyoyo MiyohashiKoori W M W_M milkgreen Sagisawa_Arisa Kohno_Marika Sagisawa Arisa Kohno Marika kamitsubaki studio kafu japanese pop rock jpop jrock virtual vtuber vsinger 神椿 花と心臓 hana to shinzou
BeatmapID:4046405
BeatmapSetID:1438258

[Difficulty]
HPDrainRate:5.3
CircleSize:3.8
OverallDifficulty:9
ApproachRate:9.3
SliderMultiplier:1.8
SliderTickRate:1

[Events]
//Background and Video events
0,0,"bg.jpg",0,0
//Break Periods
2,87285,95815
2,164085,172615
//Storyboard Layer 0 (Background)
//Storyboard Layer 1 (Fail)
//Storyboard Layer 2 (Pass)
//Storyboard Layer 3 (Foreground)
//Storyboard Layer 4 (Overlay)
//Storyboard Sound Samples

[TimingPoints]
685,300,4,2,2,30,1,0
685,-200,4,2,2,30,0,0
1885,-200,4,2,2,20,0,0
2185,-200,4,2,2,30,0,0
2485,-200,4,2,2,40,0,0
2785,-200,4,2,2,50,0,0
3085,-200,4,2,2,30,0,0
4285,-200,4,2,2,20,0,0
4585,-200,4,2,2,30,0,0
4885,-200,4,2,2,40,0,0
5185,-200,4,2,2,50,0,0
5485,-200,4,2,2,30,0,0
6685,-200,4,2,2,20,0,0
6985,-200,4,2,2,30,0,0
7285,-200,4,2,2,40,0,0
7585,-200,4,2,2,50,0,0
7885,-200,4,2,2,30,0,0
9085,-200,4,2,2,20,0,0
9385,-200,4,2,2,30,0,0
9685,-100,4,2,1,65,0,0
10285,-90.9090909090909,4,2,1,80,0,0
19885,-250,4,2,2,40,0,0
21085,-181.818181818182,4,2,2,40,0,0
22285,-200,4,2,2,40,0,0
25885,-222.222222222222,4,2,2,40,0,0
27085,-181.818181818182,4,2,2,40,0,0
29485,-153.846153846154,4,2,2,50,0,0
38785,-333.333333333333,4,2,1,65,0,0
39385,-111.111111111111,4,2,1,65,0,0
48685,-100,4,2,1,65,0,0
56935,-200,4,2,1,65,0,0
57535,-200,4,2,1,40,0,0
58285,-83.3333333333333,4,2,1,90,0,0
67885,-83.3333333333333,4,2,1,90,0,0
74785,-125,4,2,1,90,0,0
75085,-83.3333333333333,4,2,1,90,0,0
77485,-90.9090909090909,4,2,1,80,0,0
85885,-74.0740740740741,4,2,1,80,0,0
87085,-74.0740740740741,4,2,2,40,0,0
96385,-200,4,2,2,50,0,0
105985,-142.857142857143,4,2,2,50,0,0
106285,-142.857142857143,4,2,2,60,0,0
115585,-142.857142857143,4,2,1,40,0,0
115885,-111.111111111111,4,2,1,65,0,0
125485,-100,4,2,1,65,0,0
133885,-100,4,2,2,45,0,0
135085,-83.3333333333333,4,2,1,90,0,0
139585,-200,4,2,1,90,0,0
139885,-83.3333333333333,4,2,1,90,0,0
141985,-200,4,2,1,90,0,0
142585,-83.3333333333333,4,2,1,90,0,0
155485,-90.9090909090909,4,2,1,90,0,0
163885,-90.9090909090909,4,2,2,40,0,0
173185,-333.333333333333,4,2,2,40,0,0
173485,-200,4,2,2,50,0,0
190735,-250,4,2,2,50,0,0
192685,-125,4,2,1,60,0,0
199885,-500,4,2,1,35,0,0
200935,-500,4,2,1,35,0,0
202285,-500,4,2,2,40,0,0
211585,-200,4,2,2,40,0,0
211885,-200,4,2,1,65,0,0
220285,-83.3333333333333,4,2,1,80,0,0
221485,-83.3333333333333,4,2,1,90,0,0
227185,-83.3333333333333,4,2,2,90,0,0
227335,-83.3333333333333,4,2,1,90,0,0
237985,-125,4,2,1,90,0,0
238285,-83.3333333333333,4,2,1,90,0,0
240685,-90.9090909090909,4,2,1,80,0,0
259885,-90.9090909090909,4,2,1,20,0,0
259960,-90.9090909090909,4,2,1,20,0,0
264685,-90.9090909090909,4,2,1,16,0,0
267085,-90.9090909090909,4,2,1,14,0,0
268285,-90.9090909090909,4,2,1,12,0,0
269485,-90.9090909090909,4,2,1,10,0,0
270685,-90.9090909090909,4,2,1,8,0,0
271885,-90.9090909090909,4,2,1,7,0,0
273085,-90.9090909090909,4,2,1,6,0,0
274285,-90.9090909090909,4,2,1,5,0,0

[Colours]
Combo1 : 197,177,194
Combo2 : 255,189,209
Combo3 : 200,35,235

[HitObjects]
83,23,685,6,0,P|106:58|130:106,1,90
154,178,1135,1,0,0:0:0:0:
277,100,1435,1,0,0:0:0:0:
297,126,1735,6,0,P|282:167|272:220,1,90
362,351,2335,1,0,0:0:0:0:
430,280,2485,1,2,0:0:0:0:
265,335,2785,1,2,0:0:0:0:
282,358,3085,6,0,P|236:354|184:344,1,90
113,301,3535,1,0,0:0:0:0:
218,197,3835,1,0,0:0:0:0:
235,226,4135,5,0,0:0:0:0:
95,271,4435,1,0,0:0:0:0:
20,155,4735,1,0,0:0:0:0:
105,115,4885,2,0,L|115:67,2,45,2|0|2,0:0|0:0|0:0,0:0:0:0:
235,226,5485,6,0,P|276:214|329:206,1,90
402,248,5935,1,0,0:0:0:0:
451,96,6235,1,0,0:0:0:0:
426,71,6535,6,0,P|384:82|331:90,1,90
112,45,7135,1,0,0:0:0:0:
205,16,7285,1,2,0:0:0:0:
115,134,7585,1,2,0:0:0:0:
145,119,7885,6,0,P|132:163|122:215,1,90
160,287,8335,1,0,0:0:0:0:
48,384,8635,1,0,0:0:0:0:
33,355,8935,5,0,0:0:0:0:
176,317,9235,1,0,0:0:0:0:
310,383,9535,1,0,0:0:0:0:
340,364,9685,6,0,L|350:316,1,45,2|0,0:0|0:0,0:0:0:0:
411,258,9835,2,0,L|401:213,5,45,2|0|2|2|2|2,0:0|0:0|0:0|0:0|0:0|0:0,0:0:0:0:
338,153,10285,5,6,3:2:0:0:
426,119,10435,1,0,0:0:0:0:
211,22,10585,1,10,0:0:0:0:
221,51,10735,1,0,3:0:0:0:
160,228,10885,1,10,0:0:0:0:
53,271,11035,2,0,P|96:263|158:257,1,99.0000030212403,2|0,3:2|0:0,0:0:0:0:
434,342,11335,5,10,0:0:0:0:
434,342,11635,1,2,3:2:0:0:
505,168,11785,1,10,0:0:0:0:
476,177,11935,1,0,0:0:0:0:
221,51,12085,5,2,3:2:0:0:
351,121,12235,1,0,3:0:0:0:
150,257,12385,1,10,0:0:0:0:
160,228,12535,1,2,0:0:0:0:
21,72,12685,5,10,0:0:0:0:
60,177,12835,1,0,0:0:0:0:
261,293,12985,1,10,0:0:0:0:
154,346,13135,1,0,0:0:0:0:
292,279,13285,1,2,3:2:0:0:
488,363,13435,2,0,P|438:356|374:339,1,99.0000030212403,10|0,0:0|0:0,0:0:0:0:
479,113,13735,5,10,0:0:0:0:
479,113,14035,1,2,3:2:0:0:
300,164,14185,1,10,0:0:0:0:
242,1,14335,1,8,0:0:0:0:
242,1,14410,1,8,0:0:0:0:
242,1,14485,6,0,P|260:76|275:158,1,148.50000453186,2|0,3:2|0:0,0:0:0:0:
244,224,14785,1,10,0:0:0:0:
161,214,14935,1,2,3:2:0:0:
41,340,15085,6,0,P|89:329|147:322,1,99.0000030212403,2|0,0:0|3:0,0:0:0:0:
0,135,15385,1,10,0:0:0:0:
49,46,15535,1,8,0:0:0:0:
49,46,15610,1,8,0:0:0:0:
154,38,15835,5,2,3:2:0:0:
54,229,15985,1,8,0:0:0:0:
161,214,16135,2,0,P|208:236|263:256,1,99.0000030212403,2|0,3:2|0:0,0:0:0:0:
152,344,16435,1,2,3:2:0:0:
362,384,16585,1,10,0:0:0:0:
370,352,16735,1,0,0:0:0:0:
456,165,16885,5,2,3:2:0:0:
507,233,17035,2,0,P|490:185|475:123,1,99.0000030212403,2|8,3:2|0:0,0:0:0:0:
501,43,17335,1,2,0:0:0:0:
228,0,17485,6,0,B|274:18|274:18|296:67|296:67|351:91,1,148.50000453186,4|0,3:2|0:0,0:0:0:0:
408,22,17785,1,10,0:0:0:0:
310,180,17935,1,8,0:0:0:0:
310,180,18010,1,8,0:0:0:0:
310,180,18085,1,2,3:2:0:0:
37,108,18235,1,2,3:2:0:0:
37,108,18535,5,10,0:0:0:0:
334,0,18685,2,0,L|352:108,1,99.0000030212403,2|0,0:0|3:0,0:0:0:0:
403,174,18985,2,0,L|496:210,1,99.0000030212403,10|0,0:0|0:0,0:0:0:0:
82,324,19285,5,10,0:0:0:0:
121,351,19360,1,8,0:0:0:0:
169,360,19435,1,8,0:0:0:0:
218,350,19510,1,8,0:0:0:0:
259,323,19585,1,8,0:0:0:0:
286,282,19660,1,8,0:0:0:0:
296,234,19735,1,8,0:0:0:0:
286,186,19810,1,8,0:0:0:0:
259,145,19885,6,0,P|194:134|121:254,1,216,2|0,0:0|0:0,0:0:0:0:
400,371,21085,2,0,B|391:302|391:302|351:269|351:269|340:193,1,198.000006042481,2|0,0:0|0:0,0:0:0:0:
447,145,21835,2,0,P|421:172|442:237,1,99.0000030212403,2|0,0:0|0:0,0:0:0:0:
334,188,22285,6,0,P|339:123|174:97,1,270,2|0,0:0|0:0,0:0:0:0:
63,325,23485,2,0,P|49:258|33:188,2,135,2|2|2,0:0|0:0|0:0,0:0:0:0:
167,239,24685,6,0,B|297:213|279:355|423:322,1,270,2|0,0:0|0:0,0:0:0:0:
416,163,25885,2,0,B|409:95|530:96|534:200|463:266,1,242.999992584229,2|0,0:0|0:0,0:0:0:0:
309,254,27085,2,0,B|258:169|147:284|236:379|357:375,1,297.000009063721,2|0,0:0|0:0,0:0:0:0:
224,83,28285,5,2,0:0:0:0:
224,83,29485,5,2,0:0:0:0:
136,163,29935,1,0,1:0:0:0:
68,193,30085,2,0,P|61:152|121:91,1,116.999994644165,0|0,0:0|1:0,0:0:0:0:
191,229,30535,1,0,1:0:0:0:
191,229,30685,1,2,0:0:0:0:
259,199,30835,2,0,P|266:240|206:301,1,116.999994644165,0|0,1:0|0:0,0:0:0:0:
39,319,31285,2,0,P|94:327|169:339,1,116.999994644165,0|0,1:0|0:0,0:0:0:0:
330,365,31885,5,2,0:0:0:0:
330,365,32335,1,0,0:0:0:0:
417,379,32485,2,0,P|401:328|377:257,1,116.999994644165,0|0,1:0|0:0,0:0:0:0:
347,178,32935,1,0,1:0:0:0:
347,178,33085,1,2,0:0:0:0:
434,192,33235,2,0,P|418:141|394:70,1,116.999994644165,0|2,1:0|0:0,0:0:0:0:
338,22,33685,2,0,P|277:18|249:79,1,116.999994644165,0|2,1:0|0:0,0:0:0:0:
243,164,34135,1,0,1:0:0:0:
251,68,34285,5,2,0:0:0:0:
251,68,34735,1,0,1:0:0:0:
170,104,34885,2,0,P|126:100|51:94,1,116.999994644165,0|0,1:0|0:0,0:0:0:0:
248,159,35335,1,0,1:0:0:0:
248,159,35485,1,2,0:0:0:0:
167,195,35635,2,0,P|123:191|48:185,1,116.999994644165,0|0,1:0|1:0,0:0:0:0:
103,367,36085,2,0,P|147:338|157:273,1,116.999994644165,0|0,1:0|0:0,0:0:0:0:
79,293,36535,1,0,1:0:0:0:
79,293,36685,5,2,0:0:0:0:
79,293,37135,1,0,1:0:0:0:
164,277,37285,2,0,P|210:283|289:294,1,116.999994644165,0|0,1:0|1:0,0:0:0:0:
331,363,37735,1,0,1:0:0:0:
386,270,37885,2,0,P|432:276|511:287,1,116.999994644165,2|0,0:0|0:0,0:0:0:0:
396,173,38335,1,0,0:0:0:0:
512,186,38485,1,0,1:0:0:0:
317,86,38785,6,0,P|312:66|307:46,1,40.4999987640381,2|0,0:0|0:0,0:0:0:0:
307,46,39085,1,6,3:2:0:0:
57,190,39385,6,0,L|146:175,1,80.9999975280763,10|0,0:0|0:0,0:0:0:0:
231,82,39685,1,2,3:2:0:0:
178,18,39835,1,0,3:0:0:0:
105,54,39985,1,2,0:0:0:0:
241,180,40135,6,0,P|233:241|232:304,1,121.499996292114,10|0,0:0|0:0,0:0:0:0:
232,301,40435,1,2,3:2:0:0:
438,359,40585,2,0,P|399:283|321:282,1,161.999995056153,10|0,0:0|3:0,0:0:0:0:
307,370,41035,1,0,3:0:0:0:
160,242,41185,2,0,P|213:236|238:172,1,121.499996292114,10|0,0:0|0:0,0:0:0:0:
240,179,41485,5,2,3:2:0:0:
434,11,41785,2,0,L|425:98,1,80.9999975280763,10|0,0:0|0:0,0:0:0:0:
412,197,42085,1,2,3:2:0:0:
326,56,42235,2,0,L|335:143,1,80.9999975280763,0|2,3:0|0:0,0:0:0:0:
458,286,42535,2,0,P|395:230|332:274,1,161.999995056153,10|2,0:0|3:2,0:0:0:0:
383,341,42985,1,10,0:0:0:0:
254,372,43135,2,0,B|237:334|237:334|261:288,2,80.9999975280763,0|0|0,0:0|3:0|3:0,0:0:0:0:
264,211,43585,5,10,0:0:0:0:
181,242,43735,1,0,0:0:0:0:
140,76,43885,2,0,B|49:77|89:143|-12:140,2,161.999995056153,2|10|2,3:2|0:0|3:2,0:0:0:0:
221,113,44635,1,0,3:0:0:0:
210,32,44785,5,2,0:0:0:0:
151,159,44935,2,0,B|144:219|144:219|164:254|164:254|156:325,1,161.999995056153,10|2,0:0|3:2,0:0:0:0:
94,377,45385,1,8,0:0:0:0:
1,269,45535,2,0,P|37:257|82:276,1,80.9999975280763,2|0,0:0|3:0,0:0:0:0:
157,314,45835,1,0,3:0:0:0:
288,233,45985,5,10,0:0:0:0:
288,233,46285,2,0,P|323:293|402:254,2,161.999995056153,2|10|2,3:2|0:0|3:2,0:0:0:0:
400,158,47035,2,0,L|412:243,1,80.9999975280763,0|2,3:0|0:0,0:0:0:0:
278,86,47335,6,0,L|290:1,1,80.9999975280763,10|0,0:0|0:0,0:0:0:0:
375,61,47635,1,2,3:2:0:0:
217,164,47785,2,0,P|177:167|136:129,1,80.9999975280763,10|0,0:0|0:0,0:0:0:0:
74,30,48085,1,0,3:0:0:0:
157,62,48235,1,0,3:0:0:0:
20,100,48385,1,10,0:0:0:0:
134,366,48685,6,0,L|151:269,1,90,6|0,3:2|0:0,0:0:0:0:
227,343,48985,2,0,L|244:246,1,90,10|0,0:0|0:0,0:0:0:0:
367,152,49285,1,2,3:2:0:0:
385,231,49435,1,0,3:0:0:0:
465,250,49585,1,2,0:0:0:0:
474,27,49735,6,0,B|405:39|405:39|385:70|385:70|300:85,1,180,10|2,0:0|3:2,0:0:0:0:
172,180,50185,2,0,L|77:161,1,90,10|0,0:0|0:0,0:0:0:0:
64,75,50485,1,0,3:0:0:0:
64,75,50635,1,0,3:0:0:0:
192,210,50785,2,0,L|337:180,1,135,10|0,0:0|0:0,0:0:0:0:
419,233,51085,6,0,P|372:238|339:200,1,90,2|0,3:2|0:0,0:0:0:0:
486,295,51385,2,0,P|457:331|406:328,1,90,10|0,0:0|0:0,0:0:0:0:
468,128,51685,1,2,3:2:0:0:
468,128,51835,2,0,P|504:156|501:207,1,90,0|2,3:0|0:0,0:0:0:0:
419,235,52135,1,8,0:0:0:0:
289,15,52285,6,0,B|244:7|244:7|208:32,1,90,2|0,0:0|3:0,0:0:0:0:
100,0,52585,2,0,B|80:41|80:41|95:83,1,90,10|0,0:0|0:0,0:0:0:0:
136,170,52885,1,2,3:2:0:0:
136,170,53035,1,0,3:0:0:0:
31,208,53185,2,0,B|75:215|75:215|117:187,1,90,10|0,0:0|0:0,0:0:0:0:
301,281,53485,6,0,B|411:288|355:354|477:356,1,180,2|8,3:2|0:0,0:0:0:0:
483,184,53935,2,0,B|383:192|431:251|325:258,1,180,2|0,0:0|3:0,0:0:0:0:
242,193,54385,1,2,0:0:0:0:
404,74,54535,1,8,0:0:0:0:
326,31,54685,6,0,P|308:74|329:115,1,90,2|0,0:0|3:0,0:0:0:0:
483,184,54985,1,10,0:0:0:0:
483,184,55135,2,0,P|438:198|421:241,2,90,2|0|0,0:0|3:0|3:0,0:0:0:0:
328,343,55585,5,10,0:0:0:0:
245,299,55735,1,2,0:0:0:0:
115,372,55885,2,0,P|49:374|8:312,1,135,2|0,3:2|0:0,0:0:0:0:
146,202,56185,6,0,L|159:299,1,90,10|0,0:0|0:0,0:0:0:0:
115,372,56485,1,0,3:0:0:0:
245,299,56635,1,0,3:0:0:0:
275,316,56785,1,2,0:0:0:0:
114,163,56935,6,0,L|120:113,1,45,10|0,0:0|0:0,0:0:0:0:
120,119,58285,6,0,B|107:103|82:103|82:103|176:94|128:207|276:163,1,215.999993408203,4|8,3:2|0:0,0:0:0:0:
319,124,58735,1,2,0:0:0:0:
205,305,58885,1,2,3:2:0:0:
179,322,59035,1,0,3:0:0:0:
425,362,59185,1,10,0:0:0:0:
512,239,59335,6,0,P|439:234|432:365,1,215.999993408203,0|0,3:0|3:0,0:0:0:0:
470,300,59785,1,8,0:0:0:0:
270,248,59935,2,0,P|226:259|163:280,1,107.999996704102,2|0,0:0|3:0,0:0:0:0:
33,149,60235,1,2,3:2:0:0:
187,191,60385,1,10,0:0:0:0:
16,162,60535,1,2,0:0:0:0:
222,75,60685,1,2,3:2:0:0:
222,75,60985,5,10,0:0:0:0:
65,9,61135,2,0,P|81:61|94:114,1,107.999996704102,2|0,0:0|3:0,0:0:0:0:
183,373,61435,1,2,3:2:0:0:
250,264,61585,1,8,0:0:0:0:
21,262,61735,2,0,P|85:239|185:206,1,161.999995056153,2|0,3:2|0:0,0:0:0:0:
188,205,62035,1,0,3:0:0:0:
289,197,62185,6,0,P|278:145|234:117,1,107.999996704102,10|0,0:0|0:0,0:0:0:0:
413,92,62485,2,0,P|337:89|314:17,1,161.999995056153,2|0,3:2|0:0,0:0:0:0:
432,97,62785,2,0,P|385:120|394:223,1,161.999995056153,10|0,0:0|0:0,0:0:0:0:
491,307,63085,1,6,3:2:0:0:
491,307,63385,6,0,P|500:253|512:201,1,107.999996704102,10|0,0:0|0:0,0:0:0:0:
327,273,63685,1,2,3:2:0:0:
398,377,63835,1,0,3:0:0:0:
379,164,63985,1,10,0:0:0:0:
200,264,64135,2,0,P|219:333|235:392,1,107.999996704102,2|0,3:2|0:0,0:0:0:0:
398,85,64435,5,2,3:2:0:0:
256,160,64585,2,0,P|193:153|134:146,1,107.999996704102,8|0,0:0|0:0,0:0:0:0:
0,53,64885,1,2,3:2:0:0:
131,0,65035,1,0,3:0:0:0:
21,184,65185,2,0,P|34:256|50:355,1,161.999995056153,10|0,0:0|0:0,0:0:0:0:
51,358,65485,1,2,3:2:0:0:
51,358,65785,6,0,P|110:367|151:343,1,107.999996704102,10|0,0:0|0:0,0:0:0:0:
227,140,66085,1,2,3:2:0:0:
100,214,66235,1,2,3:2:0:0:
272,361,66385,1,8,0:0:0:0:
362,263,66535,2,0,P|303:254|262:278,1,107.999996704102,2|0,3:2|0:0,0:0:0:0:
438,384,66835,5,2,3:2:0:0:
506,195,66985,1,8,0:0:0:0:
481,172,67135,1,2,0:0:0:0:
429,321,67285,6,0,P|431:347|441:372,1,53.9999983520508,0|0,3:0|0:0,0:0:0:0:
336,230,67435,2,0,P|320:252|312:277,1,53.9999983520508,0|0,3:0|0:0,0:0:0:0:
336,119,67585,2,0,P|310:126|287:140,1,53.9999983520508,10|0,0:0|0:0,0:0:0:0:
393,53,67735,2,0,P|368:41|341:38,1,53.9999983520508
418,126,67885,5,6,3:2:0:0:
418,126,68185,1,8,0:0:0:0:
206,83,68335,1,2,0:0:0:0:
267,271,68485,1,2,3:2:0:0:
277,247,68635,1,0,3:0:0:0:
39,340,68785,1,10,0:0:0:0:
4,239,68935,2,0,B|102:232|113:324|217:305,1,215.999993408203,0|0,3:0|3:0,0:0:0:0:
299,304,69385,1,8,0:0:0:0:
448,260,69535,6,0,P|437:318|429:368,1,107.999996704102,2|0,0:0|3:0,0:0:0:0:
333,174,69835,1,2,3:2:0:0:
487,144,69985,1,10,0:0:0:0:
321,197,70135,1,2,0:0:0:0:
407,23,70285,2,0,P|459:35|512:48,1,107.999996704102,2|0,3:2|0:0,0:0:0:0:
278,84,70585,5,10,0:0:0:0:
137,56,70735,2,0,P|123:107|148:154,1,107.999996704102,2|0,0:0|3:0,0:0:0:0:
300,260,71035,1,2,3:2:0:0:
324,247,71185,1,8,0:0:0:0:
162,374,71335,2,0,P|101:356|49:346,1,107.999996704102,2|0,3:2|0:0,0:0:0:0:
1,242,71635,1,2,3:2:0:0:
165,384,71785,2,0,P|104:366|52:356,1,107.999996704102,8|0,0:0|0:0,0:0:0:0:
171,174,72085,5,2,3:2:0:0:
150,281,72235,1,0,3:0:0:0:
188,73,72385,1,10,0:0:0:0:
188,73,72685,6,0,B|256:82|256:82|300:154|300:154|368:161,1,215.999993408203,6|8,3:2|0:0,0:0:0:0:
477,175,73135,1,2,0:0:0:0:
296,240,73285,2,0,P|271:295|345:349,1,161.999995056153,2|0,3:2|0:0,0:0:0:0:
350,358,73585,2,0,P|401:342|445:311,1,107.999996704102,8|2,0:0|3:2,0:0:0:0:
291,117,73885,5,2,0:0:0:0:
178,58,74035,1,0,3:0:0:0:
358,2,74185,5,10,0:0:0:0:
168,83,74335,1,0,0:0:0:0:
459,205,74485,5,2,3:2:0:0:
98,160,74635,1,0,3:0:0:0:
300,192,74785,6,0,P|359:185|382:234,1,108,10|0,0:0|0:0,0:0:0:0:
451,303,75085,6,0,B|338:293|358:373|237:359,1,215.999993408203,2|8,3:2|0:0,0:0:0:0:
168,313,75535,1,2,0:0:0:0:
300,192,75685,1,2,3:2:0:0:
319,174,75835,1,0,3:0:0:0:
102,48,75985,2,0,P|122:108|137:156,1,107.999996704102,8|2,0:0|3:2,0:0:0:0:
24,227,76285,5,10,3:2:0:0:
24,227,76360,1,8,0:0:0:0:
24,227,76435,2,0,P|12:189|5:169,1,53.9999983520508,8|8,0:0|0:0,0:0:0:0:
177,357,76585,1,8,3:2:0:0:
177,357,76660,1,8,0:0:0:0:
177,357,76735,2,0,P|165:319|158:299,1,53.9999983520508,8|8,0:0|0:0,0:0:0:0:
192,68,76885,5,8,3:2:0:0:
233,47,76960,1,8,0:0:0:0:
277,44,77035,1,8,0:0:0:0:
323,54,77110,1,8,0:0:0:0:
362,77,77185,1,8,3:2:0:0:
392,112,77260,1,8,0:0:0:0:
410,155,77335,1,8,0:0:0:0:
414,200,77410,1,8,0:0:0:0:
403,246,77485,1,6,3:2:0:0:
403,246,77785,5,10,0:0:0:0:
299,190,77935,1,0,3:0:0:0:
435,367,78085,1,10,0:0:0:0:
324,317,78235,2,0,P|371:336|417:357,1,99.0000030212403,2|0,3:2|0:0,0:0:0:0:
494,303,78535,5,10,0:0:0:0:
494,303,78835,1,2,3:2:0:0:
445,127,78985,1,10,0:0:0:0:
433,163,79135,1,0,0:0:0:0:
266,17,79285,5,2,3:2:0:0:
307,207,79435,1,0,3:0:0:0:
100,144,79585,1,10,0:0:0:0:
130,126,79735,1,2,0:0:0:0:
50,317,79885,5,10,0:0:0:0:
0,209,80035,1,0,0:0:0:0:
203,84,80185,1,10,0:0:0:0:
106,14,80335,1,0,0:0:0:0:
239,68,80485,1,2,3:2:0:0:
174,213,80635,2,0,P|127:229|78:247,1,99.0000030212403,10|0,0:0|0:0,0:0:0:0:
261,256,80935,5,10,0:0:0:0:
261,256,81235,1,2,3:2:0:0:
416,298,81385,1,10,0:0:0:0:
368,138,81535,1,8,0:0:0:0:
368,138,81610,1,8,0:0:0:0:
368,138,81685,6,0,P|390:214|416:302,1,148.50000453186,2|0,3:2|0:0,0:0:0:0:
416,298,81985,1,10,0:0:0:0:
510,333,82135,1,2,3:2:0:0:
300,384,82285,5,2,0:0:0:0:
206,349,82435,1,0,3:0:0:0:
117,237,82585,5,10,0:0:0:0:
262,198,82735,1,8,0:0:0:0:
262,198,82810,1,8,0:0:0:0:
258,92,83035,5,2,3:2:0:0:
67,148,83185,1,8,0:0:0:0:
177,166,83335,2,0,P|164:118|149:70,1,99.0000030212403,2|0,3:2|0:0,0:0:0:0:
209,272,83635,1,2,3:2:0:0:
371,361,83785,1,10,0:0:0:0:
381,339,83935,1,0,0:0:0:0:
297,199,84085,5,2,3:2:0:0:
413,196,84235,2,0,P|349:203|309:206,1,99.0000030212403,2|8,3:2|0:0,0:0:0:0:
482,119,84535,1,2,0:0:0:0:
268,281,84685,6,0,P|201:290|174:365,1,148.50000453186,4|0,3:2|0:0,0:0:0:0:
177,371,84985,1,10,0:0:0:0:
136,218,85135,1,8,0:0:0:0:
136,218,85210,1,8,0:0:0:0:
136,218,85285,1,2,3:2:0:0:
336,61,85435,1,2,3:2:0:0:
336,61,85735,5,10,0:0:0:0:
141,227,85885,6,0,B|150:285|150:285|154:289|154:289|164:352,1,121.500000463486,10|0,0:0|0:0,0:0:0:0:
241,335,86110,2,0,B|232:278|232:278|228:274|228:274|219:216,1,121.500000463486,10|0,0:0|0:0,0:0:0:0:
172,150,86335,1,10,0:0:0:0:
271,12,86485,6,0,P|190:29|171:87,1,121.500000463486,10|0,0:0|0:0,0:0:0:0:
74,105,86710,2,0,P|112:149|171:150,1,121.500000463486,10|0,0:0|0:0,0:0:0:0:
296,205,86935,1,10,0:0:0:0:
343,139,87085,5,2,0:0:0:0:
111,83,96385,5,0,0:0:0:0:
172,150,96685,2,0,P|182:196|191:242,1,90,2|2,0:0|0:0,0:0:0:0:
65,368,97285,2,0,P|75:322|84:276,1,90
176,351,97735,2,0,P|219:357|257:328,1,90,2|2,0:0|0:0,0:0:0:0:
190,238,98185,1,0,0:0:0:0:
365,103,99085,6,0,P|407:88|452:61,2,90,2|2|0,0:0|0:0|0:0,0:0:0:0:
293,69,99835,1,2,0:0:0:0:
196,51,100135,6,0,P|238:66|283:93,1,90,2|2,0:0|0:0,0:0:0:0:
312,172,100585,2,0,L|305:228,1,45,0|2,0:0|0:0,0:0:0:0:
401,130,100885,2,0,L|356:95,1,45,2|0,0:0|0:0,0:0:0:0:
403,234,101185,1,2,0:0:0:0:
403,234,101335,2,0,L|451:224,1,45,0|2,0:0|0:0,0:0:0:0:
321,349,102385,5,0,0:0:0:0:
321,349,102535,2,0,L|225:331,1,90,2|2,0:0|0:0,0:0:0:0:
233,206,102985,2,0,L|253:264,1,45,0|2,0:0|0:0,0:0:0:0:
140,311,103285,2,0,L|180:263,1,45,2|0,0:0|0:0,0:0:0:0:
232,332,103585,1,2,0:0:0:0:
95,366,103735,6,0,P|90:323|75:273,1,90
14,210,104185,2,0,P|17:187|23:166,1,45,2|2,0:0|0:0,0:0:0:0:
311,110,105985,5,0,0:0:0:0:
273,38,106285,6,0,P|302:27|342:37,1,62.9999980773926,2|0,0:0|1:0,0:0:0:0:
392,113,106585,2,0,P|387:143|358:173,1,62.9999980773926,2|2,0:0|1:2,0:0:0:0:
267,177,106885,2,0,P|242:157|231:117,1,62.9999980773926,0|2,0:0|1:2,0:0:0:0:
311,110,107185,1,0,0:0:0:0:
425,228,107335,2,0,L|407:358,1,125.999996154785,2|2,1:2|1:2,0:0:0:0:
326,384,107785,5,0,0:0:0:0:
326,384,107935,1,2,1:2:0:0:
235,280,108085,1,2,0:0:0:0:
235,280,108235,1,0,1:0:0:0:
143,311,108385,1,2,0:0:0:0:
143,311,108535,1,0,0:0:0:0:
40,200,108685,6,0,P|70:198|103:172,1,62.9999980773926,2|0,0:0|1:0,0:0:0:0:
52,41,108985,2,0,P|38:68|43:109,1,62.9999980773926,2|2,0:0|1:2,0:0:0:0:
183,130,109285,2,0,P|166:104|127:88,1,62.9999980773926,0|2,0:0|1:2,0:0:0:0:
192,230,109585,1,0,0:0:0:0:
192,230,109735,1,2,1:2:0:0:
340,144,109885,6,0,L|322:14,1,125.999996154785
424,48,110335,1,2,1:2:0:0:
340,144,110485,2,0,L|261:133,1,62.9999980773926,2|0,0:0|1:0,0:0:0:0:
410,222,110785,2,0,L|489:211,1,62.9999980773926,2|0,0:0|0:0,0:0:0:0:
336,314,111085,6,0,P|276:298|219:340,1,125.999996154785,2|2,0:0|0:0,0:0:0:0:
291,383,111535,1,2,1:2:0:0:
426,333,111685,2,0,P|442:273|409:221,2,125.999996154785
337,179,112585,6,0,L|275:190,1,62.9999980773926,0|2,0:0|1:2,0:0:0:0:
205,268,112885,2,0,L|267:279,1,62.9999980773926,2|0,0:0|1:0,0:0:0:0:
171,164,113185,2,0,L|109:175,1,62.9999980773926,2|0,0:0|0:0,0:0:0:0:
24,340,113485,6,0,P|76:331|105:254,1,125.999996154785,2|2,0:0|0:0,0:0:0:0:
28,222,113935,1,2,1:2:0:0:
171,164,114085,2,0,B|194:107|194:107|164:47,1,125.999996154785
71,109,114535,1,2,1:2:0:0:
165,49,114685,6,0,P|196:46|229:70,1,62.9999980773926,0|2,0:0|1:2,0:0:0:0:
295,178,114985,2,0,P|276:152|281:112,1,62.9999980773926,0|2,0:0|1:2,0:0:0:0:
342,1,115285,2,0,P|329:29|291:45,1,62.9999980773926,2|0,0:0|1:0,0:0:0:0:
360,108,115585,2,0,L|473:96,1,94.499997116089,2|0,0:0|0:0,0:0:0:0:
467,109,115885,6,0,P|390:116|347:122,1,121.499996292114,2|0,3:2|0:0,0:0:0:0:
328,126,116185,1,10,0:0:0:0:
409,207,116335,1,0,3:0:0:0:
409,207,116410,1,8,0:0:0:0:
409,207,116485,1,2,3:2:0:0:
415,295,116635,1,0,3:0:0:0:
495,251,116785,1,2,0:0:0:0:
331,263,116935,6,0,P|289:289|309:356,1,121.499996292114,10|0,0:0|0:0,0:0:0:0:
315,359,117235,1,2,3:2:0:0:
239,219,117385,2,0,P|183:223|132:228,1,80.9999975280763,10|0,0:0|3:0,0:0:0:0:
135,230,117610,1,8,0:0:0:0:
135,230,117685,1,0,3:0:0:0:
29,236,117835,1,0,3:0:0:0:
133,312,117985,2,0,P|193:306|254:302,1,121.499996292114,10|0,0:0|0:0,0:0:0:0:
275,301,118285,1,2,3:2:0:0:
275,301,118585,5,10,0:0:0:0:
328,210,118735,1,0,3:0:0:0:
328,210,118810,1,8,0:0:0:0:
328,210,118885,1,2,3:2:0:0:
215,219,119035,1,0,3:0:0:0:
256,126,119185,1,2,0:0:0:0:
255,116,119335,1,8,0:0:0:0:
276,308,119485,6,0,P|317:319|400:343,1,121.499996292114,2|0,0:0|0:0,0:0:0:0:
408,349,119785,1,10,0:0:0:0:
473,276,119935,1,2,3:2:0:0:
473,276,120010,1,8,0:0:0:0:
473,276,120085,1,0,3:0:0:0:
506,361,120235,1,0,3:0:0:0:
432,174,120385,1,10,0:0:0:0:
432,174,120685,6,0,P|420:125|355:102,1,121.499996292114,6|0,3:2|0:0,0:0:0:0:
345,104,120985,1,10,0:0:0:0:
266,141,121135,1,0,3:0:0:0:
266,141,121210,1,8,0:0:0:0:
266,141,121285,1,2,3:2:0:0:
221,213,121435,2,0,P|250:267|268:305,1,80.9999975280763,0|2,3:0|0:0,0:0:0:0:
167,148,121735,6,0,P|117:160|41:180,1,121.499996292114,10|0,0:0|0:0,0:0:0:0:
34,179,122035,2,0,P|11:133|29:101,1,80.9999975280763,2|8,3:2|0:0,0:0:0:0:
115,36,122335,1,2,3:2:0:0:
115,36,122410,1,8,0:0:0:0:
115,36,122485,1,0,3:0:0:0:
175,133,122635,1,0,3:0:0:0:
38,249,122785,1,10,0:0:0:0:
38,249,123085,6,0,P|42:299|51:393,1,121.499996292114,2|0,3:2|0:0,0:0:0:0:
49,380,123385,1,10,0:0:0:0:
136,307,123535,1,0,3:0:0:0:
136,307,123610,1,8,0:0:0:0:
136,307,123685,2,0,P|191:314|222:318,1,80.9999975280763,2|0,3:2|3:0,0:0:0:0:
322,332,123985,1,2,0:0:0:0:
384,244,124135,6,0,P|327:212|270:232,1,121.499996292114,10|0,0:0|0:0,0:0:0:0:
267,240,124435,1,2,3:2:0:0:
322,340,124585,1,10,0:0:0:0:
447,382,124735,1,0,3:0:0:0:
447,382,124810,1,8,0:0:0:0:
447,382,124885,2,0,P|452:328|456:293,1,80.9999975280763,0|0,3:0|3:0,0:0:0:0:
512,143,125185,2,0,P|507:183|504:223,1,80.9999975280763,10|10,0:0|0:0,0:0:0:0:
384,244,125485,1,2,3:2:0:0:
384,244,125785,5,10,0:0:0:0:
311,176,125935,1,0,3:0:0:0:
311,176,126010,1,8,0:0:0:0:
311,176,126085,1,2,3:2:0:0:
409,147,126235,1,0,3:0:0:0:
387,253,126385,1,2,0:0:0:0:
230,227,126535,6,0,P|224:180|212:91,1,135,10|0,0:0|0:0,0:0:0:0:
210,75,126835,1,2,3:2:0:0:
133,168,126985,1,10,0:0:0:0:
308,149,127135,1,0,3:0:0:0:
308,149,127210,1,8,0:0:0:0:
308,149,127285,1,0,3:0:0:0:
125,169,127435,1,0,3:0:0:0:
233,236,127585,1,10,0:0:0:0:
233,236,127885,6,0,P|280:252|320:267,1,90,2|0,3:2|0:0,0:0:0:0:
202,327,128185,2,0,P|249:343|289:358,1,90,10|0,0:0|3:0,0:0:0:0:
296,361,128410,1,8,0:0:0:0:
296,361,128485,1,2,3:2:0:0:
124,364,128635,1,0,3:0:0:0:
202,312,128785,1,2,0:0:0:0:
119,270,128935,1,8,0:0:0:0:
37,317,129085,6,0,P|32:272|26:227,1,90,2|0,0:0|3:0,0:0:0:0:
113,47,129385,2,0,P|107:91|102:136,1,90,10|0,0:0|3:0,0:0:0:0:
105,150,129610,1,8,0:0:0:0:
105,150,129685,1,2,3:2:0:0:
0,87,129835,1,0,3:0:0:0:
179,190,129985,1,10,0:0:0:0:
179,190,130285,6,0,B|276:184|249:256|372:230,1,180,6|8,3:2|0:0,0:0:0:0:
346,124,130735,1,2,3:2:0:0:
346,124,130810,1,8,0:0:0:0:
346,124,130885,1,0,3:2:0:0:
359,235,131035,1,0,3:0:0:0:
469,193,131185,2,0,P|457:255|450:288,1,90,2|8,0:0|0:0,0:0:0:0:
504,111,131485,6,0,P|459:94|389:144,1,135,2|0,0:0|0:0,0:0:0:0:
391,151,131785,1,10,0:0:0:0:
469,193,131935,1,2,3:2:0:0:
469,193,132010,1,8,0:0:0:0:
469,193,132085,1,0,3:0:0:0:
450,274,132235,1,0,3:0:0:0:
289,213,132385,5,10,0:0:0:0:
438,275,132535,1,2,0:0:0:0:
207,340,132685,5,10,3:2:0:0:
185,345,132760,1,8,0:0:0:0:
163,350,132835,1,8,0:0:0:0:
141,355,132910,1,8,0:0:0:0:
117,359,132985,5,8,3:2:0:0:
86,327,133060,1,8,0:0:0:0:
82,283,133135,1,8,0:0:0:0:
107,247,133210,1,8,0:0:0:0:
150,236,133285,1,8,3:2:0:0:
192,224,133360,1,8,0:0:0:0:
217,188,133435,1,8,0:0:0:0:
213,144,133510,1,8,0:0:0:0:
182,112,133585,6,0,P|143:126|126:145,1,45,8|8,3:2|0:0,0:0:0:0:
63,73,133735,2,0,P|54:114|62:138,1,45,8|8,0:0|0:0,0:0:0:0:
107,247,133885,1,2,0:0:0:0:
107,247,135085,6,0,B|181:232|181:232|252:261|252:261|321:247,1,215.999993408203,4|8,3:2|0:0,0:0:0:0:
260,46,135535,1,2,0:0:0:0:
204,0,135685,2,0,L|223:116,1,107.999996704102,2|0,3:2|3:0,0:0:0:0:
49,202,135985,1,10,0:0:0:0:
107,247,136135,6,0,L|89:140,1,107.999996704102,0|0,3:0|0:0,0:0:0:0:
144,75,136435,1,0,3:0:0:0:
295,200,136585,1,8,0:0:0:0:
365,142,136735,2,0,P|394:192|362:255,1,107.999996704102,2|0,0:0|3:0,0:0:0:0:
174,379,137035,5,2,3:2:0:0:
227,306,137185,1,10,0:0:0:0:
314,334,137335,1,2,0:0:0:0:
497,135,137485,2,0,B|461:176|461:176|419:125|341:146,1,161.999995056153,2|0,3:2|0:0,0:0:0:0:
381,237,137785,5,10,0:0:0:0:
161,107,137935,2,0,P|170:57|196:4,1,107.999996704102,2|0,0:0|3:0,0:0:0:0:
274,72,138235,1,2,3:2:0:0:
93,280,138385,1,8,0:0:0:0:
37,223,138535,2,0,B|158:217|101:312|254:306,1,215.999993408203,2|0,3:2|3:0,0:0:0:0:
169,375,138985,6,0,P|196:328|250:326,1,107.999996704102,10|0,0:0|0:0,0:0:0:0:
486,122,139285,1,2,3:2:0:0:
329,38,139435,1,0,3:0:0:0:
396,206,139585,6,0,L|409:273,1,67.5,10|0,0:0|0:0,0:0:0:0:
393,191,139885,6,0,P|325:191|276:106,1,161.999995056153,6|0,3:2|0:0,0:0:0:0:
447,110,140185,2,0,P|407:43|330:38,1,161.999995056153,10|0,0:0|0:0,0:0:0:0:
232,33,140485,1,2,3:2:0:0:
232,33,140635,1,0,3:0:0:0:
83,231,140785,1,10,0:0:0:0:
79,97,140935,6,0,L|103:217,1,107.999996704102,2|0,3:2|0:0,0:0:0:0:
12,329,141235,2,0,L|132:353,1,107.999996704102,2|8,3:2|0:0,0:0:0:0:
240,325,141535,1,2,0:0:0:0:
366,266,141685,5,2,3:2:0:0:
360,297,141835,1,0,3:0:0:0:
224,100,141985,6,0,L|232:28,1,67.5,10|0,0:0|0:0,0:0:0:0:
233,22,142285,1,2,3:2:0:0:
233,22,142585,5,10,0:0:0:0:
309,147,142735,1,0,0:0:0:0:
226,191,142885,1,2,3:2:0:0:
349,64,143035,2,0,B|406:60|400:94|451:92,1,107.999996704102,2|8,3:2|0:0,0:0:0:0:
503,186,143335,1,2,3:2:0:0:
503,186,143410,1,0,0:0:0:0:
503,186,143485,5,0,0:0:0:0:
308,254,143635,1,2,3:2:0:0:
185,101,143785,1,8,0:0:0:0:
219,84,143935,1,2,0:0:0:0:
54,33,144085,6,0,P|72:57|111:73,1,53.9999983520508,0|0,3:0|0:0,0:0:0:0:
0,198,144235,2,0,P|27:209|69:204,1,53.9999983520508,2|0,3:2|0:0,0:0:0:0:
68,310,144385,2,0,P|97:306|131:280,1,53.9999983520508,10|0,0:0|0:0,0:0:0:0:
188,346,144535,2,0,P|199:318|194:276,1,53.9999983520508
195,278,144685,1,6,3:2:0:0:
195,278,144985,5,8,0:0:0:0:
345,138,145135,1,2,0:0:0:0:
389,196,145285,2,0,L|271:175,1,107.999996704102,2|0,3:2|3:0,0:0:0:0:
359,341,145585,2,0,L|477:320,1,107.999996704102,10|0,0:0|3:0,0:0:0:0:
480,181,145885,5,0,0:0:0:0:
397,207,146035,1,0,3:0:0:0:
345,138,146185,1,8,0:0:0:0:
169,186,146335,2,0,B|224:199|224:199|286:167,1,107.999996704102,2|0,0:0|3:0,0:0:0:0:
34,143,146635,5,2,3:2:0:0:
117,117,146785,1,10,0:0:0:0:
169,186,146935,1,2,0:0:0:0:
94,374,147085,6,0,B|124:328|124:328|82:214,1,161.999995056153,2|0,3:2|0:0,0:0:0:0:
81,214,147385,1,10,0:0:0:0:
184,79,147535,2,0,L|167:193,1,107.999996704102,2|0,0:0|3:0,0:0:0:0:
450,313,147835,2,0,L|359:241,1,107.999996704102,2|8,3:2|0:0,0:0:0:0:
157,311,148135,6,0,L|264:268,1,107.999996704102,2|0,3:2|0:0,0:0:0:0:
387,112,148435,2,0,L|286:152,1,107.999996704102,2|8,3:2|0:0,0:0:0:0:
266,268,148735,1,0,0:0:0:0:
450,313,148885,5,2,3:2:0:0:
438,341,149035,1,0,3:0:0:0:
472,151,149185,2,0,P|440:105|377:111,1,107.999996704102,10|0,0:0|0:0,0:0:0:0:
98,0,149485,6,0,B|112:93|112:93|130:109|130:109|147:207,1,215.999993408203,6|8,3:2|0:0,0:0:0:0:
161,289,149935,1,2,0:0:0:0:
359,372,150085,2,0,B|369:299|369:299|383:287|383:287|395:212,1,161.999995056153,2|0,3:2|0:0,0:0:0:0:
391,102,150385,2,0,B|384:148|384:148|394:167|394:167|387:209,1,107.999996704102,8|2,0:0|3:2,0:0:0:0:
287,243,150685,5,2,0:0:0:0:
229,162,150835,1,0,3:0:0:0:
393,90,150985,5,10,0:0:0:0:
186,254,151135,1,0,0:0:0:0:
138,8,151285,5,2,3:2:0:0:
402,227,151435,1,0,3:0:0:0:
142,339,151585,2,0,L|35:324,1,107.999996704102,10|0,0:0|0:0,0:0:0:0:
286,243,151885,6,0,L|256:29,1,215.999993408203,2|8,3:2|0:0,0:0:0:0:
364,94,152335,1,2,0:0:0:0:
168,192,152485,5,2,3:2:0:0:
132,184,152635,1,0,3:0:0:0:
387,334,152785,2,0,L|402:224,1,107.999996704102,8|2,0:0|3:2,0:0:0:0:
433,42,153085,5,10,3:2:0:0:
433,42,153160,1,8,0:0:0:0:
433,42,153235,2,0,L|380:56,1,53.9999983520508,8|8,0:0|0:0,0:0:0:0:
250,129,153385,1,8,3:2:0:0:
250,129,153460,1,8,0:0:0:0:
250,129,153535,2,0,L|303:143,1,53.9999983520508,8|8,0:0|0:0,0:0:0:0:
222,359,153685,5,8,3:2:0:0:
181,380,153760,1,8,0:0:0:0:
137,383,153835,1,8,0:0:0:0:
91,373,153910,1,8,0:0:0:0:
52,350,153985,1,8,3:2:0:0:
22,315,154060,1,8,0:0:0:0:
4,272,154135,1,8,0:0:0:0:
0,227,154210,1,8,0:0:0:0:
11,181,154285,5,14,0:0:0:0:
224,97,154435,1,0,0:0:0:0:
190,181,154585,5,10,0:0:0:0:
71,52,154735,1,0,3:0:0:0:
282,167,154885,5,10,0:0:0:0:
274,198,155035,1,2,3:2:0:0:
447,37,155185,5,10,0:0:0:0:
485,190,155335,1,0,3:0:0:0:
405,202,155485,2,0,L|504:215,1,99.0000030212403,10|0,0:0|3:0,0:0:0:0:
216,266,155785,5,10,0:0:0:0:
397,171,155935,1,0,3:0:0:0:
389,344,156085,5,10,0:0:0:0:
344,332,156235,1,0,3:0:0:0:
356,287,156385,1,10,0:0:0:0:
400,299,156535,1,0,3:0:0:0:
191,362,156685,5,2,3:2:0:0:
66,296,156835,1,2,3:2:0:0:
191,45,156985,6,0,L|208:164,1,99.0000030212403,10|0,0:0|3:0,0:0:0:0:
66,296,157285,2,0,L|83:177,1,99.0000030212403,10|0,0:0|3:0,0:0:0:0:
204,256,157585,5,10,0:0:0:0:
246,249,157735,1,2,3:2:0:0:
417,43,157885,5,10,0:0:0:0:
242,129,158035,1,0,3:0:0:0:
352,194,158185,5,10,0:0:0:0:
204,256,158335,1,0,3:0:0:0:
315,300,158485,1,10,0:0:0:0:
80,197,158635,5,0,3:0:0:0:
125,163,158785,1,10,0:0:0:0:
178,183,158935,1,0,3:0:0:0:
353,114,159085,5,6,3:2:0:0:
178,183,159235,1,2,0:0:0:0:
266,212,159385,1,8,0:0:0:0:
101,13,159535,1,2,3:2:0:0:
192,85,159685,2,0,L|177:183,1,99.0000030212403,10|0,0:0|3:0,0:0:0:0:
6,382,159985,5,10,0:0:0:0:
104,302,160135,2,0,L|89:204,1,99.0000030212403,2|8,3:2|0:0,0:0:0:0:
235,333,160435,5,2,3:2:0:0:
274,342,160585,1,10,0:0:0:0:
386,299,160735,1,2,3:2:0:0:
346,142,160885,5,10,0:0:0:0:
308,261,161035,1,0,3:0:0:0:
243,52,161185,5,10,0:0:0:0:
426,223,161335,1,2,3:2:0:0:
465,111,161485,5,2,3:2:0:0:
308,261,161635,1,2,3:2:0:0:
426,223,161785,1,10,0:0:0:0:
251,39,161935,1,2,3:2:0:0:
141,199,162085,5,10,0:0:0:0:
389,343,162235,1,2,3:2:0:0:
205,283,162385,1,10,0:0:0:0:
320,259,162535,1,2,3:2:0:0:
70,371,162685,5,10,0:0:0:0:
214,275,162835,1,2,3:2:0:0:
133,87,162985,1,10,0:0:0:0:
221,270,163135,1,2,3:2:0:0:
20,217,163285,5,10,0:0:0:0:
227,265,163435,1,2,3:2:0:0:
345,15,163585,1,10,0:0:0:0:
256,91,163735,1,2,3:2:0:0:
250,81,163885,5,2,0:0:0:0:
165,166,173185,6,0,P|172:205|173:214,1,40.4999987640381
156,92,173485,6,0,B|222:87|218:138|289:121,1,135,2|2,0:0|0:0,0:0:0:0:
355,130,174085,2,0,P|343:77|264:54,1,135,0|2,0:0|0:0,0:0:0:0:
283,122,174685,2,0,P|285:157|290:268,1,135,0|2,0:0|0:0,0:0:0:0:
392,274,175285,2,0,P|386:305|383:327,1,45,2|0,0:0|0:0,0:0:0:0:
298,261,175585,2,0,P|296:237|293:215,1,45,2|0,0:0|0:0,0:0:0:0:
311,363,175885,5,2,0:0:0:0:
204,265,176185,1,2,0:0:0:0:
204,265,176335,2,0,P|244:268|299:277,1,90,2|2,0:0|0:0,0:0:0:0:
139,330,176785,2,0,P|110:336|67:348,1,67.5
55,358,177085,6,0,P|44:292|32:226,2,135,0|2|2,0:0|0:0|0:0,0:0:0:0:
32,226,178285,5,2,0:0:0:0:
8,144,178585,1,2,0:0:0:0:
8,144,178735,2,0,P|61:137|105:133,1,90,2|2,0:0|0:0,0:0:0:0:
179,105,179185,2,0,P|179:79|147:47,1,67.5
179,120,179485,6,0,P|174:157|157:264,1,135,0|2,0:0|0:0,0:0:0:0:
76,247,180085,2,0,P|85:287|90:310,1,45,2|0,0:0|0:0,0:0:0:0:
216,347,180385,2,0,P|221:325|226:304,1,45,2|0,0:0|0:0,0:0:0:0:
382,183,180685,2,0,B|247:167|303:246|159:230,1,225,2|2,0:0|0:0,0:0:0:0:
200,143,181735,5,2,0:0:0:0:
200,143,182035,1,2,0:0:0:0:
203,69,182335,1,2,0:0:0:0:
203,69,182485,1,2,0:0:0:0:
256,192,183085,5,2,0:0:0:0:
258,192,183685,2,0,P|253:221|234:338,1,135,0|2,0:0|0:0,0:0:0:0:
335,186,184285,2,0,B|322:115|286:144|274:68,1,135,0|2,0:0|0:0,0:0:0:0:
412,112,184885,2,0,P|416:156|330:189,1,135,2|0,0:0|0:0,0:0:0:0:
238,165,185485,2,0,P|196:147|128:205,1,135,2|2,0:0|0:0,0:0:0:0:
48,211,186085,2,0,P|77:270|149:281,1,135,0|2,0:0|0:0,0:0:0:0:
194,346,186685,2,0,P|230:291|204:223,1,135,0|2,0:0|0:0,0:0:0:0:
206,226,187285,1,2,0:0:0:0:
341,309,187585,6,0,P|348:340|356:376,1,67.5,2|0,0:0|0:0,0:0:0:0:
395,253,187885,2,0,P|361:235|304:243,1,90,2|2,0:0|0:0,0:0:0:0:
75,219,188335,2,0,B|172:201|189:372|308:343,1,270,2|2,0:0|0:0,0:0:0:0:
307,343,189535,5,2,0:0:0:0:
307,343,189685,1,2,0:0:0:0:
100,308,189985,2,0,P|77:317|60:360,1,67.5,2|0,0:0|0:0,0:0:0:0:
49,374,190285,6,0,P|42:330|21:270,1,90,2|2,0:0|0:0,0:0:0:0:
33,201,190735,1,2,0:0:0:0:
256,192,190810,12,0,192535,0:0:0:0:
84,253,192685,6,0,P|120:244|160:236,1,72,0|0,3:0|0:0,0:0:0:0:
24,125,192985,2,0,P|15:161|7:201,1,72,0|0,1:0|3:0,0:0:0:0:
79,263,193285,1,0,0:0:0:0:
196,151,193435,2,0,P|187:115|179:75,1,72,0|2,0:0|1:2,0:0:0:0:
283,106,193735,6,0,B|368:103|335:165|422:157,1,144,0|0,0:0|3:0,0:0:0:0:
484,83,194185,2,0,P|449:77|405:71,1,72,0|0,1:0|0:0,0:0:0:0:
280,260,194485,2,0,P|286:222|292:181,1,72,0|0,3:0|0:0,0:0:0:0:
375,239,194785,1,2,1:2:0:0:
375,239,194935,1,0,0:0:0:0:
483,367,195085,6,0,B|431:359|431:359|412:336|412:336|334:327,1,144,0|0,3:0|1:0,0:0:0:0:
260,355,195535,1,0,3:0:0:0:
201,273,195685,2,0,P|236:270|283:263,2,72,0|0|2,0:0|0:0|1:2,0:0:0:0:
97,303,196135,6,0,P|103:264|110:212,1,72
120,144,196435,1,0,3:0:0:0:
37,99,196585,5,0,1:0:0:0:
127,147,196735,1,0,0:0:0:0:
194,8,196885,2,0,P|200:46|207:99,1,72,0|0,3:0|0:0,0:0:0:0:
221,165,197185,1,2,1:2:0:0:
221,165,197335,1,0,0:0:0:0:
356,102,197485,6,0,P|392:165|343:234,1,144,0|0,3:0|1:0,0:0:0:0:
224,285,197935,1,0,3:0:0:0:
224,285,198085,2,0,P|260:258|303:262,1,72
357,308,198385,1,2,1:2:0:0:
241,369,198535,6,0,P|204:374|165:336,1,72
55,239,198835,2,0,P|64:196|46:161,2,72,0|0|0,3:0|1:0|0:0,0:0:0:0:
46,325,199285,6,0,B|133:332|87:271|198:273,1,144,0|2,3:0|1:2,0:0:0:0:
247,315,199735,1,0,0:0:0:0:
320,213,199885,6,0,L|331:102,1,108,2|0,0:0|0:0,0:0:0:0:
330,105,200935,1,0,0:0:0:0:
344,19,201085,5,0,0:0:0:0:
265,54,201235,1,0,0:0:0:0:
186,90,201385,1,0,0:0:0:0:
118,0,201535,5,0,0:0:0:0:
118,0,201610,1,0,0:0:0:0:
118,0,201685,1,0,0:0:0:0:
264,64,201835,1,0,0:0:0:0:
294,141,201985,5,0,0:0:0:0:
305,139,202060,1,0,0:0:0:0:
316,138,202135,1,0,0:0:0:0:
327,136,202210,1,0,0:0:0:0:
338,135,202285,5,2,0:0:0:0:
186,310,203485,1,0,0:0:0:0:
66,212,204685,1,2,0:0:0:0:
345,299,205885,1,0,0:0:0:0:
431,151,207085,5,2,0:0:0:0:
355,194,208285,1,0,0:0:0:0:
171,94,209485,1,2,0:0:0:0:
456,21,210685,1,0,0:0:0:0:
433,51,211585,6,0,L|444:129,1,67.5
445,130,211885,5,4,3:2:0:0:
464,240,212185,5,0,3:0:0:0:
297,200,212335,1,0,1:0:0:0:
467,252,212485,1,0,3:0:0:0:
300,212,212785,5,0,3:0:0:0:
303,224,213085,5,0,3:0:0:0:
133,276,213235,1,0,1:0:0:0:
306,236,213385,1,0,3:0:0:0:
309,248,213685,5,0,3:0:0:0:
419,308,213835,1,0,1:0:0:0:
312,260,213985,1,0,3:0:0:0:
226,338,214135,1,0,1:0:0:0:
43,206,214285,5,0,3:0:0:0:
46,194,214585,5,0,3:0:0:0:
49,182,214885,5,0,3:0:0:0:
233,99,215035,1,0,1:0:0:0:
52,170,215185,1,0,3:0:0:0:
55,158,215485,5,0,3:0:0:0:
192,245,215635,1,0,1:0:0:0:
58,146,215785,1,0,3:0:0:0:
61,134,216085,5,0,3:0:0:0:
64,122,216385,5,0,3:0:0:0:
155,157,216535,1,0,1:0:0:0:
233,99,216685,5,0,3:0:0:0:
330,175,216985,5,0,3:0:0:0:
390,0,217285,5,0,3:0:0:0:
459,59,217585,5,0,3:0:0:0:
463,72,217885,5,0,3:0:0:0:
290,26,218035,1,0,1:0:0:0:
467,83,218185,1,0,3:0:0:0:
471,94,218485,5,0,3:0:0:0:
294,37,218635,1,0,1:0:0:0:
475,105,218785,1,0,3:0:0:0:
298,48,218935,1,0,1:0:0:0:
479,116,219085,5,0,3:0:0:0:
483,127,219385,5,0,3:0:0:0:
487,138,219685,5,0,3:0:0:0:
329,206,219835,1,0,1:0:0:0:
491,149,219985,1,0,3:0:0:0:
441,270,220285,6,0,L|374:258,1,53.9999983520508,14|8,3:2|0:0,0:0:0:0:
269,359,220435,2,0,L|322:368,1,53.9999983520508,8|8,0:0|0:0,0:0:0:0:
306,183,220585,2,0,L|252:173,1,53.9999983520508,10|8,3:2|0:0,0:0:0:0:
135,273,220735,2,0,L|188:282,1,53.9999983520508,8|8,0:0|0:0,0:0:0:0:
31,42,220885,5,10,3:2:0:0:
72,21,220960,1,8,0:0:0:0:
116,18,221035,1,8,0:0:0:0:
162,28,221110,1,8,0:0:0:0:
201,51,221185,1,10,3:2:0:0:
231,86,221260,1,8,0:0:0:0:
249,129,221335,1,8,0:0:0:0:
253,174,221410,1,8,0:0:0:0:
242,220,221485,6,0,B|177:236|177:236|151:311|151:311|63:335,1,215.999993408203,6|8,3:2|0:0,0:0:0:0:
64,204,221935,1,2,0:0:0:0:
251,361,222085,2,0,P|306:351|363:342,1,107.999996704102,2|0,3:2|3:0,0:0:0:0:
462,370,222385,1,0,0:0:0:0:
242,224,222535,1,10,0:0:0:0:
377,37,222685,2,0,P|389:91|404:149,1,107.999996704102,2|0,0:0|3:0,0:0:0:0:
243,231,222985,1,8,0:0:0:0:
65,0,223135,5,2,0:0:0:0:
213,146,223285,1,2,3:2:0:0:
213,146,223435,1,0,0:0:0:0:
15,277,223585,2,0,P|25:224|39:171,1,107.999996704102,10|0,0:0|3:0,0:0:0:0:
236,373,223885,6,0,P|253:293|270:214,1,161.999995056153,2|0,3:2|0:0,0:0:0:0:
190,220,224185,2,0,P|177:278|164:332,1,107.999996704102,10|0,0:0|0:0,0:0:0:0:
355,303,224485,1,2,3:2:0:0:
443,282,224635,1,0,3:0:0:0:
512,341,224785,1,2,0:0:0:0:
467,100,224935,6,0,B|380:103|425:168|314:173,1,161.999995056153,10|0,0:0|0:0,0:0:0:0:
311,172,225235,1,2,3:2:0:0:
215,0,225385,2,0,P|223:57|228:112,1,107.999996704102,8|0,0:0|3:0,0:0:0:0:
256,348,225685,5,2,3:2:0:0:
256,348,225985,1,10,0:0:0:0:
156,158,226135,1,0,3:0:0:0:
27,373,226285,6,0,P|38:306|56:193,1,161.999995056153,6|0,3:2|0:0,0:0:0:0:
72,135,226585,2,0,P|19:101|-17:144,1,107.999996704102,10|0,0:0|0:0,0:0:0:0:
229,65,226885,1,2,3:2:0:0:
246,48,227035,1,0,3:0:0:0:
322,247,227185,1,14,0:0:0:0:
469,113,227335,6,0,B|448:94|413:104|413:104|393:169|322:183|271:140,1,215.999993408203,10|2,0:0|0:0,0:0:0:0:
109,183,227785,2,0,P|112:131|159:112,1,107.999996704102,10|0,0:0|3:0,0:0:0:0:
322,247,228085,2,0,P|335:308|343:359,1,107.999996704102,2|0,3:2|0:0,0:0:0:0:
237,313,228385,1,10,0:0:0:0:
431,277,228535,1,0,3:0:0:0:
131,333,228685,1,2,3:2:0:0:
131,333,228985,6,0,P|73:344|11:358,1,107.999996704102,10|0,0:0|0:0,0:0:0:0:
49,201,229285,1,2,3:2:0:0:
81,122,229435,1,2,3:2:0:0:
25,60,229585,1,0,0:0:0:0:
219,221,229735,6,0,P|286:234|348:158,1,161.999995056153,10|0,0:0|0:0,0:0:0:0:
346,157,230035,1,2,3:2:0:0:
173,113,230185,1,8,0:0:0:0:
356,0,230335,1,2,3:2:0:0:
425,193,230485,5,0,3:0:0:0:
425,193,230785,1,10,0:0:0:0:
512,121,230935,1,0,0:0:0:0:
333,297,231085,6,0,B|211:287|262:377|130:358,1,215.999993408203,6|8,3:2|0:0,0:0:0:0:
128,357,231535,1,2,0:0:0:0:
73,172,231685,1,2,3:2:0:0:
63,145,231835,1,0,3:0:0:0:
137,371,231985,1,2,0:0:0:0:
228,230,232135,6,0,B|236:155|236:155|231:144|231:144|240:62,1,161.999995056153,8|0,0:0|0:0,0:0:0:0:
241,50,232435,1,0,3:0:0:0:
69,128,232585,1,8,0:0:0:0:
322,218,232735,2,0,B|328:161|328:161|324:153|324:153|328:111,1,107.999996704102,2|0,3:2|3:0,0:0:0:0:
497,0,233035,1,2,0:0:0:0:
431,48,233185,1,10,0:0:0:0:
505,86,233335,1,0,3:0:0:0:
512,258,233485,6,0,B|418:274|464:318|349:327,1,161.999995056153,2|0,3:2|0:0,0:0:0:0:
352,323,233785,1,8,0:0:0:0:
421,203,233935,1,2,0:0:0:0:
282,364,234085,1,2,3:2:0:0:
277,378,234235,1,0,3:0:0:0:
209,226,234385,1,2,0:0:0:0:
1,366,234535,6,0,P|15:286|29:206,1,161.999995056153,10|0,0:0|0:0,0:0:0:0:
32,184,234835,1,2,3:2:0:0:
233,138,234985,1,8,0:0:0:0:
110,306,235135,1,0,0:0:0:0:
47,93,235285,6,0,P|37:42|69:0,1,107.999996704102,2|0,3:2|0:0,0:0:0:0:
315,79,235585,1,10,0:0:0:0:
184,63,235735,1,0,3:0:0:0:
225,240,235885,6,0,B|296:231|296:231|354:283|354:283|436:271,1,215.999993408203,6|8,3:2|0:0,0:0:0:0:
508,252,236335,1,2,0:0:0:0:
178,171,236485,2,0,P|137:124|172:32,1,161.999995056153,2|0,3:2|0:0,0:0:0:0:
181,28,236785,2,0,P|224:55|211:104,1,107.999996704102,0|10,0:0|0:0,0:0:0:0:
157,321,237085,5,2,0:0:0:0:
74,242,237235,1,0,3:0:0:0:
263,211,237385,5,10,0:0:0:0:
96,368,237535,1,0,0:0:0:0:
64,64,237685,5,2,3:2:0:0:
311,285,237835,1,0,0:0:0:0:
448,117,237985,6,0,P|394:125|341:134,1,107.999996704102,10|0,0:0|0:0,0:0:0:0:
295,150,238285,6,0,B|414:169|377:68|489:78,1,215.999993408203,2|8,3:2|0:0,0:0:0:0:
254,38,238735,1,2,0:0:0:0:
353,224,238885,1,0,3:0:0:0:
367,245,239035,1,0,3:0:0:0:
205,193,239185,1,2,0:0:0:0:
450,224,239335,1,8,0:0:0:0:
234,361,239485,5,10,3:2:0:0:
234,361,239560,1,8,0:0:0:0:
234,361,239635,2,0,P|193:380|179:389,1,53.9999983520508,8|8,0:0|0:0,0:0:0:0:
48,286,239785,1,8,3:2:0:0:
48,286,239860,1,8,0:0:0:0:
48,286,239935,2,0,P|7:305|-7:314,1,53.9999983520508,8|8,0:0|0:0,0:0:0:0:
75,64,240085,5,8,3:2:0:0:
116,47,240160,1,8,0:0:0:0:
159,63,240235,1,8,0:0:0:0:
181,101,240310,1,8,0:0:0:0:
173,144,240385,1,8,3:2:0:0:
165,188,240460,1,8,0:0:0:0:
188,227,240535,1,8,0:0:0:0:
229,242,240610,1,8,0:0:0:0:
271,227,240685,5,6,3:2:0:0:
455,191,240835,1,0,0:0:0:0:
501,324,240985,1,10,0:0:0:0:
469,315,241135,1,0,3:0:0:0:
375,126,241285,1,10,0:0:0:0:
258,138,241435,2,0,L|357:147,1,99.0000030212403,2|0,3:2|0:0,0:0:0:0:
489,21,241735,1,10,0:0:0:0:
489,21,242035,5,2,3:2:0:0:
356,146,242185,2,0,L|347:244,1,99.0000030212403,10|0,0:0|0:0,0:0:0:0:
131,13,242485,1,2,3:2:0:0:
244,115,242635,1,0,3:0:0:0:
98,210,242785,1,10,0:0:0:0:
86,239,242935,1,2,0:0:0:0:
238,356,243085,5,10,0:0:0:0:
197,262,243235,1,0,0:0:0:0:
58,129,243385,1,10,0:0:0:0:
2,270,243535,1,0,0:0:0:0:
258,193,243685,1,2,3:2:0:0:
375,230,243835,2,0,L|263:214,1,99.0000030212403,10|0,0:0|0:0,0:0:0:0:
132,345,244135,1,10,0:0:0:0:
132,345,244435,5,2,3:2:0:0:
167,139,244585,2,0,L|157:23,1,99.0000030212403,10|8,0:0|0:0,0:0:0:0:
88,0,244810,1,8,0:0:0:0:
88,0,244885,6,0,B|192:1|151:75|277:67,1,198.000006042481,2|10,3:2|0:0,0:0:0:0:
342,24,245335,1,2,3:2:0:0:
470,89,245485,5,2,0:0:0:0:
502,192,245635,1,0,3:0:0:0:
324,332,245785,1,10,0:0:0:0:
366,218,245935,1,8,0:0:0:0:
366,218,246010,1,8,0:0:0:0:
269,149,246235,5,2,3:2:0:0:
201,332,246385,1,8,0:0:0:0:
76,315,246535,2,0,L|187:307,1,99.0000030212403,2|0,3:2|0:0,0:0:0:0:
1,263,246835,1,2,3:2:0:0:
77,126,246985,2,0,L|85:243,1,99.0000030212403,10|0,0:0|0:0,0:0:0:0:
3,0,247285,5,2,3:2:0:0:
101,98,247435,2,0,P|143:121|198:104,1,99.0000030212403,2|8,3:2|0:0,0:0:0:0:
264,57,247735,1,2,0:0:0:0:
452,233,247885,6,0,B|343:225|398:149|271:147,1,198.000006042481,4|10,3:2|0:0,0:0:0:0:
231,228,248335,1,8,0:0:0:0:
231,228,248410,1,8,0:0:0:0:
231,228,248485,1,2,3:2:0:0:
446,147,248635,1,2,3:2:0:0:
446,147,248935,5,10,0:0:0:0:
197,2,249085,2,0,L|211:102,1,99.0000030212403,2|0,0:0|3:0,0:0:0:0:
319,278,249385,2,0,L|334:165,1,99.0000030212403,10|0,0:0|0:0,0:0:0:0:
224,335,249685,5,2,3:2:0:0:
27,298,249835,1,0,3:0:0:0:
147,377,249985,1,10,0:0:0:0:
191,255,250135,1,0,3:0:0:0:
46,51,250285,5,6,3:2:0:0:
259,12,250435,1,0,0:0:0:0:
343,154,250585,1,10,0:0:0:0:
352,122,250735,1,0,3:0:0:0:
492,72,250885,5,10,0:0:0:0:
267,47,251035,1,2,3:2:0:0:
259,12,251185,1,0,0:0:0:0:
322,262,251335,1,10,0:0:0:0:
322,262,251635,5,2,3:2:0:0:
414,231,251785,1,10,0:0:0:0:
473,302,251935,1,0,0:0:0:0:
288,361,252085,6,0,L|179:348,1,99.0000030212403,2|0,3:2|3:0,0:0:0:0:
61,286,252385,1,10,0:0:0:0:
102,368,252535,1,2,0:0:0:0:
218,161,252685,5,10,0:0:0:0:
274,327,252835,1,0,0:0:0:0:
61,286,252985,1,10,0:0:0:0:
75,252,253135,1,0,0:0:0:0:
15,90,253285,5,2,3:2:0:0:
218,161,253435,1,10,0:0:0:0:
232,195,253585,1,0,0:0:0:0:
160,1,253735,1,10,0:0:0:0:
160,1,254035,5,2,3:2:0:0:
242,68,254185,1,10,0:0:0:0:
415,32,254335,1,8,0:0:0:0:
415,32,254410,1,8,0:0:0:0:
415,32,254485,1,2,3:2:0:0:
415,32,254785,5,10,0:0:0:0:
451,181,254935,1,2,3:2:0:0:
411,261,255085,5,2,0:0:0:0:
242,202,255235,1,0,3:0:0:0:
113,352,255385,1,10,0:0:0:0:
222,313,255535,1,8,0:0:0:0:
222,313,255610,1,8,0:0:0:0:
242,202,255835,5,2,3:2:0:0:
19,283,255985,1,8,0:0:0:0:
86,28,256135,2,0,L|77:137,1,99.0000030212403,2|0,3:2|0:0,0:0:0:0:
108,205,256435,1,2,3:2:0:0:
270,111,256585,2,0,L|381:100,1,99.0000030212403,10|0,0:0|0:0,0:0:0:0:
495,205,256885,5,2,3:2:0:0:
409,338,257035,1,2,3:2:0:0:
421,376,257185,1,8,0:0:0:0:
254,279,257335,1,2,0:0:0:0:
26,284,257485,6,0,B|73:274|73:274|118:302|118:302|176:293,1,148.50000453186,4|0,3:2|0:0,0:0:0:0:
246,244,257785,1,10,0:0:0:0:
58,372,257935,1,8,0:0:0:0:
58,372,258010,1,8,0:0:0:0:
58,372,258085,1,2,3:2:0:0:
0,105,258235,1,2,3:2:0:0:
0,105,258535,5,10,0:0:0:0:
229,146,258685,2,0,L|246:244,1,99.0000030212403,2|0,0:0|3:0,0:0:0:0:
388,39,258985,2,0,L|291:56,1,99.0000030212403,10|0,0:0|0:0,0:0:0:0:
487,175,259285,5,10,0:0:0:0:
504,215,259360,1,8,0:0:0:0:
488,258,259435,1,8,0:0:0:0:
450,280,259510,1,8,0:0:0:0:
407,272,259585,1,8,0:0:0:0:
363,264,259660,1,8,0:0:0:0:
324,287,259735,1,8,0:0:0:0:
309,328,259810,1,8,0:0:0:0:
324,370,259885,5,0,0:0:0:0:
256,192,259960,12,0,274285,0:0:0:0:
