osu file format v14

[General]
AudioFilename: audio.mp3
AudioLeadIn: 0
PreviewTime:57535
Countdown: 0
SampleSet: Soft
StackLeniency: 0.4
Mode: 0
LetterboxInBreaks: 0
WidescreenStoryboard: 1

[Editor]
Bookmarks: 135085,154285,163885,173485,192685,202285,211885,221485,240685,259885
DistanceSpacing: 0.6
BeatDivisor: 4
GridSize: 16
TimelineZoom: 2.1

[Metadata]
Title:Majo
TitleUnicode:魔女
Artist:KAF
ArtistUnicode:花譜
Creator:LeeGod
Version:Milkgreen & Li's Extra
Source:
Tags:Poyoyo MiyohashiKoori W M W_M milkgreen Sagisawa_Arisa Kohno_Marika Sagisawa Arisa Kohno Marika kamitsubaki studio kafu japanese pop rock jpop jrock virtual vtuber vsinger 神椿 花と心臓 hana to shinzou
BeatmapID:4353578
BeatmapSetID:1438258

[Difficulty]
HPDrainRate:5
CircleSize:4
OverallDifficulty:8.6
ApproachRate:9.2
SliderMultiplier:2
SliderTickRate:1

[Events]
//Background and Video events
0,0,"bg.jpg",0,0
//Break Periods
2,87285,95815
2,164085,172915
2,202485,211315
//Storyboard Layer 0 (Background)
//Storyboard Layer 1 (Fail)
//Storyboard Layer 2 (Pass)
//Storyboard Layer 3 (Foreground)
//Storyboard Layer 4 (Overlay)
//Storyboard Sound Samples

[TimingPoints]
685,300,4,2,2,30,1,0
685,-250,4,2,2,30,0,0
1885,-250,4,2,2,20,0,0
2185,-250,4,2,2,30,0,0
2485,-166.666666666667,4,2,2,40,0,0
2785,-166.666666666667,4,2,2,50,0,0
3085,-250,4,2,2,30,0,0
4285,-250,4,2,2,20,0,0
4585,-250,4,2,2,30,0,0
4885,-166.666666666667,4,2,2,40,0,0
5185,-166.666666666667,4,2,2,50,0,0
5485,-250,4,2,2,30,0,0
6685,-250,4,2,2,20,0,0
6985,-250,4,2,2,30,0,0
7285,-166.666666666667,4,2,2,40,0,0
7585,-166.666666666667,4,2,2,50,0,0
7885,-250,4,2,2,30,0,0
9085,-166.666666666667,4,2,2,20,0,0
9385,-166.666666666667,4,2,2,30,0,0
9685,-166.666666666667,4,2,1,65,0,0
10285,-95.2380952380952,4,2,1,80,0,0
18685,-86.9565217391304,4,2,1,80,0,0
19885,-181.818181818182,4,2,2,40,0,0
21160,-181.818181818182,4,2,2,5,0,0
21235,-181.818181818182,4,2,2,40,0,0
24685,-400,4,2,2,40,0,0
25735,-400,4,2,2,5,0,0
25885,-500,4,2,2,40,0,0
26935,-400,4,2,2,5,0,0
27085,-250,4,2,2,40,0,0
28135,-400,4,2,2,5,0,0
28285,-100,4,2,2,40,0,0
28360,-100,4,2,2,5,0,0
29185,-303.030303030303,4,2,2,40,0,0
29485,-181.818181818182,4,2,2,50,0,0
38785,-400,4,2,1,65,0,0
39085,-142.857142857143,4,2,1,65,0,0
48685,-125,4,2,1,65,0,0
57085,-181.818181818182,4,2,1,65,0,0
57535,-181.818181818182,4,2,1,40,0,0
58285,-86.9565217391304,4,2,1,90,0,0
63085,-74.0740740740741,4,2,1,90,0,0
63385,-86.9565217391304,4,2,1,90,0,0
67585,-181.818181818182,4,2,1,90,0,0
67885,-86.9565217391304,4,2,1,90,0,0
74785,-181.818181818182,4,2,1,90,0,0
75085,-86.9565217391304,4,2,1,90,0,0
77485,-95.2380952380952,4,2,1,80,0,0
87085,-181.818181818182,4,2,2,40,0,0
96385,-181.818181818182,4,2,2,50,0,0
104485,-181.818181818182,4,2,2,5,0,0
105985,-400,4,2,2,50,0,0
106285,-166.666666666667,4,2,2,60,0,0
109285,-125,4,2,2,60,0,0
109885,-166.666666666667,4,2,2,60,0,0
115285,-222.222222222222,4,2,2,60,0,0
115585,-181.818181818182,4,2,1,40,0,0
115885,-142.857142857143,4,2,1,65,0,0
125485,-125,4,2,1,65,0,0
133885,-181.818181818182,4,2,2,45,0,0
134785,-250,4,2,2,45,0,0
135085,-90.9090909090909,4,2,1,90,0,0
163885,-90.9090909090909,4,2,2,40,0,0
173485,-250.000000000001,4,2,2,50,0,0
192685,-83.3333333333335,4,2,1,60,0,0
192985,-166.666666666667,4,2,1,60,0,0
194485,-100,4,2,1,60,0,0
194785,-166.666666666667,4,2,1,60,0,0
195085,-100,4,2,1,60,0,0
195385,-166.666666666667,4,2,1,60,0,0
197485,-100,4,2,1,60,0,0
197785,-166.666666666667,4,2,1,60,0,0
199285,-100,4,2,1,60,0,0
199585,-166.666666666667,4,2,1,60,0,0
199885,-166.666666666667,4,2,1,35,0,0
200935,-166.666666666667,4,2,1,35,0,0
202285,-166.666666666667,4,2,2,40,0,0
211885,-125,4,2,1,65,0,0
220285,-100,4,2,1,80,0,0
221485,-90.9090909090909,4,2,1,90,0,0
227185,-90.9090909090909,4,2,2,90,0,0
227335,-90.9090909090909,4,2,1,90,0,0
240685,-90.9090909090909,4,2,1,80,0,0
259885,-90.9090909090909,4,2,1,20,0,0
259960,-90.9090909090909,4,2,1,20,0,0
264685,-90.9090909090909,4,2,1,16,0,0
267085,-90.9090909090909,4,2,1,14,0,0
268285,-90.9090909090909,4,2,1,12,0,0
269485,-90.9090909090909,4,2,1,10,0,0
270685,-90.9090909090909,4,2,1,8,0,0
271885,-90.9090909090909,4,2,1,7,0,0
273085,-90.9090909090909,4,2,1,6,0,0
274285,-90.9090909090909,4,2,1,5,0,0

[Colours]
Combo1 : 197,177,194
Combo2 : 255,189,209
Combo3 : 200,35,235

[HitObjects]
95,209,685,6,0,P|142:226|188:238,1,80
170,234,1135,1,0,0:0:0:0:
227,310,1435,2,0,P|274:327|320:339,1,80
349,261,1885,6,0,P|383:253|400:247,1,40,2|0,0:0|0:0,0:0:0:0:
355,249,2185,2,0,P|389:241|406:235,1,40,2|0,0:0|0:0,0:0:0:0:
479,170,2485,2,0,P|435:159|413:152,1,59.9999981689454,2|0,0:0|0:0,0:0:0:0:
472,180,2785,2,0,P|428:169|406:162,1,59.9999981689454,2|0,0:0|0:0,0:0:0:0:
242,48,3085,6,0,P|240:93|273:117,1,80
264,114,3535,1,0,0:0:0:0:
317,25,3835,2,0,P|343:53|339:92,1,80
230,28,4285,6,0,P|196:36|179:42,1,40,2|0,0:0|0:0,0:0:0:0:
224,40,4585,2,0,P|190:48|173:54,1,40,2|0,0:0|0:0,0:0:0:0:
46,124,4885,2,0,P|90:135|112:142,1,59.9999981689454,2|0,0:0|0:0,0:0:0:0:
53,114,5185,2,0,P|97:125|119:132,1,59.9999981689454,2|0,0:0|0:0,0:0:0:0:
48,254,5485,6,0,P|96:239|139:231,1,80
125,233,5935,1,0,0:0:0:0:
75,360,6235,2,0,P|123:345|166:337,1,80
241,375,6685,6,0,P|246:340|245:322,1,40,2|0,0:0|0:0,0:0:0:0:
251,380,6985,2,0,P|256:345|255:327,1,40,2|0,0:0|0:0,0:0:0:0:
271,189,7285,2,0,P|281:222|286:257,1,59.9999981689454,2|0,0:0|0:0,0:0:0:0:
280,181,7585,2,0,P|290:214|295:249,1,59.9999981689454,2|0,0:0|0:0,0:0:0:0:
409,325,7885,6,0,P|416:292|419:233,1,80
416,235,8335,1,0,0:0:0:0:
497,155,8485,6,0,P|463:162|445:171,1,40
503,139,8785,2,0,P|469:146|451:155,1,40
322,100,9085,2,0,P|368:109|392:121,1,59.9999981689454,2|0,0:0|0:0,0:0:0:0:
313,78,9385,2,0,P|359:87|383:99,1,59.9999981689454,2|0,0:0|0:0,0:0:0:0:
440,37,9685,5,2,0:0:0:0:
228,136,9835,1,2,0:0:0:0:
119,56,9985,5,2,0:0:0:0:
101,50,10060,1,2,0:0:0:0:
83,46,10135,1,2,0:0:0:0:
66,43,10210,1,2,0:0:0:0:
46,40,10285,6,0,P|11:96|63:167,1,157.499995193482,6|0,3:2|0:0,0:0:0:0:
70,183,10585,2,0,P|130:164|184:158,1,104.999996795654,10|0,0:0|3:0,0:0:0:0:
40,277,10885,1,10,0:0:0:0:
162,354,11035,1,2,3:2:0:0:
162,354,11185,1,0,0:0:0:0:
239,282,11335,6,0,B|129:273|135:390|19:367,1,209.999993591309,10|2,0:0|3:2,0:0:0:0:
247,188,11785,2,0,P|300:215|359:219,1,104.999996795654,10|0,0:0|0:0,0:0:0:0:
493,295,12085,1,2,3:2:0:0:
396,350,12235,1,0,3:0:0:0:
494,169,12385,1,10,0:0:0:0:
502,280,12535,1,2,0:0:0:0:
379,98,12685,6,0,P|315:114|205:125,1,157.499995193482,10|0,0:0|0:0,0:0:0:0:
204,111,12985,1,10,0:0:0:0:
290,216,13135,1,0,0:0:0:0:
308,216,13210,1,0,0:0:0:0:
325,222,13285,1,2,3:2:0:0:
224,260,13435,1,10,0:0:0:0:
403,202,13585,1,0,0:0:0:0:
218,364,13735,6,0,B|183:349|144:344|144:344|118:291|118:291|78:286|30:267,1,209.999993591309,10|2,0:0|3:2,0:0:0:0:
112,170,14185,1,10,0:0:0:0:
45,376,14335,1,8,0:0:0:0:
45,376,14410,1,8,0:0:0:0:
45,376,14485,1,2,3:2:0:0:
45,376,14785,5,10,0:0:0:0:
126,193,14935,1,2,3:2:0:0:
23,155,15085,5,2,0:0:0:0:
138,214,15235,1,0,3:0:0:0:
177,94,15385,1,10,0:0:0:0:
63,46,15535,1,8,0:0:0:0:
63,46,15610,1,8,0:0:0:0:
63,46,15685,2,0,P|85:99|106:147,1,104.999996795654,2|2,0:0|3:2,0:0:0:0:
228,200,15985,1,8,0:0:0:0:
302,46,16135,6,0,P|269:125|237:197,1,157.499995193482,2|0,3:2|0:0,0:0:0:0:
228,200,16435,1,2,3:2:0:0:
51,241,16585,2,0,P|112:234|162:225,1,104.999996795654,10|0,0:0|0:0,0:0:0:0:
363,363,16885,5,2,3:2:0:0:
231,288,17035,1,2,3:2:0:0:
324,236,17185,1,8,0:0:0:0:
257,358,17335,1,2,0:0:0:0:
450,381,17485,6,0,B|462:292|405:328|415:216,1,157.499995193482,4|0,3:2|0:0,0:0:0:0:
430,215,17785,1,10,0:0:0:0:
485,142,17935,1,8,0:0:0:0:
492,133,18010,1,8,0:0:0:0:
498,125,18085,2,0,P|501:71|458:38,1,104.999996795654,2|2,3:2|3:2,0:0:0:0:
389,111,18385,1,0,0:0:0:0:
466,27,18535,1,10,0:0:0:0:
320,169,18685,5,2,0:0:0:0:
211,120,18835,1,0,3:0:0:0:
456,290,18985,5,10,0:0:0:0:
347,241,19135,1,0,0:0:0:0:
512,176,19285,5,10,0:0:0:0:
512,176,19360,1,8,0:0:0:0:
512,176,19435,2,0,P|468:194|443:204,1,57.5000010967255,8|8,0:0|0:0,0:0:0:0:
359,336,19585,5,8,0:0:0:0:
328,345,19660,1,8,0:0:0:0:
299,356,19735,1,8,0:0:0:0:
269,367,19810,1,8,0:0:0:0:
241,380,19885,5,2,0:0:0:0:
50,262,21085,2,0,P|27:267|17:272,1,27.5000008392334,2|0,0:0|0:0,0:0:0:0:
190,174,21835,1,2,0:0:0:0:
111,98,22285,5,2,0:0:0:0:
263,0,23485,6,0,B|331:28|307:111|293:164,2,165.000005035401,2|2|2,0:0|0:0|0:0,0:0:0:0:
313,310,24685,6,0,B|245:282|269:199|283:146,1,175,2|0,0:0|0:0,0:0:0:0:
416,119,25885,6,0,P|389:154|294:147,1,140,2|0,0:0|0:0,0:0:0:0:
50,230,27085,6,0,P|104:160|294:174,1,280,2|0,0:0|0:0,0:0:0:0:
191,210,28285,6,0,P|173:227|161:253,1,50,2|0,0:0|0:0,0:0:0:0:
161,249,29185,6,0,P|172:227|191:210,1,49.499999848938
276,229,29485,6,0,P|269:275|220:312,1,110.000003356934,2|0,0:0|1:0,0:0:0:0:
137,259,29935,1,0,1:0:0:0:
137,259,30085,2,0,P|144:213|193:176,1,110.000003356934,0|0,0:0|1:0,0:0:0:0:
269,121,30535,5,0,1:0:0:0:
282,123,30685,1,2,0:0:0:0:
295,126,30835,2,0,P|362:139|413:152,1,110.000003356934,0|0,1:0|0:0,0:0:0:0:
449,77,31285,2,0,P|396:64|342:54,1,110.000003356934,0|0,1:0|0:0,0:0:0:0:
168,0,31885,5,2,0:0:0:0:
82,70,32335,1,0,0:0:0:0:
82,70,32485,2,0,P|93:116|107:187,1,110.000003356934,0|0,1:0|0:0,0:0:0:0:
37,225,32935,1,0,1:0:0:0:
37,225,33085,1,2,0:0:0:0:
37,225,33235,2,0,P|48:271|62:342,1,110.000003356934,0|2,1:0|0:0,0:0:0:0:
138,375,33685,2,0,P|199:370|219:317,1,110.000003356934,0|2,1:0|0:0,0:0:0:0:
216,313,34135,1,0,1:0:0:0:
216,313,34285,1,2,0:0:0:0:
307,350,34735,5,0,1:0:0:0:
307,350,34885,2,0,B|370:352|356:368|425:371,1,110.000003356934,0|0,1:0|0:0,0:0:0:0:
512,322,35335,1,0,1:0:0:0:
512,322,35485,1,2,0:0:0:0:
512,322,35635,2,0,B|449:324|463:340|394:343,1,110.000003356934,0|0,1:0|1:0,0:0:0:0:
363,274,36085,2,0,B|304:271|318:255|255:253,1,110.000003356934,0|0,1:0|0:0,0:0:0:0:
237,260,36535,1,0,1:0:0:0:
237,260,36685,1,2,0:0:0:0:
199,179,37135,5,0,1:0:0:0:
199,179,37285,2,0,P|264:170|288:131,1,110.000003356934,0|0,1:0|1:0,0:0:0:0:
437,100,37735,1,0,1:0:0:0:
437,100,37885,1,2,0:0:0:0:
437,100,38035,2,0,P|372:91|348:52,1,110.000003356934,0|0,1:0|0:0,0:0:0:0:
351,36,38485,1,0,1:0:0:0:
174,68,38785,6,0,P|176:49|182:31,1,37.5,2|0,0:0|0:0,0:0:0:0:
184,14,39085,6,0,P|136:35|61:38,1,104.999996795654,6|0,3:2|0:0,0:0:0:0:
61,25,39385,2,0,P|24:23|-6:50,1,69.9999978637696,10|0,0:0|0:0,0:0:0:0:
85,119,39685,2,0,P|56:138|22:135,1,69.9999978637696,2|0,3:2|3:0,0:0:0:0:
167,158,39985,1,2,0:0:0:0:
240,199,40135,2,0,P|245:154|250:114,1,69.9999978637696,10|0,0:0|0:0,0:0:0:0:
131,247,40435,1,2,3:2:0:0:
59,290,40585,2,0,P|54:245|49:205,1,69.9999978637696,10|0,0:0|0:0,0:0:0:0:
155,352,40885,5,0,3:0:0:0:
235,362,41035,1,0,3:0:0:0:
315,372,41185,2,0,P|370:379|427:389,1,104.999996795654,10|0,0:0|0:0,0:0:0:0:
481,317,41485,6,0,P|443:352|370:331,1,104.999996795654,2|0,3:2|0:0,0:0:0:0:
320,314,41785,2,0,P|305:274|307:243,1,69.9999978637696,10|0,0:0|0:0,0:0:0:0:
426,185,42085,2,0,P|425:219|412:251,1,69.9999978637696,2|0,3:2|3:0,0:0:0:0:
328,135,42385,1,2,0:0:0:0:
328,135,42535,2,0,B|402:138|381:182|480:179,1,139.999995727539,10|2,0:0|3:2,0:0:0:0:
507,66,42985,2,0,B|462:85|462:85|452:111,1,69.9999978637696,10|0,0:0|0:0,0:0:0:0:
472,187,43285,5,0,3:0:0:0:
472,187,43435,1,0,3:0:0:0:
445,99,43585,2,0,B|452:79|452:79|497:59,1,69.9999978637696,10|0,0:0|0:0,0:0:0:0:
353,33,43885,6,0,P|342:88|327:197,2,139.999995727539,2|10|2,3:2|0:0|3:2,0:0:0:0:
261,3,44635,1,0,3:0:0:0:
205,82,44785,1,2,0:0:0:0:
126,61,44935,2,0,P|174:67|216:78,1,69.9999978637696,10|0,0:0|0:0,0:0:0:0:
53,97,45235,2,0,P|34:52|22:10,1,69.9999978637696,2|8,3:2|0:0,0:0:0:0:
121,143,45535,2,0,P|91:181|61:212,1,69.9999978637696,2|0,0:0|3:0,0:0:0:0:
1,266,45835,1,0,3:0:0:0:
1,266,45985,2,0,P|47:284|54:355,1,104.999996795654,10|0,0:0|0:0,0:0:0:0:
135,348,46285,6,0,B|62:346|71:384|0:375,1,139.999995727539,2|10,3:2|0:0,0:0:0:0:
85,258,46735,1,0,0:0:0:0:
85,258,46885,2,0,P|141:273|175:278,1,69.9999978637696,2|0,3:2|3:0,0:0:0:0:
219,367,47185,1,2,0:0:0:0:
254,278,47335,2,0,P|247:323|243:360,1,69.9999978637696,10|0,0:0|0:0,0:0:0:0:
325,360,47635,1,2,3:2:0:0:
360,271,47785,2,0,P|353:316|349:353,1,69.9999978637696,10|0,0:0|0:0,0:0:0:0:
316,199,48085,5,0,3:0:0:0:
411,172,48235,1,0,3:0:0:0:
461,255,48385,1,10,0:0:0:0:
512,44,48685,6,0,B|451:54|464:82|376:90,1,120,6|0,3:2|0:0,0:0:0:0:
373,86,48985,2,0,P|365:34|358:2,1,80,10|0,0:0|0:0,0:0:0:0:
298,146,49285,1,2,3:2:0:0:
298,146,49435,1,0,3:0:0:0:
214,93,49585,1,2,0:0:0:0:
293,58,49735,2,0,P|235:73|179:75,1,80,10|0,0:0|0:0,0:0:0:0:
64,33,50035,1,2,3:2:0:0:
160,22,50185,2,0,P|102:37|46:39,1,80,10|0,0:0|0:0,0:0:0:0:
17,156,50485,5,0,3:0:0:0:
112,195,50635,1,0,3:0:0:0:
125,121,50785,2,0,P|59:141|42:205,1,120,10|0,0:0|0:0,0:0:0:0:
35,213,51085,6,0,P|50:261|62:343,1,120,2|0,3:2|0:0,0:0:0:0:
138,335,51385,2,0,P|173:343|230:365,1,80,10|0,0:0|0:0,0:0:0:0:
274,307,51685,2,0,P|298:279|346:242,1,80,2|0,3:2|3:0,0:0:0:0:
202,249,51985,1,2,0:0:0:0:
330,376,52135,1,8,0:0:0:0:
464,255,52285,6,0,B|444:166|391:199|379:99,2,160,2|10|2,0:0|0:0|3:2,0:0:0:0:
363,253,53035,1,0,3:0:0:0:
460,107,53185,2,0,P|453:51|389:21,1,120,10|0,0:0|0:0,0:0:0:0:
378,11,53485,6,0,P|326:29|210:53,1,160,2|8,3:2|0:0,0:0:0:0:
148,16,53935,1,2,0:0:0:0:
70,110,54085,1,0,3:0:0:0:
70,110,54235,2,0,P|121:117|157:129,1,80,0|2,3:0|0:0,0:0:0:0:
14,191,54535,1,8,0:0:0:0:
120,280,54685,6,0,P|130:227|130:189,1,80,2|0,0:0|3:0,0:0:0:0:
41,316,54985,1,10,0:0:0:0:
216,384,55135,2,0,P|205:346|188:310,2,80,2|0|0,0:0|3:0|3:0,0:0:0:0:
130,191,55585,5,10,0:0:0:0:
288,241,55735,1,2,0:0:0:0:
274,72,55885,6,0,B|208:81|231:136|162:131,1,120,2|0,3:2|0:0,0:0:0:0:
151,115,56185,2,0,P|192:85|270:158,1,160,10|0,0:0|3:0,0:0:0:0:
189,228,56635,1,0,3:0:0:0:
127,116,56785,1,2,0:0:0:0:
189,331,56935,1,10,0:0:0:0:
87,357,57085,6,0,B|71:313|98:288|98:288|127:231|88:199,2,165.000005035401,0|2|2,0:0|0:0|0:0,0:0:0:0:
94,363,58285,6,0,B|134:364|171:374|171:374|222:324|222:324|262:337|318:332,1,230.000004386902,4|8,3:2|0:0,0:0:0:0:
221,238,58735,1,2,0:0:0:0:
364,384,58885,2,0,P|379:322|353:274,1,115.000002193451,2|0,3:2|3:0,0:0:0:0:
453,204,59185,2,0,P|376:225|195:252,1,230.000004386902,10|0,0:0|0:0,0:0:0:0:
118,123,59635,1,0,3:0:0:0:
229,154,59785,1,8,0:0:0:0:
32,210,59935,6,0,P|42:142|45:85,1,115.000002193451,2|0,0:0|3:0,0:0:0:0:
123,0,60235,1,2,3:2:0:0:
6,29,60385,1,10,0:0:0:0:
171,73,60535,1,2,0:0:0:0:
116,135,60685,1,2,3:2:0:0:
116,135,60985,6,0,P|106:163|106:194,1,57.5000010967255,10|0,0:0|0:0,0:0:0:0:
38,264,61135,2,0,P|109:274|163:289,1,115.000002193451,2|0,0:0|3:0,0:0:0:0:
309,328,61435,1,2,3:2:0:0:
213,375,61585,1,8,0:0:0:0:
313,208,61735,2,0,B|334:196|345:152|345:152|327:236|312:329,1,230.000004386902,2|0,3:2|3:0,0:0:0:0:
293,211,62185,6,0,P|236:188|268:87,1,172.500003290176,10|0,0:0|0:0,0:0:0:0:
303,40,62485,2,0,P|376:27|426:9,1,115.000002193451,2|0,3:2|3:0,0:0:0:0:
324,285,62785,2,0,P|409:272|492:246,1,172.500003290176,10|0,0:0|0:0,0:0:0:0:
503,227,63085,6,0,P|406:256|306:271,1,202.500000772476,6|0,3:2|0:0,0:0:0:0:
271,255,63385,2,0,P|225:241|154:231,1,115.000002193451,10|0,0:0|0:0,0:0:0:0:
192,344,63685,1,2,3:2:0:0:
192,344,63835,1,0,3:0:0:0:
236,160,63985,1,10,0:0:0:0:
67,309,64135,6,0,P|57:241|42:186,1,115.000002193451,2|0,3:2|0:0,0:0:0:0:
220,78,64435,1,2,3:2:0:0:
153,1,64585,2,0,P|139:56|131:113,1,115.000002193451,8|0,0:0|0:0,0:0:0:0:
56,50,64885,1,2,3:2:0:0:
56,50,65035,1,0,3:0:0:0:
277,6,65185,2,0,P|349:22|456:38,1,172.500003290176,10|0,0:0|0:0,0:0:0:0:
512,86,65485,6,0,P|434:81|418:170,1,172.500003290176,2|0,3:2|0:0,0:0:0:0:
394,185,65785,2,0,P|422:253|417:318,1,115.000002193451,10|0,0:0|0:0,0:0:0:0:
495,255,66085,1,2,3:2:0:0:
364,334,66235,1,2,3:2:0:0:
478,384,66385,1,8,0:0:0:0:
332,232,66535,2,0,B|243:231|277:312|172:316,1,172.500003290176,2|0,3:2|0:0,0:0:0:0:
126,358,66835,5,2,3:2:0:0:
63,289,66985,1,8,0:0:0:0:
86,160,67135,1,2,0:0:0:0:
219,109,67285,1,0,3:0:0:0:
138,247,67435,1,0,3:0:0:0:
4,172,67585,6,0,P|60:165|93:158,1,82.5000025177003,10|0,0:0|0:0,0:0:0:0:
101,143,67885,6,0,B|126:105|206:107|222:173|222:173|235:218|297:208,1,230.000004386902,6|8,3:2|0:0,0:0:0:0:
307,115,68335,1,2,0:0:0:0:
166,229,68485,2,0,P|178:296|192:349,1,115.000002193451,2|0,3:2|3:0,0:0:0:0:
409,377,68785,6,0,B|441:243|343:288|406:135,1,230.000004386902,10|0,0:0|0:0,0:0:0:0:
364,6,69235,1,0,3:0:0:0:
480,60,69385,1,8,0:0:0:0:
396,148,69535,6,0,P|331:135|257:127,1,115.000002193451,2|0,0:0|3:0,0:0:0:0:
140,84,69835,1,2,3:2:0:0:
196,175,69985,1,10,0:0:0:0:
231,38,70135,1,2,0:0:0:0:
176,276,70285,5,2,3:2:0:0:
176,276,70585,2,0,P|127:289|110:301,1,57.5000010967255,10|0,0:0|0:0,0:0:0:0:
11,333,70735,2,0,P|70:362|161:383,1,115.000002193451,2|0,0:0|3:0,0:0:0:0:
268,291,71035,1,2,3:2:0:0:
127,205,71185,1,8,0:0:0:0:
329,357,71335,2,0,P|344:293|358:245,1,115.000002193451,2|0,3:2|0:0,0:0:0:0:
295,111,71635,1,2,3:2:0:0:
348,18,71785,2,0,P|363:73|376:129,1,115.000002193451,8|0,0:0|0:0,0:0:0:0:
480,234,72085,6,0,P|428:272|375:250,1,115.000002193451,2|0,3:2|3:0,0:0:0:0:
178,133,72385,2,0,P|230:95|283:117,1,115.000002193451,10|0,0:0|0:0,0:0:0:0:
14,364,72685,6,0,B|7:322|30:286|30:286|36:280|36:280|66:236|58:202|58:202|36:227|40:254,1,230.000004386902,6|8,3:2|0:0,0:0:0:0:
120,314,73135,1,2,0:0:0:0:
209,218,73285,2,0,P|273:210|333:195,1,115.000002193451,2|0,3:2|3:0,0:0:0:0:
190,356,73585,2,0,P|134:368|76:375,1,115.000002193451,8|2,0:0|3:2,0:0:0:0:
276,300,73885,5,2,0:0:0:0:
288,313,74035,1,0,3:0:0:0:
467,264,74185,5,10,0:0:0:0:
407,360,74335,1,0,0:0:0:0:
335,146,74485,5,2,3:2:0:0:
388,368,74635,1,0,3:0:0:0:
511,164,74785,6,0,P|476:150|420:141,1,82.5000025177003,10|0,0:0|0:0,0:0:0:0:
274,130,75085,6,0,P|387:124|487:68,1,230.000004386902,2|8,3:2|0:0,0:0:0:0:
346,23,75535,1,2,0:0:0:0:
229,226,75685,2,0,P|208:175|241:131,1,115.000002193451,2|0,3:2|3:0,0:0:0:0:
298,332,75985,2,0,P|331:287|310:236,1,115.000002193451,8|2,0:0|3:2,0:0:0:0:
229,41,76285,6,0,P|200:53|169:56,3,57.5000010967255,10|8|8|8,3:2|0:0|0:0|0:0,0:0:0:0:
90,15,76585,2,0,P|61:27|30:30,3,57.5000010967255,8|8|8|8,3:2|0:0|0:0|0:0,0:0:0:0:
225,259,76885,5,8,3:2:0:0:
198,248,76960,1,8,0:0:0:0:
171,237,77035,1,8,0:0:0:0:
144,228,77110,1,8,0:0:0:0:
117,219,77185,1,8,3:2:0:0:
89,211,77260,1,8,0:0:0:0:
61,204,77335,1,8,0:0:0:0:
33,197,77410,1,8,0:0:0:0:
5,191,77485,1,6,3:2:0:0:
5,191,77785,6,0,P|51:180|134:144,1,104.999996795654,10|0,0:0|3:0,0:0:0:0:
206,77,78085,1,10,0:0:0:0:
65,71,78235,1,2,3:2:0:0:
65,71,78385,1,0,0:0:0:0:
169,201,78535,6,0,B|278:191|242:302|371:280,1,209.999993591309,10|2,0:0|3:2,0:0:0:0:
186,287,78910,1,0,0:0:0:0:
186,287,78985,2,0,P|130:301|78:322,1,104.999996795654,10|0,0:0|0:0,0:0:0:0:
1,202,79285,5,2,3:2:0:0:
98,219,79435,1,0,3:0:0:0:
37,65,79585,1,10,0:0:0:0:
134,82,79735,1,2,0:0:0:0:
237,161,79885,6,0,B|244:131|245:106|245:106|270:71|270:71|273:38|286:10,1,157.499995193482,10|0,0:0|0:0,0:0:0:0:
286,0,80185,1,10,0:0:0:0:
134,82,80335,1,0,0:0:0:0:
141,107,80410,1,0,0:0:0:0:
147,132,80485,1,2,3:2:0:0:
101,10,80635,1,10,0:0:0:0:
167,205,80785,1,0,0:0:0:0:
263,124,80935,6,0,B|367:103|335:202|460:176,1,209.999993591309,10|2,0:0|3:2,0:0:0:0:
306,227,81385,1,10,0:0:0:0:
409,81,81535,1,8,0:0:0:0:
433,72,81610,1,8,0:0:0:0:
459,72,81685,1,2,3:2:0:0:
468,77,81985,5,10,0:0:0:0:
266,23,82135,1,2,3:2:0:0:
202,62,82285,5,2,0:0:0:0:
350,0,82435,1,0,3:0:0:0:
328,156,82585,1,10,0:0:0:0:
141,17,82735,1,8,0:0:0:0:
141,17,82810,1,8,0:0:0:0:
141,17,82885,2,0,P|80:28|23:33,1,104.999996795654,2|2,0:0|3:2,0:0:0:0:
222,166,83185,1,8,0:0:0:0:
222,166,83335,6,0,P|118:185|14:196,1,209.999993591309,2|2,3:2|3:2,0:0:0:0:
130,348,83785,2,0,P|157:297|138:243,1,104.999996795654,10|0,0:0|0:0,0:0:0:0:
77,291,84085,5,2,3:2:0:0:
223,359,84235,1,2,3:2:0:0:
283,262,84385,1,8,0:0:0:0:
234,375,84535,1,2,0:0:0:0:
346,182,84685,6,0,P|357:248|374:343,1,157.499995193482,4|0,3:2|0:0,0:0:0:0:
377,357,84985,2,0,P|439:370|473:341,1,104.999996795654,10|8,0:0|0:0,0:0:0:0:
471,326,85210,1,8,0:0:0:0:
472,326,85285,1,2,3:2:0:0:
466,141,85435,2,0,P|457:199|449:255,1,104.999996795654,2|0,3:2|0:0,0:0:0:0:
326,188,85735,1,10,0:0:0:0:
396,92,85885,5,10,0:0:0:0:
211,157,86110,1,10,0:0:0:0:
356,287,86335,1,10,0:0:0:0:
144,365,86485,5,10,0:0:0:0:
283,320,86710,1,10,0:0:0:0:
172,221,86935,1,10,0:0:0:0:
196,296,87085,5,2,0:0:0:0:
256,192,96385,5,0,0:0:0:0:
256,192,96685,6,0,P|292:205|371:218,1,110.000003356934,2|2,0:0|0:0,0:0:0:0:
342,306,97285,2,0,P|287:297|235:280,1,110.000003356934
212,287,97735,1,2,0:0:0:0:
381,210,98035,1,2,0:0:0:0:
395,204,98185,1,0,0:0:0:0:
139,77,99085,6,0,B|86:79|93:114|32:115,2,110.000003356934,2|2|0,0:0|0:0|0:0,0:0:0:0:
295,190,99985,1,0,0:0:0:0:
237,114,100135,2,0,P|221:165|207:240,1,110.000003356934,2|2,0:0|0:0,0:0:0:0:
121,265,100585,2,0,P|146:288|163:371,1,110.000003356934,0|2,0:0|0:0,0:0:0:0:
61,353,101185,1,2,0:0:0:0:
49,361,101335,1,0,0:0:0:0:
229,319,102385,6,0,P|273:329|345:338,1,110.000003356934
450,364,102985,2,0,P|395:357|341:345,1,110.000003356934,0|2,0:0|0:0,0:0:0:0:
392,270,103585,1,2,0:0:0:0:
392,270,103735,2,0,P|383:227|376:205,1,55.0000016784668,0|2,0:0|0:0,0:0:0:0:
486,279,104035,1,0,0:0:0:0:
486,279,104185,2,0,P|470:202|457:163,1,110.000003356934,2|0,0:0|0:0,0:0:0:0:
473,91,105985,6,0,P|440:98|427:98,1,37.5
412,113,106285,6,0,P|376:106|333:102,3,59.9999981689454,2|0|2|2,0:0|1:0|0:0|1:2,0:0:0:0:
326,18,106885,2,0,P|290:11|247:7,3,59.9999981689454,0|2|0|2,0:0|1:2|0:0|1:2,0:0:0:0:
125,51,107485,6,0,P|139:98|151:120,1,59.9999981689454,0|2,0:0|1:2,0:0:0:0:
132,184,107785,2,0,P|179:195|204:195,1,59.9999981689454,0|2,0:0|1:2,0:0:0:0:
250,244,108085,2,0,P|283:208|296:186,1,59.9999981689454,2|0,0:0|1:0,0:0:0:0:
360,171,108385,2,0,P|346:124|334:102,1,59.9999981689454,2|0,0:0|0:0,0:0:0:0:
254,112,108685,6,0,P|208:123|174:127,1,59.9999981689454,2|0,0:0|1:0,0:0:0:0:
1,203,108985,2,0,P|30:197|59:190,1,59.9999981689454,2|2,0:0|1:2,0:0:0:0:
282,325,109285,6,0,P|237:308|139:295,1,120
146,278,109585,2,0,P|208:268|234:257,1,80,0|2,0:0|1:2,0:0:0:0:
326,199,109885,5,0,0:0:0:0:
333,207,110035,1,2,1:2:0:0:
412,220,110185,1,0,0:0:0:0:
419,228,110335,1,2,1:2:0:0:
485,137,110485,6,0,P|443:147|409:148,1,59.9999981689454,2|0,0:0|1:0,0:0:0:0:
341,312,110785,2,0,P|383:302|417:301,1,59.9999981689454,2|0,0:0|0:0,0:0:0:0:
327,64,111085,6,0,P|333:112|340:135,3,59.9999981689454,2|0|2|2,0:0|1:0|0:0|1:2,0:0:0:0:
220,214,111685,2,0,P|213:184|210:154,3,59.9999981689454,0|2|0|2,0:0|1:2|0:0|1:2,0:0:0:0:
67,85,112285,6,0,P|109:90|134:99,1,59.9999981689454,0|2,0:0|1:2,0:0:0:0:
80,72,112585,2,0,P|122:77|147:86,1,59.9999981689454,0|2,0:0|1:2,0:0:0:0:
358,189,112885,2,0,P|316:184|291:175,1,59.9999981689454,2|0,0:0|1:0,0:0:0:0:
345,202,113185,2,0,P|303:197|278:188,1,59.9999981689454,2|0,0:0|0:0,0:0:0:0:
160,276,113485,6,0,P|147:218|145:198,1,59.9999981689454,2|0,0:0|1:0,0:0:0:0:
251,23,113785,2,0,P|264:81|266:101,1,59.9999981689454,2|2,0:0|1:2,0:0:0:0:
68,201,114085,2,0,P|75:172|81:142,1,59.9999981689454,0|2,0:0|1:2,0:0:0:0:
241,301,114385,2,0,P|233:329|227:359,1,59.9999981689454,0|2,0:0|1:2,0:0:0:0:
178,144,114685,5,0,0:0:0:0:
157,139,114835,1,2,1:2:0:0:
82,135,114985,1,0,0:0:0:0:
61,130,115135,1,2,1:2:0:0:
0,217,115285,6,0,P|46:223|58:326,1,157.499995193482,2|0,0:0|0:0,0:0:0:0:
161,373,115885,6,0,P|147:330|222:276,1,139.999995727539,2|10,3:2|0:0,0:0:0:0:
312,275,116335,1,0,3:0:0:0:
309,292,116410,1,8,0:0:0:0:
305,308,116485,2,0,P|271:325|244:345,1,69.9999978637696,2|0,3:2|3:0,0:0:0:0:
211,198,116785,1,2,0:0:0:0:
211,198,116935,2,0,P|264:205|310:208,1,69.9999978637696,10|0,0:0|0:0,0:0:0:0:
312,117,117235,1,2,3:2:0:0:
232,113,117385,2,0,P|285:120|331:123,1,69.9999978637696,10|0,0:0|3:0,0:0:0:0:
370,69,117610,5,8,0:0:0:0:
370,69,117685,2,0,P|426:60|456:51,1,69.9999978637696,0|0,3:0|3:0,0:0:0:0:
371,172,117985,2,0,P|423:166|475:154,1,104.999996795654,10|0,0:0|0:0,0:0:0:0:
499,163,118285,5,2,3:2:0:0:
499,163,118585,2,0,P|488:205|481:243,1,69.9999978637696,10|0,0:0|3:0,0:0:0:0:
418,278,118810,1,8,0:0:0:0:
403,294,118885,2,0,P|414:336|421:374,1,69.9999978637696,2|0,3:2|3:0,0:0:0:0:
502,312,119185,1,2,0:0:0:0:
346,378,119335,1,8,0:0:0:0:
320,283,119485,6,0,B|250:286|272:338|193:335,1,139.999995727539,2|10,0:0|0:0,0:0:0:0:
157,223,119935,1,2,3:2:0:0:
186,230,120010,1,8,0:0:0:0:
216,232,120085,1,0,3:0:0:0:
118,354,120235,1,0,3:0:0:0:
60,212,120385,1,10,0:0:0:0:
60,212,120685,6,0,B|64:179|64:159|64:159|89:132|89:132|88:101|93:74,1,139.999995727539,6|10,3:2|0:0,0:0:0:0:
191,140,121135,1,0,3:0:0:0:
187,122,121210,1,8,0:0:0:0:
183,105,121285,1,2,3:2:0:0:
206,211,121435,1,0,3:0:0:0:
277,141,121585,1,2,0:0:0:0:
163,271,121735,6,0,P|124:260|82:255,1,69.9999978637696,10|0,0:0|0:0,0:0:0:0:
295,359,122035,2,0,P|256:348|214:343,1,69.9999978637696,2|8,3:2|0:0,0:0:0:0:
416,275,122335,1,2,3:2:0:0:
387,267,122410,1,8,0:0:0:0:
357,262,122485,1,0,3:0:0:0:
273,278,122635,1,0,3:0:0:0:
490,238,122785,1,10,0:0:0:0:
490,238,123085,6,0,P|500:184|503:124,1,104.999996795654,2|0,3:2|0:0,0:0:0:0:
492,106,123385,2,0,P|458:80|416:84,1,69.9999978637696,10|0,0:0|3:0,0:0:0:0:
357,46,123610,1,8,0:0:0:0:
357,46,123685,2,0,P|317:62|299:100,1,69.9999978637696,2|0,3:2|3:0,0:0:0:0:
206,131,123985,5,2,0:0:0:0:
120,138,124135,2,0,P|170:146|201:147,1,69.9999978637696,10|0,0:0|0:0,0:0:0:0:
274,200,124435,1,2,3:2:0:0:
360,207,124585,2,0,P|310:215|279:216,1,69.9999978637696,10|0,0:0|3:0,0:0:0:0:
228,259,124810,1,8,0:0:0:0:
222,269,124885,1,0,3:0:0:0:
292,327,125035,1,0,3:0:0:0:
146,282,125185,2,0,P|104:313|97:365,1,104.999996795654,10|0,0:0|0:0,0:0:0:0:
137,378,125485,6,0,P|128:315|114:254,1,120,2|0,3:2|0:0,0:0:0:0:
122,220,125785,2,0,P|81:198|39:212,1,80,10|0,0:0|3:0,0:0:0:0:
30,225,126010,1,8,0:0:0:0:
30,225,126085,1,2,3:2:0:0:
93,118,126235,1,0,3:0:0:0:
10,141,126385,1,2,0:0:0:0:
167,96,126535,6,0,P|215:91|255:83,1,80,10|0,0:0|0:0,0:0:0:0:
271,214,126835,1,2,3:2:0:0:
176,209,126985,2,0,P|224:204|264:196,1,80,10|0,0:0|3:0,0:0:0:0:
312,144,127210,1,8,0:0:0:0:
322,137,127285,1,0,3:0:0:0:
227,279,127435,1,0,3:0:0:0:
366,332,127585,2,0,P|377:274|324:221,1,120,10|0,0:0|0:0,0:0:0:0:
317,219,127885,6,0,P|296:260|302:299,1,80,2|0,3:2|0:0,0:0:0:0:
497,384,128185,2,0,P|499:344|479:310,1,80,10|0,0:0|3:0,0:0:0:0:
449,302,128410,1,8,0:0:0:0:
449,302,128485,2,0,P|396:315|359:317,1,80,2|0,3:2|3:0,0:0:0:0:
185,343,128785,1,2,0:0:0:0:
272,370,128935,1,8,0:0:0:0:
101,319,129085,6,0,P|98:259|80:176,1,120,2|0,0:0|0:0,0:0:0:0:
81,180,129385,1,10,0:0:0:0:
111,73,129535,1,0,3:0:0:0:
78,78,129610,1,8,0:0:0:0:
46,82,129685,1,2,3:2:0:0:
186,115,129835,1,0,3:0:0:0:
107,0,129985,2,0,P|67:5|28:9,1,80,10|0,0:0|0:0,0:0:0:0:
213,34,130285,6,0,B|288:25|273:97|373:76,1,160,6|8,3:2|0:0,0:0:0:0:
474,124,130735,1,2,3:2:0:0:
480,91,130810,1,8,0:0:0:0:
489,60,130885,1,0,3:2:0:0:
388,198,131035,1,0,3:0:0:0:
290,132,131185,2,0,P|328:94|364:88,1,80,2|8,0:0|0:0,0:0:0:0:
302,217,131485,6,0,P|251:233|185:157,1,160,2|10,0:0|0:0,0:0:0:0:
143,85,131935,1,2,3:2:0:0:
158,58,132010,1,8,0:0:0:0:
184,41,132085,2,0,P|236:25|272:21,1,80,0|0,3:0|3:0,0:0:0:0:
76,161,132385,1,10,0:0:0:0:
8,74,132535,1,2,0:0:0:0:
135,252,132685,6,0,P|142:276|145:295,3,40,10|8|8|8,3:2|0:0|0:0|0:0,0:0:0:0:
303,354,132985,5,8,3:2:0:0:
323,327,133060,1,8,0:0:0:0:
336,296,133135,1,8,0:0:0:0:
338,263,133210,1,8,0:0:0:0:
330,229,133285,1,8,3:2:0:0:
312,201,133360,1,8,0:0:0:0:
285,180,133435,1,8,0:0:0:0:
254,168,133510,1,8,0:0:0:0:
221,165,133585,6,0,P|214:196|215:211,1,40,8|8,3:2|0:0,0:0:0:0:
63,307,133735,2,0,P|70:338|69:353,1,40,8|8,0:0|0:0,0:0:0:0:
241,292,133885,5,2,0:0:0:0:
198,367,134035,1,2,0:0:0:0:
429,231,134185,5,2,0:0:0:0:
455,196,134335,1,2,0:0:0:0:
486,299,134485,5,2,0:0:0:0:
512,334,134635,1,2,0:0:0:0:
455,115,134785,6,0,L|466:76,1,40,2|2,0:0|0:0,0:0:0:0:
324,14,135085,6,0,B|334:41|336:76|336:76|370:99|370:99|371:131|381:157,1,165.000005035401,4|0,3:2|0:0,0:0:0:0:
331,224,135385,1,8,0:0:0:0:
413,18,135535,5,2,0:0:0:0:
212,130,135685,2,0,P|230:78|240:24,1,110.000003356934,2|0,3:2|3:0,0:0:0:0:
36,143,135985,1,10,0:0:0:0:
154,272,136135,2,0,P|135:220|125:166,1,110.000003356934,0|0,3:0|0:0,0:0:0:0:
7,384,136435,2,0,P|58:365|112:355,1,110.000003356934,0|8,3:0|0:0,0:0:0:0:
244,239,136735,6,0,P|295:257|349:267,1,110.000003356934,2|0,0:0|3:0,0:0:0:0:
272,357,137035,1,2,3:2:0:0:
481,261,137185,1,10,0:0:0:0:
420,373,137335,1,2,0:0:0:0:
498,225,137485,6,0,P|478:144|463:63,1,165.000005035401,2|0,3:2|0:0,0:0:0:0:
402,14,137785,1,10,0:0:0:0:
248,149,137935,2,0,P|299:130|353:120,1,110.000003356934,2|0,0:0|3:0,0:0:0:0:
133,50,138235,1,2,3:2:0:0:
228,144,138385,1,8,0:0:0:0:
50,199,138535,2,0,B|35:173|10:155|10:155|89:166|161:209,1,220.000006713867,2|0,3:2|3:0,0:0:0:0:
81,340,138985,6,0,B|51:348|51:348|67:303|95:284,1,110.000003356934,10|0,0:0|0:0,0:0:0:0:
306,309,139285,1,2,3:2:0:0:
228,144,139435,1,0,3:0:0:0:
181,309,139585,2,0,P|233:292|287:285,1,110.000003356934,10|0,0:0|0:0,0:0:0:0:
512,207,139885,6,0,P|485:255|471:308,1,110.000003356934,6|0,3:2|0:0,0:0:0:0:
401,155,140185,2,0,P|386:207|360:256,1,110.000003356934,10|0,0:0|0:0,0:0:0:0:
318,107,140485,5,2,3:2:0:0:
463,50,140635,1,0,3:0:0:0:
295,117,140785,1,10,0:0:0:0:
232,0,140935,2,0,P|283:17|338:21,1,110.000003356934,2|0,3:2|0:0,0:0:0:0:
292,213,141235,2,0,P|240:195|185:191,1,110.000003356934,2|8,3:2|0:0,0:0:0:0:
27,323,141535,5,2,0:0:0:0:
143,381,141685,2,0,P|127:300|108:219,1,165.000005035401,2|0,3:2|0:0,0:0:0:0:
118,129,141985,2,0,P|66:146|11:150,1,110.000003356934,10|0,0:0|0:0,0:0:0:0:
250,40,142285,6,0,P|198:22|143:18,1,110.000003356934,2|0,3:2|0:0,0:0:0:0:
331,99,142585,2,0,P|365:60|342:14,1,110.000003356934,10|0,0:0|0:0,0:0:0:0:
230,145,142885,1,2,3:2:0:0:
402,227,143035,2,0,P|454:209|509:205,1,110.000003356934,2|8,3:2|0:0,0:0:0:0:
436,123,143335,5,2,3:2:0:0:
312,326,143485,1,0,0:0:0:0:
292,213,143635,5,2,3:2:0:0:
421,347,143785,1,8,0:0:0:0:
134,306,143935,2,0,P|167:264|220:267,1,110.000003356934,2|0,0:0|3:0,0:0:0:0:
70,384,144235,5,2,3:2:0:0:
20,256,144385,1,10,0:0:0:0:
214,362,144535,1,0,0:0:0:0:
1,245,144685,6,0,P|26:167|38:85,1,165.000005035401,6|0,3:2|0:0,0:0:0:0:
17,7,144985,1,8,0:0:0:0:
129,149,145135,1,2,0:0:0:0:
237,32,145285,2,0,P|187:54|132:62,1,110.000003356934,2|0,3:2|3:0,0:0:0:0:
222,191,145585,1,10,0:0:0:0:
388,144,145735,2,0,P|338:121|283:113,1,110.000003356934,0|0,3:0|0:0,0:0:0:0:
408,239,146035,2,0,P|457:216|512:208,1,110.000003356934,0|8,3:0|0:0,0:0:0:0:
335,332,146335,6,0,P|324:278|307:225,1,110.000003356934,2|0,0:0|3:0,0:0:0:0:
226,384,146635,1,2,3:2:0:0:
408,239,146785,1,10,0:0:0:0:
247,365,146935,1,2,0:0:0:0:
222,191,147085,6,0,P|232:137|249:84,1,110.000003356934,2|0,3:2|0:0,0:0:0:0:
56,103,147385,1,10,0:0:0:0:
143,294,147535,2,0,P|132:240|115:187,1,110.000003356934,2|0,0:0|3:0,0:0:0:0:
0,377,147835,1,2,3:2:0:0:
108,303,147985,1,8,0:0:0:0:
33,130,148135,6,0,P|16:182|5:236,1,110.000003356934,2|0,3:2|0:0,0:0:0:0:
220,225,148435,2,0,B|229:201|267:181|267:181|192:160|115:188,1,220.000006713867,2|0,3:2|0:0,0:0:0:0:
298,264,148885,5,2,3:2:0:0:
176,361,149035,1,0,3:0:0:0:
365,206,149185,2,0,L|335:100,1,110.000003356934,10|0,0:0|0:0,0:0:0:0:
499,292,149485,6,0,P|417:303|343:338,1,165.000005035401,6|0,3:2|0:0,0:0:0:0:
280,384,149786,1,8,0:0:0:0:
450,204,149935,2,0,L|434:152,1,55.0000016784668,2|0,0:0|0:0,0:0:0:0:
378,15,150085,2,0,P|377:68|334:100,1,110.000003356934,2|0,3:2|3:0,0:0:0:0:
298,264,150385,2,0,L|268:158,1,110.000003356934,8|2,0:0|3:2,0:0:0:0:
182,223,150685,5,2,0:0:0:0:
219,324,150835,1,0,3:0:0:0:
18,349,150985,2,0,P|64:319|116:303,1,110.000003356934,10|0,0:0|0:0,0:0:0:0:
166,96,151285,5,2,3:2:0:0:
13,224,151435,1,0,3:0:0:0:
183,210,151585,2,0,P|136:180|84:164,1,110.000003356934,10|0,0:0|0:0,0:0:0:0:
249,77,151885,6,0,P|254:5|182:16,1,165.000005035401,2|0,3:2|0:0,0:0:0:0:
166,96,152185,1,8,0:0:0:0:
275,213,152335,1,2,0:0:0:0:
117,259,152485,2,0,P|67:234|14:222,1,110.000003356934,2|0,3:2|3:0,0:0:0:0:
185,355,152785,2,0,P|235:330|288:318,1,110.000003356934,8|2,0:0|3:2,0:0:0:0:
434,359,153085,5,10,3:2:0:0:
413,351,153160,1,8,0:0:0:0:
392,343,153235,2,0,P|388:315|380:289,1,55.0000016784668,8|8,0:0|0:0,0:0:0:0:
459,226,153385,5,8,3:2:0:0:
480,218,153460,1,8,0:0:0:0:
501,210,153535,2,0,P|505:182|513:156,1,55.0000016784668,8|8,0:0|0:0,0:0:0:0:
287,318,153685,5,8,3:2:0:0:
266,310,153760,1,8,0:0:0:0:
245,302,153835,2,0,P|241:274|233:248,1,55.0000016784668,8|8,0:0|0:0,0:0:0:0:
381,164,153985,5,8,3:2:0:0:
402,156,154060,1,8,0:0:0:0:
423,148,154135,2,0,P|427:120|435:94,1,55.0000016784668,8|8,0:0|0:0,0:0:0:0:
253,37,154285,5,14,0:0:0:0:
318,228,154435,1,0,0:0:0:0:
139,130,154585,2,0,P|192:144|244:160,1,110.000003356934,10|0,0:0|3:0,0:0:0:0:
122,13,154885,2,0,P|69:29|16:43,1,110.000003356934,10|2,0:0|3:2,0:0:0:0:
1,245,155185,1,10,0:0:0:0:
108,148,155335,1,0,3:0:0:0:
207,285,155485,2,0,P|154:268|101:254,1,110.000003356934,10|0,0:0|3:0,0:0:0:0:
180,374,155785,5,10,0:0:0:0:
302,263,155935,1,0,3:0:0:0:
238,203,156085,5,10,0:0:0:0:
273,351,156235,1,0,3:0:0:0:
321,178,156385,5,10,0:0:0:0:
207,285,156535,1,0,3:0:0:0:
109,61,156685,5,2,3:2:0:0:
264,115,156835,1,2,3:2:0:0:
419,170,156985,2,0,P|401:117|386:64,1,110.000003356934,10|0,0:0|3:0,0:0:0:0:
480,294,157285,2,0,P|494:240|512:188,1,110.000003356934,10|0,0:0|3:0,0:0:0:0:
315,210,157585,1,10,0:0:0:0:
458,377,157735,1,2,3:2:0:0:
273,339,157885,2,0,P|287:285|305:233,1,110.000003356934,10|0,0:0|3:0,0:0:0:0:
67,346,158185,5,10,0:0:0:0:
228,202,158335,1,0,3:0:0:0:
283,114,158485,5,10,0:0:0:0:
381,155,158635,1,0,3:0:0:0:
202,201,158785,1,10,0:0:0:0:
104,160,158935,1,0,3:0:0:0:
162,0,159085,6,0,P|181:51|188:105,1,110.000003356934,6|2,3:2|0:0,0:0:0:0:
122,269,159385,1,8,0:0:0:0:
221,304,159535,1,2,3:2:0:0:
25,233,159685,2,0,P|5:284|-1:338,1,110.000003356934,10|0,0:0|3:0,0:0:0:0:
1,140,159985,1,10,0:0:0:0:
77,54,160135,2,0,P|96:105|103:159,1,110.000003356934,2|8,3:2|0:0,0:0:0:0:
221,304,160435,5,2,3:2:0:0:
142,329,160585,1,10,0:0:0:0:
289,357,160735,1,2,3:2:0:0:
238,224,160885,5,10,0:0:0:0:
437,345,161035,1,0,3:0:0:0:
466,131,161185,5,10,0:0:0:0:
302,277,161335,1,2,3:2:0:0:
334,145,161485,5,2,3:2:0:0:
463,240,161635,1,2,3:2:0:0:
364,137,161785,1,10,0:0:0:0:
429,27,161935,1,2,3:2:0:0:
232,136,162085,5,10,0:0:0:0:
332,236,162235,1,2,3:2:0:0:
202,144,162385,1,10,0:0:0:0:
290,30,162535,1,2,3:2:0:0:
97,78,162685,5,10,0:0:0:0:
144,298,162835,1,2,3:2:0:0:
238,224,162985,1,10,0:0:0:0:
43,384,163135,1,2,3:2:0:0:
0,140,163285,5,10,0:0:0:0:
115,188,163435,1,2,3:2:0:0:
258,369,163585,1,10,0:0:0:0:
373,321,163735,1,2,3:2:0:0:
474,149,163885,5,2,0:0:0:0:
24,128,173485,6,0,P|67:86|96:34,1,120,2|2,0:0|0:0,0:0:0:0:
182,101,174085,2,0,P|138:142|109:194,1,120,0|2,0:0|0:0,0:0:0:0:
34,253,174685,2,0,L|22:214,2,40,0|2|0,0:0|0:0|0:0,0:0:0:0:
65,345,175285,5,2,0:0:0:0:
65,345,175585,1,2,0:0:0:0:
130,279,175885,6,0,B|173:275|201:308|194:325|221:359|262:351,1,160,2|0,0:0|0:0,0:0:0:0:
336,243,176785,6,0,L|345:281,1,40,0|2,0:0|0:0,0:0:0:0:
338,150,177085,1,0,0:0:0:0:
250,231,177235,2,0,L|260:192,1,40,2|0,0:0|0:0,0:0:0:0:
434,110,177535,2,0,P|416:163|360:164,1,120,2|2,0:0|0:0,0:0:0:0:
216,26,178285,2,0,P|233:79|289:80,1,120,2|2,0:0|0:0,0:0:0:0:
480,64,179185,6,0,L|469:26,1,40,0|2,0:0|0:0,0:0:0:0:
377,8,179485,2,0,L|410:123,1,120,0|2,0:0|0:0,0:0:0:0:
488,180,180085,1,2,0:0:0:0:
488,180,180385,1,2,0:0:0:0:
316,198,180685,6,0,B|368:187|404:212|404:212|418:244|453:256,1,160,2|0,0:0|0:0,0:0:0:0:
512,366,181435,2,0,L|502:327,1,40,2|0,0:0|0:0,0:0:0:0:
350,281,181735,5,2,0:0:0:0:
241,365,182035,1,2,0:0:0:0:
111,225,182335,2,0,L|101:186,2,40,2|2|0,0:0|0:0|0:0,0:0:0:0:
57,298,182785,1,0,0:0:0:0:
128,375,183085,6,0,P|140:336|155:300,1,80,2|2,0:0|0:0,0:0:0:0:
197,218,183535,1,2,0:0:0:0:
197,218,183685,2,0,L|169:96,1,120,0|2,0:0|0:0,0:0:0:0:
122,17,184285,2,0,P|67:28|67:83,1,120,0|2,0:0|0:0,0:0:0:0:
273,152,184885,2,0,P|327:163|327:218,1,120,2|0,0:0|0:0,0:0:0:0:
271,346,185485,6,0,L|299:224,1,120,2|2,0:0|0:0,0:0:0:0:
440,258,186085,2,0,P|401:262|386:297,1,80
494,362,186535,1,2,0:0:0:0:
494,362,186685,2,0,P|437:341|379:327,1,120,0|2,0:0|0:0,0:0:0:0:
271,346,187285,1,2,0:0:0:0:
362,154,187585,6,0,P|380:160|400:166,1,40,2|0,0:0|0:0,0:0:0:0:
479,75,187885,2,0,P|440:65|405:83,1,80,2|2,0:0|0:0,0:0:0:0:
281,186,188335,6,0,L|289:225,7,40,2|0|2|0|2|0|2|0,0:0|0:0|0:0|0:0|0:0|0:0|0:0|0:0,0:0:0:0:
204,131,189535,5,2,0:0:0:0:
204,131,189685,1,2,0:0:0:0:
204,131,189985,6,0,P|185:137|165:143,1,40,2|0,0:0|0:0,0:0:0:0:
81,51,190285,2,0,P|119:41|154:59,1,80,2|2,0:0|0:0,0:0:0:0:
210,218,190735,6,0,L|201:257,7,40,2|0|2|0|2|0|2|0,0:0|0:0|0:0|0:0|0:0|0:0|0:0|0:0,0:0:0:0:
278,167,191935,5,2,0:0:0:0:
278,167,192085,1,2,0:0:0:0:
204,131,192385,5,0,0:0:0:0:
204,131,192685,6,0,B|169:68|88:55|88:55|101:77|99:88,1,179.999994506836,0|0,3:0|0:0,0:0:0:0:
90,213,192985,2,0,P|101:185|123:165,1,59.9999981689454,0|0,1:0|3:0,0:0:0:0:
143,321,193285,6,0,L|114:329,1,29.9999990844727
43,282,193435,2,0,L|14:290,2,29.9999990844727,0|0|2,0:0|0:0|1:2,0:0:0:0:
168,236,193735,2,0,L|224:254,1,59.9999981689454
285,351,194035,6,0,L|313:342,1,29.9999990844727,0|0,3:0|0:0,0:0:0:0:
294,325,194185,2,0,L|237:343,1,59.9999981689454,0|0,1:0|0:0,0:0:0:0:
317,241,194485,6,0,P|298:174|361:148,1,150,0|0,3:0|0:0,0:0:0:0:
400,124,194785,2,0,L|394:153,1,29.9999990844727,2|0,1:2|0:0,0:0:0:0:
453,209,194935,2,0,L|447:238,1,29.9999990844727
439,374,195085,6,0,L|396:230,1,150,0|0,3:0|0:0,0:0:0:0:
475,134,195385,2,0,P|503:144|518:170,1,59.9999981689454,0|0,1:0|3:0,0:0:0:0:
450,52,195685,6,0,L|456:23,1,29.9999990844727
369,48,195835,2,0,L|375:19,2,29.9999990844727,0|0|2,0:0|0:0|1:2,0:0:0:0:
328,163,196135,2,0,P|318:134|306:106,1,59.9999981689454
285,253,196435,6,0,L|314:245,1,29.9999990844727,0|0,3:0|0:0,0:0:0:0:
366,301,196585,2,0,P|338:289|309:279,1,59.9999981689454,0|0,1:0|0:0,0:0:0:0:
185,365,196885,2,0,P|212:353|241:343,1,59.9999981689454,0|0,3:0|0:0,0:0:0:0:
231,174,197185,5,2,1:2:0:0:
135,294,197335,1,0,0:0:0:0:
14,174,197485,2,0,P|84:199|158:212,1,150,0|0,3:0|0:0,0:0:0:0:
231,174,197785,2,0,P|216:148|188:138,1,59.9999981689454,0|0,1:0|3:0,0:0:0:0:
30,69,198085,6,0,L|35:97,1,29.9999990844727
105,35,198235,2,0,L|99:6,2,29.9999990844727,0|0|2,0:0|0:0|1:2,0:0:0:0:
188,138,198535,2,0,L|174:78,1,59.9999981689454
337,24,198835,6,0,L|330:52,1,29.9999990844727,0|0,3:0|0:0,0:0:0:0:
373,136,198985,2,0,P|343:138|321:158,1,59.9999981689454,0|0,1:0|0:0,0:0:0:0:
206,225,199285,2,0,P|278:228|315:290,1,150,0|0,3:0|0:0,0:0:0:0:
291,361,199585,2,0,L|261:353,1,29.9999990844727,2|0,1:2|0:0,0:0:0:0:
380,223,199735,2,0,L|409:215,1,29.9999990844727
507,276,199885,6,0,L|478:268,11,29.9999990844727,2|0|0|0|0|0|0|0|0|0|0|0,0:0|0:0|0:0|0:0|0:0|0:0|0:0|0:0|0:0|0:0|0:0|0:0,0:0:0:0:
422,329,200785,6,0,P|394:337|367:351,4,59.9999981689454
478,268,201535,6,0,L|507:276,2,29.9999990844727
408,215,201835,5,0,0:0:0:0:
472,141,201985,1,0,0:0:0:0:
454,136,202060,1,0,0:0:0:0:
436,131,202135,1,0,0:0:0:0:
419,126,202210,1,0,0:0:0:0:
402,120,202285,1,2,0:0:0:0:
287,82,211885,6,0,P|250:37|192:42,1,120,4|0,3:2|0:0,0:0:0:0:
173,57,212185,2,0,P|188:94|197:132,1,80,0|0,3:0|1:0,0:0:0:0:
0,203,212485,6,0,P|36:158|94:163,1,120,0|0,3:0|0:0,0:0:0:0:
116,173,212785,2,0,P|131:210|140:248,1,80,0|0,3:0|0:0,0:0:0:0:
354,201,213085,5,0,3:0:0:0:
282,164,213235,1,0,1:0:0:0:
219,214,213385,2,0,P|234:251|243:289,1,80,0|0,3:0|0:0,0:0:0:0:
185,347,213685,5,0,3:0:0:0:
185,347,213835,1,0,1:0:0:0:
319,273,213985,2,0,P|334:310|343:348,1,80,0|0,3:0|1:0,0:0:0:0:
420,291,214285,6,0,P|429:231|449:175,1,120,0|0,3:0|0:0,0:0:0:0:
468,160,214585,2,0,P|484:196|460:245,1,80,0|0,3:0|0:0,0:0:0:0:
359,155,214885,2,0,P|349:95|329:39,1,120,0|0,3:0|0:0,0:0:0:0:
311,24,215185,2,0,P|294:60|319:109,1,80,0|0,3:0|0:0,0:0:0:0:
346,240,215485,5,0,3:0:0:0:
346,240,215635,1,0,1:0:0:0:
215,136,215785,2,0,P|237:168|292:171,1,80,0|0,3:0|0:0,0:0:0:0:
174,40,216085,2,0,P|151:72|96:75,1,80,0|0,3:0|0:0,0:0:0:0:
14,20,216385,2,0,L|32:97,1,80,0|0,3:0|1:0,0:0:0:0:
102,183,216685,6,0,L|65:297,1,120,0|0,3:0|0:0,0:0:0:0:
57,319,216985,2,0,P|91:298|129:288,1,80,0|0,3:0|1:0,0:0:0:0:
230,189,217285,2,0,P|287:207|345:222,1,120,0|0,3:0|0:0,0:0:0:0:
368,228,217585,2,0,P|402:207|440:197,1,80,0|0,3:0|0:0,0:0:0:0:
433,70,217885,2,0,P|375:88|317:103,1,120,0|0,3:0|0:0,0:0:0:0:
294,105,218185,2,0,P|259:84|221:74,1,80,0|0,3:0|0:0,0:0:0:0:
331,0,218485,5,0,3:0:0:0:
129,155,218785,5,0,3:0:0:0:
335,318,219085,6,0,P|372:304|411:294,1,80,0|0,3:0|0:0,0:0:0:0:
328,296,219385,2,0,P|365:282|404:272,1,80,0|0,3:0|0:0,0:0:0:0:
252,356,219685,5,0,3:0:0:0:
252,356,219835,1,0,1:0:0:0:
190,279,219985,2,0,P|152:265|113:255,1,80,0|0,3:0|0:0,0:0:0:0:
23,86,220285,5,14,3:2:0:0:
62,78,220360,1,8,0:0:0:0:
100,68,220435,1,8,0:0:0:0:
138,58,220510,1,8,0:0:0:0:
176,45,220585,2,0,B|168:20|168:20|183:-5,3,50,10|8|8|8,3:2|0:0|0:0|0:0,0:0:0:0:
141,176,220885,2,0,B|115:169|115:169|101:144,3,50,10|8|8|8,3:2|0:0|0:0|0:0,0:0:0:0:
220,262,221185,5,10,3:2:0:0:
228,233,221260,1,8,0:0:0:0:
235,203,221335,1,8,0:0:0:0:
245,174,221410,1,8,0:0:0:0:
256,142,221485,2,0,P|331:106|411:88,1,165.000005035401,6|0,3:2|0:0,0:0:0:0:
487,116,221785,1,8,0:0:0:0:
317,24,221935,1,2,0:0:0:0:
422,167,222085,2,0,P|439:219|443:273,2,110.000003356934,2|0|0,3:2|3:0|0:0,0:0:0:0:
199,212,222535,1,10,0:0:0:0:
258,278,222685,2,0,P|240:330|236:384,1,110.000003356934,2|0,0:0|3:0,0:0:0:0:
330,207,222985,1,8,0:0:0:0:
131,288,223135,5,2,0:0:0:0:
176,209,223285,2,0,L|143:46,1,165.000005035401,2|0,3:2|0:0,0:0:0:0:
209,2,223585,2,0,P|247:37|230:86,1,110.000003356934,10|0,0:0|3:0,0:0:0:0:
3,233,223885,6,0,P|38:194|87:211,1,110.000003356934,2|0,3:2|0:0,0:0:0:0:
227,291,224185,2,0,P|146:309|68:335,1,165.000005035401,10|0,0:0|0:0,0:0:0:0:
32,371,224485,2,0,L|50:318,2,55.0000016784668,2|0|0,3:2|0:0|3:0,0:0:0:0:
289,356,224785,1,2,0:0:0:0:
311,272,224935,2,0,L|293:219,2,55.0000016784668,10|0|0,0:0|0:0|0:0,0:0:0:0:
447,326,225235,1,2,3:2:0:0:
382,215,225385,2,0,P|396:162|413:109,1,110.000003356934,8|0,0:0|3:0,0:0:0:0:
371,41,225610,5,0,0:0:0:0:
371,41,225685,2,0,P|322:58|321:110,1,110.000003356934,2|0,3:2|0:0,0:0:0:0:
512,183,225985,1,10,0:0:0:0:
455,39,226135,1,0,3:0:0:0:
297,196,226285,6,0,P|219:171|138:157,1,165.000005035401,6|0,3:2|0:0,0:0:0:0:
79,106,226585,2,0,B|98:59|142:55|142:55|134:71|137:78,1,110.000003356934,10|0,0:0|0:0,0:0:0:0:
209,259,226885,1,2,3:2:0:0:
62,184,227035,1,0,3:0:0:0:
224,82,227185,1,14,0:0:0:0:
38,199,227335,6,0,P|55:251|70:304,1,110.000003356934,10|0,0:0|3:2,0:0:0:0:
0,129,227635,1,2,0:0:0:0:
227,279,227785,2,0,P|209:331|194:384,1,110.000003356934,10|0,0:0|3:0,0:0:0:0:
385,248,228085,6,0,P|367:195|352:142,1,110.000003356934,2|0,3:2|0:0,0:0:0:0:
316,318,228385,1,10,0:0:0:0:
458,158,228535,1,0,3:0:0:0:
268,193,228685,6,0,B|227:199|198:159|208:139|169:111|130:118,1,165.000005035401,2|0,3:2|0:0,0:0:0:0:
53,147,228985,2,0,P|72:195|124:201,1,110.000003356934,10|0,0:0|0:0,0:0:0:0:
275,108,229285,1,2,3:2:0:0:
52,51,229435,2,0,P|104:35|156:15,1,110.000003356934,2|0,3:2|0:0,0:0:0:0:
342,158,229735,2,0,P|394:142|446:122,1,110.000003356934,10|0,0:0|0:0,0:0:0:0:
445,295,230035,1,2,3:2:0:0:
268,193,230185,1,8,0:0:0:0:
408,24,230335,2,0,P|460:39|512:59,1,110.000003356934,2|0,3:2|3:0,0:0:0:0:
338,239,230635,5,2,0:0:0:0:
289,74,230785,1,10,0:0:0:0:
350,266,230935,1,0,0:0:0:0:
180,157,231085,6,0,B|173:141|155:137|155:137|230:136|267:192,1,165.000005035401,6|0,3:2|0:0,0:0:0:0:
248,272,231385,1,8,0:0:0:0:
55,369,231535,1,2,0:0:0:0:
226,346,231685,2,0,P|210:293|193:241,1,110.000003356934,2|0,3:2|3:0,0:0:0:0:
0,178,231985,1,2,0:0:0:0:
73,105,232135,2,0,P|90:52|105:0,1,110.000003356934,8|0,0:0|0:0,0:0:0:0:
300,87,232435,2,0,P|282:139|267:191,1,110.000003356934,0|8,3:0|0:0,0:0:0:0:
444,89,232735,6,0,P|432:38|381:29,1,110.000003356934,2|0,3:2|3:0,0:0:0:0:
195,88,233035,1,2,0:0:0:0:
368,198,233185,1,10,0:0:0:0:
174,102,233335,1,0,3:0:0:0:
329,258,233485,6,0,P|379:235|431:220,1,110.000003356934,2|2,3:2|0:0,0:0:0:0:
435,384,233785,1,8,0:0:0:0:
274,327,233935,1,2,0:0:0:0:
512,215,234085,6,0,P|502:163|453:144,1,110.000003356934,2|0,3:2|3:0,0:0:0:0:
424,354,234385,1,2,0:0:0:0:
249,280,234535,2,0,P|239:228|279:193,1,110.000003356934,10|0,0:0|0:0,0:0:0:0:
471,288,234835,1,2,3:2:0:0:
363,151,234985,2,0,L|379:42,1,110.000003356934,8|0,0:0|0:0,0:0:0:0:
170,6,235285,6,0,L|155:114,1,110.000003356934,2|0,3:2|0:0,0:0:0:0:
359,234,235585,1,10,0:0:0:0:
268,82,235735,1,0,3:0:0:0:
121,241,235885,6,0,P|198:213|278:193,1,165.000005035401,6|0,3:2|0:0,0:0:0:0:
359,234,236185,1,8,0:0:0:0:
154,142,236335,1,2,0:0:0:0:
115,335,236485,2,0,P|62:319|8:307,1,110.000003356934,2|0,3:2|3:0,0:0:0:0:
47,114,236785,2,0,P|99:129|153:141,1,110.000003356934,0|10,0:0|0:0,0:0:0:0:
287,261,237085,5,2,0:0:0:0:
406,209,237235,1,0,3:0:0:0:
511,278,237385,2,0,P|495:330|483:384,1,110.000003356934,10|0,0:0|0:0,0:0:0:0:
245,159,237685,1,2,3:2:0:0:
394,243,237835,1,0,0:0:0:0:
506,113,237985,2,0,P|490:60|478:7,1,110.000003356934,10|0,0:0|3:0,0:0:0:0:
244,39,238285,6,0,P|259:91|271:145,1,110.000003356934,2|0,3:2|0:0,0:0:0:0:
394,243,238585,1,8,0:0:0:0:
449,186,238735,2,0,P|408:152|357:172,1,110.000003356934,2|0,0:0|3:0,0:0:0:0:
260,357,239035,1,0,3:0:0:0:
133,251,239185,2,0,P|185:266|239:278,1,110.000003356934,2|8,0:0|0:0,0:0:0:0:
88,334,239485,5,10,3:2:0:0:
67,326,239560,1,8,0:0:0:0:
46,318,239635,2,0,P|42:290|34:264,1,55.0000016784668,8|8,0:0|0:0,0:0:0:0:
199,180,239785,5,8,3:2:0:0:
220,172,239860,1,8,0:0:0:0:
241,164,239935,2,0,P|245:136|253:110,1,55.0000016784668,8|8,0:0|0:0,0:0:0:0:
372,273,240085,5,8,3:2:0:0:
351,265,240160,1,8,0:0:0:0:
330,257,240235,2,0,P|326:229|318:203,1,55.0000016784668,8|8,0:0|0:0,0:0:0:0:
211,22,240385,5,8,3:2:0:0:
190,30,240460,1,8,0:0:0:0:
169,38,240535,2,0,P|165:66|157:92,1,55.0000016784668,8|8,0:0|0:0,0:0:0:0:
59,176,240685,6,0,P|36:96|0:23,1,165.000005035401,6|0,3:2|0:0,0:0:0:0:
27,7,240985,2,0,P|74:28|62:78,1,110.000003356934,10|0,0:0|3:0,0:0:0:0:
119,251,241285,1,10,0:0:0:0:
199,218,241435,2,0,L|214:165,2,55.0000016784668,2|0|0,3:2|0:0|0:0,0:0:0:0:
250,368,241735,6,0,P|239:317|188:306,1,110.000003356934,10|0,0:0|0:0,0:0:0:0:
399,300,242035,1,2,3:2:0:0:
295,241,242185,2,0,P|305:190|356:179,1,110.000003356934,10|0,0:0|0:0,0:0:0:0:
425,98,242485,2,0,L|440:150,2,55.0000016784668,2|0|0,3:2|0:0|3:0,0:0:0:0:
352,34,242785,5,10,0:0:0:0:
512,106,242935,1,2,0:0:0:0:
410,258,243085,2,0,P|459:234|512:220,1,110.000003356934,10|0,0:0|0:0,0:0:0:0:
249,71,243385,2,0,P|301:56|351:33,1,110.000003356934,10|0,0:0|0:0,0:0:0:0:
187,145,243685,1,2,3:2:0:0:
142,55,243835,2,0,L|157:2,2,55.0000016784668,10|0|0,0:0|0:0|0:0,0:0:0:0:
0,98,244135,6,0,P|73:122|73:199,1,165.000005035401,10|0,0:0|0:0,0:0:0:0:
1,249,244435,1,2,3:2:0:0:
108,384,244585,1,10,0:0:0:0:
233,251,244735,1,8,0:0:0:0:
213,262,244810,1,8,0:0:0:0:
194,274,244885,2,0,L|185:329,2,55.0000016784668,2|0|0,3:2|0:0|3:0,0:0:0:0:
169,188,245185,5,10,0:0:0:0:
276,323,245335,1,2,3:2:0:0:
337,233,245485,2,0,P|390:246|444:256,1,110.000003356934,2|0,0:0|3:0,0:0:0:0:
512,299,245785,1,10,0:0:0:0:
470,129,245935,1,8,0:0:0:0:
463,149,246010,1,8,0:0:0:0:
456,169,246085,1,2,0:0:0:0:
395,71,246235,2,0,L|386:16,2,55.0000016784668,2|0|8,3:2|0:0|0:0,0:0:0:0:
266,186,246535,6,0,P|293:141|346:146,1,110.000003356934,2|0,3:2|0:0,0:0:0:0:
276,323,246835,1,2,3:2:0:0:
179,185,246985,2,0,P|126:187|105:234,1,110.000003356934,10|0,0:0|0:0,0:0:0:0:
29,361,247285,5,2,3:2:0:0:
186,271,247435,1,2,3:2:0:0:
40,147,247585,1,8,0:0:0:0:
134,89,247735,1,2,0:0:0:0:
20,20,247885,6,0,B|81:43|81:43|107:40|107:40|176:62,1,165.000005035401,4|0,3:2|0:0,0:0:0:0:
233,125,248185,1,10,0:0:0:0:
310,19,248335,1,8,0:0:0:0:
303,39,248410,1,8,0:0:0:0:
296,59,248485,1,2,3:2:0:0:
300,188,248635,2,0,L|311:241,2,55.0000016784668,2|0|0,3:2|0:0|0:0,0:0:0:0:
365,121,248935,5,10,0:0:0:0:
504,171,249085,2,0,P|449:177|399:200,1,110.000003356934,2|0,0:0|3:0,0:0:0:0:
198,301,249385,2,0,P|252:307|302:330,1,110.000003356934,10|0,0:0|0:0,0:0:0:0:
85,351,249685,5,2,3:2:0:0:
213,207,249835,1,0,3:0:0:0:
311,241,249985,5,10,0:0:0:0:
212,97,250135,1,0,3:0:0:0:
338,0,250285,6,0,P|308:77|296:158,1,165.000005035401,6|0,3:2|0:0,0:0:0:0:
310,240,250585,2,0,P|362:239|372:189,1,110.000003356934,10|0,0:0|3:0,0:0:0:0:
212,97,250885,1,10,0:0:0:0:
124,144,251035,2,0,L|112:90,2,55.0000016784668,2|0|0,3:2|0:0|0:0,0:0:0:0:
100,281,251335,6,0,P|52:253|0:240,1,110.000003356934,10|0,0:0|0:0,0:0:0:0:
200,220,251635,1,2,3:2:0:0:
165,373,251785,2,0,P|212:345|265:332,1,110.000003356934,10|0,0:0|0:0,0:0:0:0:
348,224,252085,2,0,L|336:277,2,55.0000016784668,2|0|0,3:2|0:0|3:0,0:0:0:0:
292,146,252385,1,10,0:0:0:0:
443,220,252535,1,2,0:0:0:0:
474,59,252685,6,0,P|422:77|367:86,1,110.000003356934,10|0,0:0|0:0,0:0:0:0:
512,298,252985,2,0,P|457:306|405:325,1,110.000003356934,10|0,0:0|0:0,0:0:0:0:
292,146,253285,1,2,3:2:0:0:
208,192,253435,2,0,L|196:245,2,55.0000016784668,10|0|0,0:0|0:0|0:0,0:0:0:0:
188,48,253735,6,0,B|164:63|125:56|125:56|177:81|210:107,1,165.000005035401,10|0,0:0|0:0,0:0:0:0:
274,51,254035,1,2,3:2:0:0:
123,151,254185,1,10,0:0:0:0:
270,273,254335,1,8,0:0:0:0:
290,264,254410,1,8,0:0:0:0:
309,254,254485,2,0,L|320:200,2,55.0000016784668,2|0|0,3:2|0:0|3:0,0:0:0:0:
358,356,254785,5,10,0:0:0:0:
235,187,254935,1,2,3:2:0:0:
101,306,255085,2,0,P|155:315|207:331,1,110.000003356934,2|0,0:0|3:0,0:0:0:0:
33,210,255385,1,10,0:0:0:0:
122,138,255535,1,8,0:0:0:0:
143,133,255610,1,8,0:0:0:0:
164,128,255685,1,2,0:0:0:0:
64,41,255835,2,0,L|12:23,2,55.0000016784668,2|0|8,3:2|0:0|0:0,0:0:0:0:
217,28,256135,6,0,P|172:54|170:107,1,110.000003356934,2|0,3:2|0:0,0:0:0:0:
321,229,256435,1,2,3:2:0:0:
398,129,256585,2,0,P|443:154|445:207,1,110.000003356934,10|0,0:0|0:0,0:0:0:0:
274,113,256885,5,2,3:2:0:0:
420,42,257035,1,2,3:2:0:0:
321,229,257185,1,8,0:0:0:0:
433,291,257335,1,2,0:0:0:0:
255,360,257485,6,0,B|238:371|219:390|219:390|247:275,1,165.000005035401,4|0,3:2|0:0,0:0:0:0:
244,198,257785,1,10,0:0:0:0:
134,98,257935,1,8,0:0:0:0:
155,108,258010,1,8,0:0:0:0:
176,117,258085,1,2,3:2:0:0:
260,64,258235,2,0,L|275:11,2,55.0000016784668,2|0|0,3:2|0:0|0:0,0:0:0:0:
333,125,258535,1,10,0:0:0:0:
122,313,258685,6,0,P|73:287|21:270,1,110.000003356934,2|0,0:0|3:0,0:0:0:0:
311,242,258985,2,0,P|359:216|411:199,1,110.000003356934,10|0,0:0|0:0,0:0:0:0:
243,373,259285,1,10,0:0:0:0:
231,330,259360,1,8,0:0:0:0:
220,287,259435,1,8,0:0:0:0:
209,245,259510,1,8,0:0:0:0:
198,202,259585,1,8,0:0:0:0:
187,160,259660,1,8,0:0:0:0:
176,117,259735,1,8,0:0:0:0:
398,305,259885,5,0,0:0:0:0:
256,192,259960,12,0,274285,0:0:0:0:
