osu file format v14

[General]
AudioFilename: audio.mp3
AudioLeadIn: 0
PreviewTime: 57535
Countdown: 0
SampleSet: Soft
StackLeniency: 0.4
Mode: 0
LetterboxInBreaks: 0
WidescreenStoryboard: 1

[Editor]
Bookmarks: 87085,154285
DistanceSpacing: 0.7
BeatDivisor: 8
GridSize: 8
TimelineZoom: 2.1

[Metadata]
Title:Majo
TitleUnicode:魔女
Artist:KAF
ArtistUnicode:花譜
Creator:LeeGod
Version:Kotaete
Source:
Tags:Poyoyo MiyohashiKoori W M W_M milkgreen Sagisawa_Arisa Kohno_Marika Sagisawa Arisa Kohno Marika kamitsubaki studio kafu japanese pop rock jpop jrock virtual vtuber vsinger 神椿 花と心臓 hana to shinzou
BeatmapID:3970225
BeatmapSetID:1438258

[Difficulty]
HPDrainRate:6
CircleSize:4.3
OverallDifficulty:9
ApproachRate:9.6
SliderMultiplier:2
SliderTickRate:1

[Events]
//Background and Video events
0,0,"bg.jpg",0,0
//Break Periods
2,87285,95560
2,164085,172660
//Storyboard Layer 0 (Background)
//Storyboard Layer 1 (Fail)
//Storyboard Layer 2 (Pass)
//Storyboard Layer 3 (Foreground)
//Storyboard Layer 4 (Overlay)
//Storyboard Sound Samples

[TimingPoints]
685,300,4,2,2,30,1,0
1885,-153.846153846154,4,2,2,20,0,0
2185,-153.846153846154,4,2,2,30,0,0
2485,-153.846153846154,4,2,2,40,0,0
2785,-153.846153846154,4,2,2,50,0,0
3085,-153.846153846154,4,2,2,30,0,0
4285,-153.846153846154,4,2,2,20,0,0
4585,-153.846153846154,4,2,2,30,0,0
4885,-153.846153846154,4,2,2,40,0,0
5185,-153.846153846154,4,2,2,50,0,0
5485,-153.846153846154,4,2,2,30,0,0
6685,-153.846153846154,4,2,2,20,0,0
6985,-153.846153846154,4,2,2,30,0,0
7285,-153.846153846154,4,2,2,40,0,0
7585,-153.846153846154,4,2,2,50,0,0
7885,-153.846153846154,4,2,2,30,0,0
9085,-153.846153846154,4,2,2,20,0,0
9385,-153.846153846154,4,2,2,30,0,0
9685,-153.846153846154,4,2,1,65,0,0
10285,-95.2380952380952,4,2,1,80,0,0
19885,-250,4,2,2,40,0,0
21085,-166.666666666667,4,2,2,40,0,0
21835,-175.438596491228,4,2,2,40,0,0
22285,-204.081632653061,4,2,2,40,0,0
25885,-222.222222222222,4,2,2,40,0,0
27085,-200,4,2,2,40,0,0
28285,-166.666666666667,4,2,2,40,0,0
29485,-153.846153846154,4,2,2,50,0,0
38785,-153.846153846154,4,2,1,65,0,0
39085,-95.2380952380952,4,2,1,65,0,0
39385,-117.647058823529,4,2,1,65,0,0
48685,-105.263157894737,4,2,1,65,0,0
57085,-222.222222222222,4,2,1,65,0,0
57535,-222.222222222222,4,2,1,40,0,0
58285,-80,4,2,1,90,0,0
61060,-80,4,2,1,5,0,0
61135,-80,4,2,1,90,0,0
62560,-80,4,2,1,5,0,0
62635,-80,4,2,1,90,0,0
62710,-80,4,2,1,5,0,0
62785,-80,4,2,1,90,0,0
63085,-74.0740740740741,4,2,1,90,0,0
63385,-80,4,2,1,90,0,0
64060,-80,4,2,1,5,0,0
64135,-80,4,2,1,90,0,0
67360,-80,4,2,1,5,0,0
67435,-80,4,2,1,90,0,0
67510,-80,4,2,1,5,0,0
67585,-80,4,2,1,90,0,0
67885,-74.0740740740741,4,2,1,90,0,0
68935,-80,4,2,1,90,0,0
70660,-80,4,2,1,5,0,0
70735,-80,4,2,1,90,0,0
72160,-80,4,2,1,5,0,0
72235,-80,4,2,1,90,0,0
72310,-80,4,2,1,5,0,0
72385,-80,4,2,1,90,0,0
77485,-80,4,2,1,80,0,0
78235,-95.2380952380952,4,2,1,80,0,0
85885,-68.9655172413793,4,2,1,80,0,0
87085,-153.846153846154,4,2,2,40,0,0
96085,-100,4,2,2,40,0,0
96310,-100,4,2,2,5,0,0
96385,-200,4,2,2,50,0,0
96610,-200,4,2,2,5,0,0
96685,-200,4,2,2,50,0,0
105985,-500,4,2,2,50,0,0
106210,-500,4,2,2,5,0,0
106285,-133.333333333333,4,2,2,60,0,0
115585,-285.714285714284,4,2,1,40,0,0
115885,-100,4,2,1,65,0,0
116260,-100,4,2,1,5,0,0
116335,-100,4,2,1,65,0,0
117460,-100,4,2,1,5,0,0
117535,-100,4,2,1,65,0,0
117985,-285.714285714284,4,2,1,65,0,0
118285,-100,4,2,1,65,0,0
118660,-100,4,2,1,5,0,0
118735,-100,4,2,1,65,0,0
118960,-100,4,2,1,5,0,0
119035,-100,4,2,1,65,0,0
119110,-100,4,2,1,5,0,0
119185,-100,4,2,1,65,0,0
122635,-285.714285714284,4,2,1,65,0,0
123085,-100,4,2,1,65,0,0
125260,-100,4,2,1,65,0,0
125335,-100,4,2,1,65,0,0
125410,-100,4,2,1,5,0,0
125485,-285.714285714284,4,2,1,65,0,0
125785,-100,4,2,1,65,0,0
129985,-285.714285714284,4,2,1,65,0,0
130285,-100,4,2,1,65,0,0
130660,-100,4,2,1,5,0,0
130735,-100,4,2,1,65,0,0
131860,-100,4,2,1,5,0,0
131935,-100,4,2,1,65,0,0
132460,-100,4,2,1,5,0,0
132535,-100,4,2,1,65,0,0
132610,-100,4,2,1,5,0,0
132685,-100,4,2,1,65,0,0
133885,-100,4,2,2,45,0,0
135085,-80,4,2,1,90,0,0
137860,-80,4,2,1,5,0,0
137935,-80,4,2,1,90,0,0
139585,-133.333333333333,4,2,1,90,0,0
139885,-80,4,2,1,90,0,0
141310,-80,4,2,1,5,0,0
141385,-80,4,2,1,90,0,0
141985,-133.333333333333,4,2,1,90,0,0
142285,-80,4,2,1,90,0,0
143410,-80,4,2,1,5,0,0
143485,-80,4,2,1,90,0,0
144385,-133.333333333333,4,2,1,90,0,0
144685,-80,4,2,1,90,0,0
148210,-80,4,2,1,5,0,0
148285,-80,4,2,1,90,0,0
148360,-80,4,2,1,5,0,0
148435,-80,4,2,1,90,0,0
148510,-80,4,2,1,5,0,0
148585,-80,4,2,1,90,0,0
150760,-80,4,2,1,5,0,0
150835,-80,4,2,1,90,0,0
150910,-80,4,2,1,5,0,0
150985,-80,4,2,1,90,0,0
151585,-133.333333333333,4,2,1,90,0,0
151885,-80,4,2,1,90,0,0
152560,-80,4,2,1,5,0,0
152635,-80,4,2,1,90,0,0
152710,-80,4,2,1,5,0,0
152785,-80,4,2,1,90,0,0
152860,-80,4,2,1,5,0,0
152935,-80,4,2,1,90,0,0
154285,-80,4,2,1,90,0,1
163885,-80,4,2,2,40,0,0
173185,-500,4,2,2,40,0,0
173485,-181.818181818182,4,2,2,50,0,0
179410,-181.818181818182,4,2,2,5,0,0
179485,-181.818181818182,4,2,2,50,0,0
180010,-181.818181818182,4,2,2,5,0,0
180085,-181.818181818182,4,2,2,50,0,0
183085,-400,4,2,2,50,0,0
183610,-400,4,2,2,5,0,0
183685,-181.818181818182,4,2,2,50,0,0
187210,-181.818181818182,4,2,2,5,0,0
187285,-181.818181818182,4,2,2,50,0,0
190735,-285.714285714286,4,2,2,50,0,0
192685,-153.846153846154,4,2,1,60,0,0
196960,-153.846153846154,4,2,1,5,0,0
197185,-153.846153846154,4,2,1,60,0,0
198985,-133.333333333333,4,2,1,60,0,0
199285,-111.111111111111,4,2,1,60,0,0
199885,-400,4,2,1,35,0,0
200935,-400,4,2,1,35,0,0
202285,-222.222222222222,4,2,2,40,0,0
211885,-80,4,2,1,65,0,0
220285,-80,4,2,1,80,0,0
221485,-80,4,2,1,90,0,0
222610,-80,4,2,1,5,0,0
222685,-80,4,2,1,90,0,0
223660,-80,4,2,1,5,0,0
223735,-80,4,2,1,90,0,0
223810,-80,4,2,1,5,0,0
223885,-80,4,2,1,90,0,0
227185,-80,4,2,2,90,0,0
227260,-80,4,2,2,5,0,0
227335,-80,4,2,1,90,0,0
234460,-80,4,2,1,5,0,0
234535,-80,4,2,1,90,0,0
240685,-80,4,2,1,80,0,0
240985,-95.2380952380952,4,2,1,80,0,0
250285,-80,4,2,1,80,0,0
250585,-95.2380952380952,4,2,1,80,0,0
259885,-80,4,2,1,20,0,0
259960,-80,4,2,1,20,0,0
264685,-80,4,2,1,16,0,0
267085,-80,4,2,1,14,0,0
268285,-80,4,2,1,12,0,0
269485,-80,4,2,1,10,0,0
270685,-80,4,2,1,8,0,0
271885,-80,4,2,1,7,0,0
273085,-80,4,2,1,6,0,0
274285,-80,4,2,1,5,0,0

[Colours]
Combo1 : 197,177,194
Combo2 : 255,189,209
Combo3 : 200,35,235

[HitObjects]
193,97,685,5,0,0:0:0:0:
117,70,985,1,0,0:0:0:0:
117,70,1135,1,0,0:0:0:0:
50,114,1435,1,0,0:0:0:0:
125,141,1735,1,0,0:0:0:0:
148,222,1885,6,0,P|116:216|85:210,1,64.9999999999999,2|0,0:0|0:0,0:0:0:0:
157,235,2185,2,0,P|125:229|94:223,1,64.9999999999999,2|0,0:0|0:0,0:0:0:0:
63,325,2485,6,0,P|95:319|127:313,1,64.9999999999999,2|0,0:0|0:0,0:0:0:0:
54,338,2785,2,0,P|86:332|118:326,1,64.9999999999999,2|0,0:0|0:0,0:0:0:0:
309,277,3085,5,0,0:0:0:0:
391,315,3385,1,0,0:0:0:0:
391,315,3535,1,0,0:0:0:0:
463,259,3835,1,0,0:0:0:0:
376,230,4135,1,0,0:0:0:0:
337,146,4285,6,0,P|309:139|265:139,1,64.9999999999999,2|0,0:0|0:0,0:0:0:0:
347,135,4585,2,0,P|319:128|275:128,1,64.9999999999999,2|0,0:0|0:0,0:0:0:0:
374,40,4885,6,0,P|402:47|446:47,1,64.9999999999999,2|0,0:0|0:0,0:0:0:0:
364,51,5185,2,0,P|392:58|436:58,1,64.9999999999999,2|0,0:0|0:0,0:0:0:0:
204,193,5485,5,0,0:0:0:0:
117,163,5785,1,0,0:0:0:0:
117,163,5935,1,0,0:0:0:0:
79,245,6235,1,0,0:0:0:0:
162,280,6535,1,0,0:0:0:0:
33,171,6685,6,0,P|25:136|10:101,1,64.9999999999999,2|0,0:0|0:0,0:0:0:0:
47,172,6985,2,0,P|39:137|24:102,1,64.9999999999999,2|0,0:0|0:0,0:0:0:0:
166,73,7285,6,0,P|174:38|189:3,1,64.9999999999999,2|0,0:0|0:0,0:0:0:0:
152,74,7585,2,0,P|160:39|175:4,1,64.9999999999999,2|0,0:0|0:0,0:0:0:0:
358,189,7885,5,0,0:0:0:0:
271,150,8185,6,0,P|279:108|274:74,1,64.9999999999999
278,155,8485,2,0,P|286:113|281:79,1,64.9999999999999
429,211,8785,6,0,P|427:243|434:274,1,64.9999999999999
436,206,9085,2,0,P|434:238|441:269,1,64.9999999999999,2|0,0:0|0:0,0:0:0:0:
446,103,9385,6,0,P|406:109|367:107,1,64.9999999999999,2|0,0:0|0:0,0:0:0:0:
176,335,9685,5,2,0:0:0:0:
337,297,9835,1,2,0:0:0:0:
153,326,9985,5,2,0:0:0:0:
134,310,10060,1,2,0:0:0:0:
122,289,10135,1,2,0:0:0:0:
117,265,10210,1,2,0:0:0:0:
121,238,10285,6,0,B|127:203|129:177|129:177|161:147|161:147|164:119|170:83,1,157.5,6|0,3:2|0:0,0:0:0:0:
162,69,10585,1,10,0:0:0:0:
41,192,10735,1,0,3:0:0:0:
242,133,10885,1,10,0:0:0:0:
83,2,11035,2,0,P|58:63|39:116,1,105,2|0,3:2|0:0,0:0:0:0:
196,266,11335,6,0,B|279:249|255:335|365:318,1,157.5,10|0,0:0|0:0,0:0:0:0:
400,364,11635,1,2,3:2:0:0:
484,197,11785,2,0,P|470:260|462:308,1,105,10|0,0:0|0:0,0:0:0:0:
273,102,12085,1,2,3:2:0:0:
399,233,12235,1,0,3:0:0:0:
237,188,12385,1,10,0:0:0:0:
393,87,12535,1,2,0:0:0:0:
190,273,12685,6,0,B|164:283|138:287|138:287|130:311|110:332|110:332|76:337|41:351,1,157.5,10|0,0:0|0:0,0:0:0:0:
0,313,12985,1,10,0:0:0:0:
185,349,13135,1,0,0:0:0:0:
203,355,13210,1,0,0:0:0:0:
221,361,13285,1,2,3:2:0:0:
85,220,13435,1,10,0:0:0:0:
202,276,13585,1,0,0:0:0:0:
264,102,13735,6,0,B|168:98|212:170|108:162,1,157.5,10|0,0:0|0:0,0:0:0:0:
85,220,14035,1,2,3:2:0:0:
123,36,14185,1,10,0:0:0:0:
266,173,14335,1,8,0:0:0:0:
291,178,14410,1,8,0:0:0:0:
317,183,14485,1,2,3:2:0:0:
317,183,14785,5,10,0:0:0:0:
121,297,14935,1,2,3:2:0:0:
355,367,15085,5,2,0:0:0:0:
226,257,15235,1,0,3:0:0:0:
366,118,15385,2,0,P|394:160|383:222,1,105,10|8,0:0|0:0,0:0:0:0:
330,268,15610,1,8,0:0:0:0:
317,273,15685,1,2,0:0:0:0:
301,87,15835,1,2,3:2:0:0:
478,162,15985,1,8,0:0:0:0:
213,169,16135,6,0,P|140:183|51:202,1,157.5,2|0,3:2|0:0,0:0:0:0:
1,243,16435,1,2,3:2:0:0:
68,123,16585,2,0,B|74:90|41:71|41:71|58:89|57:110,1,105,10|0,0:0|0:0,0:0:0:0:
70,318,16885,5,2,3:2:0:0:
234,237,17035,1,2,3:2:0:0:
58,200,17185,1,8,0:0:0:0:
160,384,17335,1,2,0:0:0:0:
275,166,17485,6,0,B|318:138|349:178|349:178|372:230|420:201,1,157.5,4|0,3:2|0:0,0:0:0:0:
455,152,17785,2,0,P|444:96|388:86,1,105,10|8,0:0|0:0,0:0:0:0:
339,27,18010,1,8,0:0:0:0:
327,37,18085,1,2,3:2:0:0:
411,210,18235,2,0,P|423:269|430:313,1,105,2|0,3:2|0:0,0:0:0:0:
273,146,18535,1,10,0:0:0:0:
121,258,18685,6,0,P|63:281|8:308,1,105,2|0,0:0|3:0,0:0:0:0:
233,62,18985,2,0,P|188:33|143:8,1,105,10|0,0:0|0:0,0:0:0:0:
180,294,19285,5,10,0:0:0:0:
191,319,19360,1,8,0:0:0:0:
218,334,19435,1,8,0:0:0:0:
246,331,19510,1,8,0:0:0:0:
277,338,19585,5,8,0:0:0:0:
304,330,19660,1,8,0:0:0:0:
322,306,19735,1,8,0:0:0:0:
324,278,19810,1,8,0:0:0:0:
314,261,19885,6,0,B|241:221|178:294|193:302|138:376|65:334,1,280,2|0,0:0|0:0,0:0:0:0:
19,267,21085,2,0,B|39:185|39:185|91:138|91:138|107:52,1,239.999999999999,2|0,0:0|0:0,0:0:0:0:
184,0,21835,2,0,P|194:36|217:118,1,114,2|0,0:0|0:0,0:0:0:0:
234,267,22285,6,0,B|220:332|116:293|164:170|285:167|367:212|400:309,1,367.5,2|0,0:0|0:0,0:0:0:0:
344,372,23485,5,2,0:0:0:0:
311,204,23935,5,2,0:0:0:0:
278,36,24385,5,2,0:0:0:0:
342,364,24685,6,0,B|322:282|333:206|407:168|407:168|450:235|424:292,1,343,2|0,0:0|0:0,0:0:0:0:
332,330,25885,2,0,B|253:328|193:389|193:389|127:333|36:334,1,315,2|0,0:0|0:0,0:0:0:0:
0,268,27085,2,0,B|78:231|108:131|108:131|194:176|278:137,1,350,2|0,0:0|0:0,0:0:0:0:
512,127,28285,2,0,B|413:112|355:2|355:2|267:92|162:76,1,419.999999999999,2|0,0:0|0:0,0:0:0:0:
60,13,29485,6,0,P|66:47|73:144,1,130,2|0,0:0|1:0,0:0:0:0:
16,277,29935,1,0,1:0:0:0:
66,226,30085,2,0,P|122:213|206:203,1,130,0|0,0:0|1:0,0:0:0:0:
301,116,30535,1,0,1:0:0:0:
334,178,30685,1,2,0:0:0:0:
370,239,30835,2,0,P|426:252|510:262,1,130,0|0,1:0|0:0,0:0:0:0:
338,326,31285,2,0,P|273:333|210:348,1,130,0|0,1:0|0:0,0:0:0:0:
159,78,31885,6,0,B|231:61|207:137|293:112,1,130,2|0,0:0|0:0,0:0:0:0:
387,16,32335,1,0,0:0:0:0:
435,66,32485,2,0,P|409:121|396:196,1,130,0|0,1:0|0:0,0:0:0:0:
197,154,33085,1,2,0:0:0:0:
154,208,33235,2,0,P|184:261|203:335,1,130,0|2,1:0|0:0,0:0:0:0:
269,369,33685,2,0,P|273:330|287:293,1,64.9999999999999,0|0,1:0|0:0,0:0:0:0:
332,168,33985,1,2,0:0:0:0:
262,212,34135,1,0,1:0:0:0:
335,252,34285,1,2,0:0:0:0:
335,252,34735,5,0,1:0:0:0:
282,306,34885,2,0,P|236:312|152:347,1,130,0|0,1:0|0:0,0:0:0:0:
24,116,35485,1,2,0:0:0:0:
77,170,35635,2,0,P|123:176|207:211,1,130,0|0,1:0|1:0,0:0:0:0:
273,162,36085,2,0,P|319:156|403:121,1,130,0|0,1:0|0:0,0:0:0:0:
462,61,36535,1,0,1:0:0:0:
378,41,36685,1,2,0:0:0:0:
378,41,37135,5,0,1:0:0:0:
462,61,37285,2,0,P|475:98|505:186,1,130,0|0,1:0|1:0,0:0:0:0:
361,153,37885,1,2,0:0:0:0:
287,209,38035,2,0,P|265:270|244:331,1,130,0|0,1:0|0:0,0:0:0:0:
183,384,38485,1,0,1:0:0:0:
122,330,38785,5,2,0:0:0:0:
81,263,39085,6,0,B|70:235|72:201|92:177|92:177|53:183|51:229,1,157.5,6|0,3:2|0:0,0:0:0:0:
134,320,39385,2,0,P|175:309|217:302,1,85.0000000000003,10|0,0:0|0:0,0:0:0:0:
395,241,39685,1,2,3:2:0:0:
312,347,39835,1,0,3:0:0:0:
439,362,39985,1,2,0:0:0:0:
321,183,40135,2,0,B|245:179|278:234|193:235,1,127.5,10|0,0:0|0:0,0:0:0:0:
198,233,40435,5,2,3:2:0:0:
107,144,40585,2,0,P|138:104|180:100,1,85.0000000000003,10|0,0:0|0:0,0:0:0:0:
20,211,40885,1,0,3:0:0:0:
0,131,41035,1,0,3:0:0:0:
118,225,41185,2,0,P|107:266|87:356,1,127.5,10|0,0:0|0:0,0:0:0:0:
20,345,41485,6,0,P|89:362|159:381,1,127.5,2|0,3:2|0:0,0:0:0:0:
217,380,41785,2,0,B|244:384|253:353|253:353|237:368|224:371,1,85.0000000000003,10|0,0:0|0:0,0:0:0:0:
172,286,42085,1,2,3:2:0:0:
333,324,42235,1,0,3:0:0:0:
201,269,42385,1,2,0:0:0:0:
347,341,42535,2,0,B|421:339|393:387|481:380,1,127.5,10|0,0:0|0:0,0:0:0:0:
498,315,42835,5,2,3:2:0:0:
398,227,42985,2,0,P|346:243|304:260,1,85.0000000000003,10|0,0:0|0:0,0:0:0:0:
448,152,43285,1,0,3:0:0:0:
465,78,43435,1,0,3:0:0:0:
337,177,43585,1,10,0:0:0:0:
305,46,43735,1,0,0:0:0:0:
206,203,43885,6,0,P|218:269|224:299,1,85.0000000000003,2|0,3:2|0:0,0:0:0:0:
111,308,44185,2,0,P|102:266|95:224,1,85.0000000000003,10|0,0:0|0:0,0:0:0:0:
182,364,44485,1,2,3:2:0:0:
182,364,44635,1,0,3:0:0:0:
136,147,44785,1,2,0:0:0:0:
97,310,44935,6,0,B|196:291|128:228|226:211,1,170.000000000001,10|2,0:0|3:2,0:0:0:0:
279,332,45385,1,8,0:0:0:0:
87,230,45535,2,0,P|34:218|-18:212,1,85.0000000000003,2|0,0:0|3:0,0:0:0:0:
94,241,45835,1,0,3:0:0:0:
145,169,45985,2,0,B|163:149|165:121|153:95|153:95|147:127|131:140,1,127.5,10|0,0:0|0:0,0:0:0:0:
94,241,46285,6,0,P|75:294|47:376,1,127.5,2|0,3:2|0:0,0:0:0:0:
129,373,46585,2,0,P|143:331|160:287,1,85.0000000000003,10|0,0:0|0:0,0:0:0:0:
300,165,46885,1,2,3:2:0:0:
194,223,47035,1,0,3:0:0:0:
339,250,47185,1,2,0:0:0:0:
207,90,47335,2,0,P|158:94|134:170,1,127.5,10|0,0:0|0:0,0:0:0:0:
135,175,47635,1,2,3:2:0:0:
376,50,47785,6,0,P|330:31|284:15,1,85.0000000000003,10|0,0:0|0:0,0:0:0:0:
360,174,48085,1,0,3:0:0:0:
360,174,48235,1,0,3:0:0:0:
490,122,48385,2,0,P|441:140|364:172,1,127.5,10|0,0:0|0:0,0:0:0:0:
282,163,48685,6,0,P|239:222|276:285,1,142.5,6|0,3:2|0:0,0:0:0:0:
333,335,48985,2,0,P|381:314|422:299,1,94.9999999999998,10|0,0:0|0:0,0:0:0:0:
308,226,49285,1,2,3:2:0:0:
145,244,49435,1,0,3:0:0:0:
243,384,49585,1,2,0:0:0:0:
144,171,49735,6,0,B|54:176|115:237|2:230,1,142.5,10|0,0:0|0:0,0:0:0:0:
9,227,50035,1,2,3:2:0:0:
130,76,50185,2,0,P|137:123|144:173,1,94.9999999999998,10|0,0:0|0:0,0:0:0:0:
24,83,50485,1,0,3:0:0:0:
104,2,50635,1,0,3:0:0:0:
234,113,50785,2,0,P|223:182|213:256,1,142.5,10|0,0:0|0:0,0:0:0:0:
165,306,51085,6,0,P|224:329|283:273,1,142.5,2|0,3:2|0:0,0:0:0:0:
318,220,51385,2,0,B|323:200|314:181|293:166|293:166|304:194|300:207,1,94.9999999999998,10|0,0:0|0:0,0:0:0:0:
392,358,51685,2,0,P|451:373|496:386,1,94.9999999999998,2|0,3:2|3:0,0:0:0:0:
355,289,51985,1,2,0:0:0:0:
461,213,52135,1,8,0:0:0:0:
291,95,52285,6,0,B|202:91|251:152|153:147,1,142.5,2|0,0:0|0:0,0:0:0:0:
133,82,52585,2,0,B|132:66|124:51|101:33|101:33|137:44|138:69,1,94.9999999999998,10|0,0:0|0:0,0:0:0:0:
0,190,52885,1,2,3:2:0:0:
65,95,53035,1,0,3:0:0:0:
124,221,53185,2,0,P|117:280|107:372,1,142.5,10|0,0:0|0:0,0:0:0:0:
38,330,53485,6,0,B|89:358|124:311|111:289|147:233|192:269,1,190,2|8,3:2|0:0,0:0:0:0:
284,343,53935,1,2,0:0:0:0:
347,205,54085,2,0,P|292:220|246:233,1,94.9999999999998,0|0,3:0|3:0,0:0:0:0:
347,76,54385,1,2,0:0:0:0:
462,130,54535,1,8,0:0:0:0:
265,21,54685,6,0,B|242:32|215:34|215:34|205:47|196:60|196:60|163:59|132:71,1,142.5,2|0,0:0|0:0,0:0:0:0:
115,78,54985,1,10,0:0:0:0:
16,188,55135,2,0,P|34:233|46:279,1,94.9999999999998,2|0,0:0|3:0,0:0:0:0:
121,163,55435,1,0,3:0:0:0:
5,87,55585,1,10,0:0:0:0:
164,251,55735,1,2,0:0:0:0:
278,141,55885,6,0,P|217:153|135:167,1,142.5,2|0,3:2|0:0,0:0:0:0:
169,237,56185,2,0,B|228:209|258:277|254:281|248:284|280:346|346:309,1,190,10|0,0:0|3:0,0:0:0:0:
425,223,56635,1,0,3:0:0:0:
331,337,56785,1,2,0:0:0:0:
257,113,56935,1,10,0:0:0:0:
390,23,57085,6,0,B|411:58|400:90|400:90|355:123|369:156,2,135,0|2|2,0:0|0:0|0:0,0:0:0:0:
108,149,58285,6,0,B|129:99|186:99|209:149|209:149|215:205|284:214|306:170,1,250,4|8,3:2|0:0,0:0:0:0:
448,40,58735,1,2,0:0:0:0:
299,195,58885,1,2,3:2:0:0:
504,320,59035,1,0,3:0:0:0:
419,152,59185,1,10,0:0:0:0:
343,310,59335,6,0,P|264:327|190:345,1,125,0|0,3:0|0:0,0:0:0:0:
22,215,59635,1,0,3:0:0:0:
200,262,59785,1,8,0:0:0:0:
28,363,59935,2,0,P|18:300|6:216,1,125,2|0,0:0|3:0,0:0:0:0:
248,36,60235,5,2,3:2:0:0:
67,100,60385,1,10,0:0:0:0:
308,123,60535,1,2,0:0:0:0:
170,0,60685,2,0,P|158:78|141:203,1,187.5,2|0,3:2|0:0,0:0:0:0:
51,361,60985,6,0,B|41:371|29:373|19:363|19:363|28:350|34:365|42:361|45:360,1,62.5,10|0,0:0|0:0,0:0:0:0:
99,284,61135,2,0,P|143:324|125:381,1,125,2|0,0:0|3:0,0:0:0:0:
28,290,61435,1,2,3:2:0:0:
267,187,61585,1,8,0:0:0:0:
72,123,61735,1,2,3:2:0:0:
288,298,61885,6,0,B|343:308|399:318|399:318|395:322|395:322|353:310|330:331,1,187.5
220,290,62185,2,0,B|205:259|165:257|165:257|202:288|216:318|214:362,1,187.5,10|0,0:0|0:0,0:0:0:0:
147,368,62485,6,0,P|126:355|128:318,1,62.5,2|0,3:2|0:0,0:0:0:0:
287,125,62635,2,0,P|291:154|267:173,1,62.5,0|0,3:0|0:0,0:0:0:0:
27,313,62785,5,10,0:0:0:0:
367,221,62935,1,0,0:0:0:0:
105,56,63085,6,0,B|108:30|125:14|125:14|117:41|120:66|120:66|95:91|85:108|85:108|87:140|81:155,1,202.5,6|0,3:2|0:0,0:0:0:0:
5,213,63385,2,0,P|29:275|47:343,1,125,10|0,0:0|0:0,0:0:0:0:
218,92,63685,1,2,3:2:0:0:
11,205,63835,1,0,3:0:0:0:
327,298,63985,6,0,P|369:304|391:316,1,62.5,10|0,0:0|0:0,0:0:0:0:
278,249,64135,2,0,B|169:264|262:350|143:367,1,187.5,2|0,3:2|0:0,0:0:0:0:
135,281,64435,1,2,3:2:0:0:
285,15,64585,2,0,P|302:68|324:139,1,125,8|0,0:0|0:0,0:0:0:0:
170,123,64885,1,2,3:2:0:0:
436,185,65035,1,0,3:0:0:0:
139,284,65185,2,0,B|102:289|83:312|83:312|43:299|43:299|56:275|81:255|106:251,1,187.5,10|0,0:0|0:0,0:0:0:0:
197,229,65485,6,0,B|223:206|263:219|267:263|267:263|269:307|308:316|328:297,1,187.5,2|0,3:2|0:0,0:0:0:0:
372,230,65785,2,0,B|376:207|376:187|361:172|361:172|364:203|356:226|345:241,1,125,10|0,0:0|0:0,0:0:0:0:
258,372,66085,1,2,3:2:0:0:
444,279,66235,1,2,3:2:0:0:
251,149,66385,1,8,0:0:0:0:
429,33,66535,2,0,B|478:40|498:84|498:84|461:129|456:175,1,187.5,2|0,3:2|0:0,0:0:0:0:
453,286,66835,5,2,3:2:0:0:
311,60,66985,1,8,0:0:0:0:
248,381,67135,1,2,0:0:0:0:
152,78,67285,6,0,B|149:74|134:67|134:67|159:68|171:85,1,62.5,0|0,3:0|0:0,0:0:0:0:
107,262,67435,2,0,B|98:280|74:284|74:284|87:275|91:267,1,62.5,0|0,3:0|0:0,0:0:0:0:
92,172,67585,2,0,B|191:149|167:260|275:228,1,187.5,10|0,0:0|0:0,0:0:0:0:
319,179,67885,6,0,B|326:119|400:122|440:166|417:239|386:278|321:287,1,270,6|8,3:2|0:0,0:0:0:0:
163,363,68335,1,2,0:0:0:0:
27,121,68485,1,2,3:2:0:0:
170,188,68635,1,0,3:0:0:0:
55,290,68785,1,10,0:0:0:0:
117,53,68935,6,0,B|213:30|188:131|300:106,1,187.5,0|0,3:0|0:0,0:0:0:0:
266,35,69235,1,0,3:0:0:0:
165,195,69385,1,8,0:0:0:0:
355,299,69535,2,0,P|363:210|374:141,1,125,2|0,0:0|3:0,0:0:0:0:
249,367,69835,5,2,3:2:0:0:
434,225,69985,1,10,0:0:0:0:
230,176,70135,1,2,0:0:0:0:
345,312,70285,6,0,B|443:294|411:390|526:370,1,187.5,2|0,3:2|0:0,0:0:0:0:
496,298,70585,2,0,B|501:277|494:262|494:262|494:280|489:287,1,62.5,10|0,0:0|0:0,0:0:0:0:
420,221,70735,2,0,P|359:235|298:250,1,125,2|0,0:0|3:0,0:0:0:0:
145,182,71035,1,2,3:2:0:0:
270,333,71185,1,8,0:0:0:0:
133,167,71335,6,0,B|131:83|84:127|86:39,1,125,2|0,3:2|0:0,0:0:0:0:
48,249,71635,1,2,3:2:0:0:
232,122,71785,2,0,B|263:125|298:112|298:112|321:127|346:143|346:143|375:129|412:131,1,187.5,8|0,0:0|0:0,0:0:0:0:
431,131,72085,6,0,P|442:100|440:68,1,62.5,2|0,3:2|0:0,0:0:0:0:
233,214,72235,2,0,P|232:245|243:274,1,62.5,0|0,3:0|0:0,0:0:0:0:
204,30,72385,5,10,0:0:0:0:
486,213,72535,1,0,0:0:0:0:
152,335,72685,6,0,B|121:312|90:320|90:320|125:290|156:294|179:319|179:319|201:367|246:365,1,250,6|8,3:2|0:0,0:0:0:0:
386,266,73135,1,2,0:0:0:0:
319,3,73285,6,0,B|260:3|236:58|236:58|278:95|293:130|297:185,1,250,2|8,3:2|0:0,0:0:0:0:
247,372,73735,1,2,3:2:0:0:
98,162,73885,6,0,B|117:166|161:163|192:118|192:118|221:152|220:190,1,187.5,2|0,0:0|0:0,0:0:0:0:
267,256,74185,2,0,P|212:279|156:253,1,125,10|0,0:0|0:0,0:0:0:0:
451,52,74485,2,0,P|390:34|330:19,1,125,2|0,3:2|3:0,0:0:0:0:
512,314,74785,2,0,P|420:335|330:361,1,187.5,10|0,0:0|0:0,0:0:0:0:
254,384,75085,6,0,B|215:368|201:335|210:291|210:291|220:332|248:358,1,187.5,2|0,3:2|0:0,0:0:0:0:
321,364,75385,1,8,0:0:0:0:
453,213,75535,1,2,0:0:0:0:
257,146,75685,2,0,P|280:229|293:288,1,125,2|0,3:2|3:0,0:0:0:0:
484,348,75985,1,8,0:0:0:0:
288,266,76135,1,2,3:2:0:0:
446,125,76285,6,0,P|485:114|513:108,1,62.5,10|8,3:2|0:0,0:0:0:0:
443,37,76435,2,0,P|404:26|376:20,1,62.5,8|8,0:0|0:0,0:0:0:0:
291,192,76585,2,0,P|330:181|358:175,1,62.5,8|8,3:2|0:0,0:0:0:0:
286,15,76735,2,0,P|247:4|219:-2,1,62.5,8|8,0:0|0:0,0:0:0:0:
52,149,76885,5,8,3:2:0:0:
32,172,76960,1,8,0:0:0:0:
31,205,77035,1,8,0:0:0:0:
47,233,77110,1,8,0:0:0:0:
72,248,77185,5,8,3:2:0:0:
119,267,77260,1,8,0:0:0:0:
134,315,77335,1,8,0:0:0:0:
107,358,77410,1,8,0:0:0:0:
71,307,77485,6,0,P|184:332|270:354,1,187.5,6|0,3:2|0:0,0:0:0:0:
325,374,77785,1,10,0:0:0:0:
402,190,77935,1,0,3:0:0:0:
241,249,78085,1,10,0:0:0:0:
411,306,78235,2,0,P|452:316|519:333,1,105,2|0,3:2|0:0,0:0:0:0:
387,42,78535,6,0,B|345:24|306:65|324:98|324:98|355:144|319:181|279:171,1,210,10|2,0:0|3:2,0:0:0:0:
238,130,78910,1,0,0:0:0:0:
226,114,78985,2,0,P|165:102|111:92,1,105,10|0,0:0|0:0,0:0:0:0:
0,73,79285,1,2,3:2:0:0:
0,73,79435,1,0,3:0:0:0:
178,10,79585,1,10,0:0:0:0:
31,170,79735,1,2,0:0:0:0:
181,234,79885,6,0,B|209:242|240:238|240:238|253:259|271:275|271:275|302:269|332:280,1,157.5,10|0,0:0|0:0,0:0:0:0:
381,241,80185,1,10,0:0:0:0:
202,308,80335,1,0,0:0:0:0:
182,313,80410,1,0,0:0:0:0:
162,318,80485,1,2,3:2:0:0:
297,174,80635,1,10,0:0:0:0:
363,361,80785,1,0,0:0:0:0:
234,129,80935,6,0,B|236:98|226:73|198:48|198:48|238:53|251:90,1,157.5,10|0,0:0|0:0,0:0:0:0:
315,59,81235,1,2,3:2:0:0:
158,112,81385,1,10,0:0:0:0:
402,153,81535,1,8,0:0:0:0:
426,157,81610,1,8,0:0:0:0:
452,166,81685,1,2,3:2:0:0:
452,166,81985,5,10,0:0:0:0:
363,361,82135,1,2,3:2:0:0:
235,183,82285,5,2,0:0:0:0:
344,247,82435,1,0,3:0:0:0:
184,338,82585,2,0,P|177:280|170:224,1,105,10|8,0:0|0:0,0:0:0:0:
118,176,82810,1,8,0:0:0:0:
123,168,82885,1,2,0:0:0:0:
69,315,83035,1,2,3:2:0:0:
3,222,83185,1,8,0:0:0:0:
188,343,83335,6,0,B|271:330|253:400|350:376,1,157.5,2|0,3:2|0:0,0:0:0:0:
381,326,83635,1,2,3:2:0:0:
437,230,83785,2,0,P|388:247|374:306,1,105,10|0,0:0|0:0,0:0:0:0:
499,66,84085,5,2,3:2:0:0:
330,122,84235,1,2,3:2:0:0:
509,182,84385,1,8,0:0:0:0:
394,14,84535,1,2,0:0:0:0:
232,131,84685,6,0,P|251:187|281:288,1,157.5,4|0,3:2|0:0,0:0:0:0:
228,338,84985,2,0,P|169:346|134:293,1,105,10|8,0:0|0:0,0:0:0:0:
128,250,85210,1,8,0:0:0:0:
140,231,85285,1,2,3:2:0:0:
7,114,85435,2,0,P|27:177|45:238,1,105,2|0,3:2|0:0,0:0:0:0:
61,31,85735,1,10,0:0:0:0:
140,231,85885,6,0,P|205:244|290:260,1,145,10|0,0:0|0:0,0:0:0:0:
344,223,86110,2,0,P|409:236|494:252,1,145,10|0,0:0|0:0,0:0:0:0:
512,320,86335,1,10,0:0:0:0:
276,155,86485,6,0,P|233:103|254:32,1,145,10|0,0:0|0:0,0:0:0:0:
340,22,86710,2,0,P|381:73|361:146,1,145,10|0,0:0|0:0,0:0:0:0:
308,88,86935,1,10,0:0:0:0:
248,26,87085,5,2,0:0:0:0:
234,186,96085,6,0,P|289:188|251:168,1,150,2|0,0:0|0:0,0:0:0:0:
228,94,96385,6,0,P|215:69|215:91,1,75
322,50,96685,6,0,P|343:56|377:66,1,50,2|0,0:0|0:0,0:0:0:0:
485,122,96985,1,2,0:0:0:0:
465,48,97135,2,0,P|471:27|481:-7,1,50,2|0,0:0|0:0,0:0:0:0:
403,139,97435,2,0,P|409:160|419:194,1,50,2|0,0:0|0:0,0:0:0:0:
500,303,97735,6,0,P|459:311|396:329,1,100,2|2,0:0|0:0,0:0:0:0:
512,309,98335,1,2,0:0:0:0:
397,339,98485,2,0,P|375:335|351:309,1,50,2|0,0:0|0:0,0:0:0:0:
395,209,98785,2,0,L|343:217,1,50,2|0,0:0|0:0,0:0:0:0:
214,295,99085,5,2,0:0:0:0:
258,239,99235,1,0,0:0:0:0:
223,177,99385,1,2,0:0:0:0:
114,76,99535,6,0,P|111:49|106:17,1,50,2|0,0:0|0:0,0:0:0:0:
168,137,99835,2,0,P|192:147|223:159,1,50,2|0,0:0|0:0,0:0:0:0:
84,151,100135,2,0,P|62:167|36:187,1,50,2|0,0:0|0:0,0:0:0:0:
189,63,100435,1,2,0:0:0:0:
0,110,100735,1,2,0:0:0:0:
74,284,100885,5,2,0:0:0:0:
175,220,101035,1,0,0:0:0:0:
84,151,101185,1,2,0:0:0:0:
0,370,101485,6,0,L|63:389,1,50,2|0,0:0|0:0,0:0:0:0:
181,312,101785,1,2,0:0:0:0:
121,269,101935,2,0,L|73:283,1,50,2|0,0:0|0:0,0:0:0:0:
187,325,102235,2,0,L|223:359,1,50,2|0,0:0|0:0,0:0:0:0:
208,238,102535,6,0,L|236:119,1,100,2|2,0:0|0:0,0:0:0:0:
217,249,103135,1,2,0:0:0:0:
219,131,103285,2,0,P|244:124|273:116,1,50,2|0,0:0|0:0,0:0:0:0:
442,136,103585,6,0,P|440:164|423:186,1,50,2|0,0:0|0:0,0:0:0:0:
341,94,103885,2,0,P|366:81|393:85,1,50,2|0,0:0|0:0,0:0:0:0:
442,136,104185,1,2,0:0:0:0:
350,202,104335,6,0,P|326:186|316:160,1,50,2|0,0:0|0:0,0:0:0:0:
457,141,104635,2,0,P|455:169|438:191,1,50,2|0,0:0|0:0,0:0:0:0:
366,306,104935,6,0,P|425:320|480:335,1,100,2|2,0:0|0:0,0:0:0:0:
351,301,105535,1,2,0:0:0:0:
244,367,105685,2,0,P|228:352|230:304,1,50,2|0,0:0|0:0,0:0:0:0:
268,219,105985,6,0,L|259:252,1,30
277,270,106285,6,0,L|270:186,1,75.0000028610231,2|0,0:0|1:0,0:0:0:0:
170,116,106585,1,2,0:0:0:0:
285,72,106735,2,0,P|250:54|195:73,1,75.0000028610231,2|0,1:2|0:0,0:0:0:0:
290,90,107035,1,2,1:2:0:0:
143,44,107185,5,0,0:0:0:0:
202,183,107335,1,2,1:2:0:0:
91,103,107485,6,0,P|20:124|29:195,1,150.000005722046
126,169,107935,1,2,1:2:0:0:
0,282,108085,2,0,P|26:274|72:264,1,75.0000028610231,2|0,0:0|1:0,0:0:0:0:
72,345,108385,2,0,P|35:351|0:362,1,75.0000028610231,2|0,0:0|0:0,0:0:0:0:
179,231,108685,5,2,0:0:0:0:
164,276,108835,1,0,1:0:0:0:
276,230,108985,5,2,0:0:0:0:
230,306,109135,1,2,1:2:0:0:
368,322,109285,5,0,0:0:0:0:
262,372,109435,1,2,1:2:0:0:
200,159,109585,5,0,0:0:0:0:
345,198,109735,1,2,1:2:0:0:
350,34,109885,6,0,P|330:38|257:50,1,75.0000028610231,0|2,0:0|1:2,0:0:0:0:
345,198,110185,2,0,P|341:178|329:105,1,75.0000028610231,0|2,0:0|1:2,0:0:0:0:
162,191,110485,2,0,P|182:187|255:175,1,75.0000028610231,2|0,0:0|1:0,0:0:0:0:
167,27,110785,2,0,P|171:47|183:120,1,75.0000028610231,2|0,0:0|0:0,0:0:0:0:
357,23,111085,5,2,0:0:0:0:
310,51,111235,1,0,1:0:0:0:
401,97,111385,5,2,0:0:0:0:
331,124,111535,1,2,1:2:0:0:
421,186,111685,5,0,0:0:0:0:
318,200,111835,1,2,1:2:0:0:
374,312,111985,5,0,0:0:0:0:
272,260,112135,1,2,1:2:0:0:
202,291,112285,6,0,P|170:294|107:300,1,75.0000028610231,0|2,0:0|1:2,0:0:0:0:
150,143,112585,2,0,P|167:181|153:232,1,75.0000028610231,0|2,0:0|1:2,0:0:0:0:
61,350,112885,2,0,P|44:316|47:279,1,75.0000028610231,2|0,0:0|1:0,0:0:0:0:
78,194,113185,1,2,0:0:0:0:
78,194,113335,1,0,0:0:0:0:
125,76,113485,6,0,P|166:91|212:106,1,75.0000028610231,2|0,0:0|1:0,0:0:0:0:
298,207,113785,2,0,P|290:163|280:116,1,75.0000028610231,2|2,0:0|1:2,0:0:0:0:
178,7,114085,1,0,0:0:0:0:
195,100,114235,1,2,1:2:0:0:
320,3,114385,2,0,P|286:31|250:63,1,75.0000028610231,0|2,0:0|1:2,0:0:0:0:
437,105,114685,6,0,P|400:131|349:118,1,75.0000028610231,0|2,0:0|1:2,0:0:0:0:
248,201,114985,2,0,P|284:202|313:226,1,75.0000028610231,0|2,0:0|1:2,0:0:0:0:
436,298,115285,2,0,P|431:257|427:208,1,75.0000028610231,2|0,0:0|1:0,0:0:0:0:
486,179,115510,1,0,0:0:0:0:
486,179,115585,6,0,P|462:157|435:152,1,52.4999983978272,2|0,0:0|0:0,0:0:0:0:
379,118,115885,6,0,P|355:125|338:143,2,50,2|0|0,3:2|0:0|0:0,0:0:0:0:
463,33,116185,2,0,P|454:59|445:92,1,50,10|0,0:0|0:0,0:0:0:0:
428,223,116335,1,0,3:0:0:0:
416,200,116410,1,8,0:0:0:0:
416,175,116485,1,2,3:2:0:0:
512,295,116635,2,0,P|481:305|416:329,1,100,0|2,3:0|0:0,0:0:0:0:
228,176,116935,6,0,P|207:262|181:370,1,200,10|2,0:0|3:2,0:0:0:0:
116,220,117385,6,0,P|121:241|127:268,1,50,10|0,0:0|0:0,0:0:0:0:
239,165,117535,1,0,3:0:0:0:
241,140,117610,1,8,0:0:0:0:
230,117,117685,1,0,3:0:0:0:
130,72,117835,1,0,3:0:0:0:
214,252,117985,6,0,P|219:277|226:303,1,52.4999983978272,10|0,0:0|0:0,0:0:0:0:
120,204,118285,6,0,B|86:207|65:263|86:246|78:295|19:318,1,150,2|0,3:2|0:0,0:0:0:0:
0,243,118585,2,0,P|3:217|9:184,1,50,10|0,0:0|0:0,0:0:0:0:
0,81,118735,1,0,3:0:0:0:
6,56,118810,1,8,0:0:0:0:
12,31,118885,2,0,L|31:88,1,50,2|0,3:2|0:0,0:0:0:0:
50,88,119035,2,0,L|31:31,1,50,0|0,3:0|0:0,0:0:0:0:
96,0,119185,1,2,0:0:0:0:
241,94,119335,6,0,L|222:205,1,100,8|2,0:0|0:0,0:0:0:0:
376,84,119635,1,0,3:0:0:0:
302,33,119785,1,10,0:0:0:0:
349,160,119935,1,2,3:2:0:0:
360,181,120010,1,8,0:0:0:0:
357,206,120085,1,0,3:0:0:0:
296,255,120235,1,0,3:0:0:0:
446,348,120385,2,0,P|399:340|329:327,1,100,10|0,0:0|0:0,0:0:0:0:
298,384,120610,1,0,0:0:0:0:
298,384,120685,6,0,P|293:310|287:256,1,100,6|0,3:2|0:0,0:0:0:0:
136,357,120985,1,10,0:0:0:0:
233,208,121135,1,0,3:0:0:0:
215,226,121210,1,8,0:0:0:0:
191,233,121285,1,2,3:2:0:0:
75,133,121435,2,0,P|177:161|193:165,1,100,0|2,3:0|0:0,0:0:0:0:
316,16,121735,6,0,P|274:37|269:111,1,100,10|0,0:0|0:0,0:0:0:0:
455,87,122035,1,2,3:2:0:0:
397,25,122185,1,8,0:0:0:0:
419,180,122335,1,2,3:2:0:0:
443,179,122410,1,8,0:0:0:0:
465,168,122485,1,0,3:0:0:0:
366,100,122635,1,0,3:0:0:0:
329,190,122785,6,0,L|344:244,1,52.4999983978272,10|0,0:0|0:0,0:0:0:0:
283,298,123085,6,0,B|255:293|220:333|257:323|241:369|192:346|216:275|257:258|283:298,1,150,2|0,3:2|0:0,0:0:0:0:
331,223,123385,6,0,L|316:169,1,50,10|0,0:0|0:0,0:0:0:0:
313,75,123535,1,0,3:0:0:0:
288,74,123610,1,8,0:0:0:0:
267,87,123685,1,2,3:2:0:0:
179,189,123835,2,0,B|163:212|134:206|134:206|147:182|181:188,1,100,0|2,3:0|0:0,0:0:0:0:
124,57,124135,6,0,P|149:60|171:79,2,50,10|0|0,0:0|0:0|0:0,0:0:0:0:
12,169,124435,1,2,3:2:0:0:
179,108,124585,2,0,P|157:78|77:71,1,100,10|0,0:0|3:0,0:0:0:0:
32,92,124810,1,8,0:0:0:0:
32,92,124885,1,0,3:0:0:0:
39,18,125035,1,0,3:0:0:0:
106,137,125185,6,0,P|89:159|58:172,1,50,10|8,0:0|0:0,0:0:0:0:
45,237,125335,2,0,P|69:241|94:236,1,50,10|0,0:0|0:0,0:0:0:0:
164,276,125485,6,0,P|148:295|121:308,1,52.4999983978272,2|0,3:2|0:0,0:0:0:0:
69,361,125785,6,0,P|90:375|114:378,1,50,10|0,0:0|0:0,0:0:0:0:
249,337,125935,1,0,3:0:0:0:
258,359,126010,1,8,0:0:0:0:
258,384,126085,1,2,3:2:0:0:
314,264,126235,2,0,B|282:253|282:253|308:230|308:230|314:260,1,100,0|2,3:0|0:0,0:0:0:0:
450,352,126535,6,0,P|413:360|325:378,1,100,10|0,0:0|0:0,0:0:0:0:
512,252,126835,1,2,3:2:0:0:
348,174,126985,1,10,0:0:0:0:
491,134,127135,1,0,3:0:0:0:
490,158,127210,1,8,0:0:0:0:
481,180,127285,1,0,3:0:0:0:
414,216,127435,1,0,3:0:0:0:
338,97,127585,2,0,P|378:103|391:14,1,150,10|0,0:0|0:0,0:0:0:0:
321,16,127885,6,0,B|292:17|273:40|273:40|295:19|322:18,1,100,2|0,3:2|0:0,0:0:0:0:
178,120,128185,2,0,P|230:143|291:168,1,100,10|0,0:0|3:0,0:0:0:0:
269,159,128410,1,8,0:0:0:0:
269,159,128485,1,2,3:2:0:0:
124,276,128635,2,0,P|117:219|109:154,1,100,0|2,3:0|0:0,0:0:0:0:
269,159,128935,1,8,0:0:0:0:
167,362,129085,6,0,P|117:367|67:373,1,100,2|0,0:0|3:0,0:0:0:0:
230,244,129385,2,0,P|279:249|329:255,1,100,10|0,0:0|3:0,0:0:0:0:
329,255,129610,1,8,0:0:0:0:
329,255,129685,1,2,3:2:0:0:
364,332,129835,1,0,3:0:0:0:
509,241,129985,6,0,L|512:185,1,52.4999983978272,10|0,0:0|0:0,0:0:0:0:
512,148,130285,6,0,P|478:167|404:202,1,100,6|0,3:2|0:0,0:0:0:0:
512,0,130585,2,0,B|488:3|488:3|470:22,1,50,8|0,0:0|0:0,0:0:0:0:
380,73,130735,1,2,3:2:0:0:
368,50,130810,1,8,0:0:0:0:
370,25,130885,1,0,3:2:0:0:
274,120,131035,2,0,B|303:120|326:120|332:167|288:156|274:120,1,100,0|2,3:0|0:0,0:0:0:0:
122,0,131335,6,0,P|128:49|134:115,1,100,8|2,0:0|0:0,0:0:0:0:
24,227,131635,1,0,3:0:0:0:
194,147,131785,2,0,P|172:166|131:171,1,50,10|0,0:0|0:0,0:0:0:0:
54,112,131935,1,2,3:2:0:0:
52,87,132010,1,8,0:0:0:0:
64,65,132085,1,0,3:0:0:0:
140,11,132235,1,0,3:0:0:0:
252,201,132385,6,0,P|247:224|241:256,1,50,10|0,0:0|0:0,0:0:0:0:
146,297,132535,2,0,P|151:274|157:242,1,50,2|0,0:0|0:0,0:0:0:0:
334,122,132685,5,10,3:2:0:0:
333,141,132760,1,8,0:0:0:0:
331,160,132835,1,8,0:0:0:0:
329,179,132910,1,8,0:0:0:0:
345,203,132985,5,8,3:2:0:0:
368,179,133060,1,8,0:0:0:0:
401,173,133135,1,8,0:0:0:0:
432,186,133210,1,8,0:0:0:0:
454,254,133285,5,8,3:2:0:0:
423,280,133360,1,8,0:0:0:0:
383,288,133435,1,8,0:0:0:0:
346,272,133510,1,8,0:0:0:0:
320,204,133585,6,0,P|331:186|367:176,1,50,8|8,3:2|0:0,0:0:0:0:
467,262,133735,2,0,P|455:279|419:289,1,50,8|8,0:0|0:0,0:0:0:0:
206,311,133885,5,2,0:0:0:0:
270,246,134035,1,2,0:0:0:0:
197,199,134185,1,2,0:0:0:0:
297,100,134335,1,2,0:0:0:0:
167,31,134485,1,2,0:0:0:0:
284,174,134635,1,2,0:0:0:0:
359,29,134785,1,2,0:0:0:0:
433,110,134935,1,2,0:0:0:0:
226,293,135085,6,0,B|199:245|149:268|149:268|96:255|81:322|81:322|120:339|129:382,1,250,4|8,3:2|0:0,0:0:0:0:
327,250,135535,1,2,0:0:0:0:
117,154,135685,5,2,3:2:0:0:
226,384,135835,1,0,3:0:0:0:
0,257,135985,1,10,0:0:0:0:
125,141,136135,6,0,P|190:119|262:98,1,125,0|0,3:0|0:0,0:0:0:0:
161,258,136435,1,0,3:0:0:0:
324,143,136585,2,0,P|327:82|284:38,1,125,8|2,0:0|0:0,0:0:0:0:
157,266,136885,1,0,3:0:0:0:
368,225,137035,1,2,3:2:0:0:
182,124,137185,1,10,0:0:0:0:
323,360,137335,1,2,0:0:0:0:
448,58,137485,6,0,B|452:35|475:28|475:28|441:24|410:56|435:48|418:101|357:103,1,187.5,2|0,3:2|0:0,0:0:0:0:
290,73,137785,2,0,B|293:53|315:44|315:44|296:57|293:71,1,62.5,10|0,0:0|0:0,0:0:0:0:
451,160,137935,2,0,P|389:153|361:96,1,125,2|0,0:0|3:0,0:0:0:0:
246,296,138235,1,2,3:2:0:0:
491,230,138385,1,8,0:0:0:0:
281,212,138535,6,0,P|182:236|199:383,1,250,2|0,3:2|3:0,0:0:0:0:
140,148,138985,2,0,P|207:173|277:192,1,125,10|0,0:0|0:0,0:0:0:0:
39,225,139285,1,2,3:2:0:0:
214,22,139435,1,0,3:0:0:0:
353,262,139585,6,0,P|293:279|216:306,1,112.500004291535,10|0,0:0|0:0,0:0:0:0:
371,276,139885,6,0,P|430:252|400:135,1,187.5,6|0,3:2|0:0,0:0:0:0:
311,102,140185,2,0,B|345:103|377:76|377:76|341:101|341:132,1,125,10|0,0:0|0:0,0:0:0:0:
293,0,140485,1,2,3:2:0:0:
220,222,140635,1,0,3:0:0:0:
467,36,140785,1,10,0:0:0:0:
191,95,140935,6,0,P|254:87|387:76,1,187.5,2|0,3:2|0:0,0:0:0:0:
447,21,141235,2,0,P|419:16|376:-3,1,62.5,2|0,3:2|0:0,0:0:0:0:
282,166,141385,2,0,P|309:218|377:232,1,125,8|2,0:0|0:0,0:0:0:0:
235,350,141685,1,2,3:2:0:0:
365,156,141835,1,0,3:0:0:0:
139,239,141985,6,0,P|115:238|150:215,1,112.500004291535,10|0,0:0|0:0,0:0:0:0:
62,130,142285,6,0,B|125:155|194:156|194:156|220:180|247:179,1,187.5,2|0,3:2|0:0,0:0:0:0:
254,102,142585,2,0,P|230:45|163:60,1,125,10|0,0:0|0:0,0:0:0:0:
2,211,142885,1,2,3:2:0:0:
239,178,143035,1,2,3:2:0:0:
0,375,143185,1,8,0:0:0:0:
62,130,143335,6,0,L|133:110,1,62.5,2|0,3:2|0:0,0:0:0:0:
135,118,143635,1,2,3:2:0:0:
224,372,143785,1,8,0:0:0:0:
2,211,143935,1,2,0:0:0:0:
251,95,144085,5,0,3:0:0:0:
118,331,144235,1,2,3:2:0:0:
389,183,144385,6,0,B|394:142|394:142|408:123|408:123|414:74,1,112.500004291535,10|0,0:0|0:0,0:0:0:0:
370,200,144685,6,0,P|438:192|457:336,1,250,6|8,3:2|0:0,0:0:0:0:
281,180,145135,1,2,0:0:0:0:
512,125,145285,5,2,3:2:0:0:
355,306,145435,1,0,3:0:0:0:
413,75,145585,1,10,0:0:0:0:
267,170,145735,6,0,P|294:222|353:222,1,125,0|0,3:0|0:0,0:0:0:0:
117,204,146035,1,0,3:0:0:0:
333,96,146185,2,0,P|294:90|197:73,1,125,8|2,0:0|0:0,0:0:0:0:
46,286,146485,5,0,3:0:0:0:
267,170,146635,1,2,3:2:0:0:
187,360,146785,1,10,0:0:0:0:
126,62,146935,1,2,0:0:0:0:
346,203,147085,6,0,P|315:248|211:221,1,125,2|0,3:2|0:0,0:0:0:0:
44,118,147385,1,10,0:0:0:0:
267,170,147535,1,2,0:0:0:0:
46,286,147685,1,0,3:0:0:0:
269,91,147835,1,2,3:2:0:0:
43,28,147985,1,8,0:0:0:0:
183,224,148135,6,0,P|168:205|172:228,1,62.5,2|0,3:2|0:0,0:0:0:0:
391,71,148285,2,0,P|414:67|392:59,1,62.5
415,323,148435,2,0,P|406:344|424:329,1,62.5,2|0,3:2|0:0,0:0:0:0:
335,201,148585,6,0,B|285:188|236:229|293:264|227:308|155:300,1,187.5,8|0,0:0|0:0,0:0:0:0:
128,255,148885,1,2,3:2:0:0:
293,360,149035,1,0,3:0:0:0:
138,143,149185,2,0,L|13:188,1,125,10|0,0:0|0:0,0:0:0:0:
314,64,149485,6,0,B|348:10|410:33|410:33|462:65|462:65|414:40|386:75,1,250,6|8,3:2|0:0,0:0:0:0:
210,31,149935,1,2,0:0:0:0:
429,144,150085,5,2,3:2:0:0:
212,224,150235,1,0,3:0:0:0:
469,311,150385,1,8,0:0:0:0:
296,143,150535,1,2,3:2:0:0:
126,361,150685,6,0,P|156:353|193:343,1,62.5,2|0,0:0|0:0,0:0:0:0:
290,238,150835,2,0,P|260:230|223:220,1,62.5,0|0,3:0|0:0,0:0:0:0:
53,110,150985,2,0,P|92:54|158:75,1,125,10|0,0:0|0:0,0:0:0:0:
272,337,151285,5,2,3:2:0:0:
0,180,151435,1,0,3:0:0:0:
330,3,151585,6,0,B|334:22|334:22|405:56|405:56|429:46,1,112.500004291535,10|0,0:0|0:0,0:0:0:0:
238,53,151885,6,0,B|285:32|285:32|428:101|428:101|438:148,1,250,2|8,3:2|0:0,0:0:0:0:
269,308,152335,1,2,0:0:0:0:
151,96,152485,2,0,P|141:66|133:35,1,62.5,2|0,3:2|0:0,0:0:0:0:
207,177,152635,2,0,P|177:186|146:194,1,62.5,0|0,3:0|0:0,0:0:0:0:
282,129,152785,2,0,P|291:158|299:189,1,62.5,8|0,0:0|0:0,0:0:0:0:
187,332,152935,1,2,3:2:0:0:
32,121,153085,5,10,3:2:0:0:
51,105,153160,1,8,0:0:0:0:
75,98,153235,1,8,0:0:0:0:
99,101,153310,1,8,0:0:0:0:
137,157,153385,5,8,3:2:0:0:
108,181,153460,1,8,0:0:0:0:
72,192,153535,1,8,0:0:0:0:
36,188,153610,1,8,0:0:0:0:
5,128,153685,5,8,3:2:0:0:
39,99,153760,1,8,0:0:0:0:
81,88,153835,1,8,0:0:0:0:
123,92,153910,1,8,0:0:0:0:
162,111,153985,5,8,3:2:0:0:
204,115,154060,1,8,0:0:0:0:
246,104,154135,1,8,0:0:0:0:
280,75,154210,1,8,0:0:0:0:
280,58,154285,5,14,0:0:0:0:
216,266,154435,1,0,0:0:0:0:
93,128,154585,5,10,0:0:0:0:
191,338,154735,1,0,3:0:0:0:
385,221,154885,5,10,0:0:0:0:
166,176,155035,1,2,3:2:0:0:
337,370,155185,5,10,0:0:0:0:
413,127,155335,1,0,3:0:0:0:
162,255,155485,6,0,P|171:316|181:381,1,125,10|0,0:0|3:0,0:0:0:0:
46,210,155785,5,10,0:0:0:0:
207,103,155935,1,0,3:0:0:0:
87,29,156085,5,10,0:0:0:0:
263,145,156235,1,0,3:0:0:0:
341,6,156385,5,10,0:0:0:0:
258,217,156535,1,0,3:0:0:0:
508,184,156685,5,2,3:2:0:0:
383,153,156835,1,2,3:2:0:0:
407,318,156985,5,10,0:0:0:0:
462,86,157135,1,0,3:0:0:0:
318,377,157285,5,10,0:0:0:0:
263,145,157435,1,0,3:0:0:0:
75,325,157585,5,10,0:0:0:0:
196,295,157735,1,2,3:2:0:0:
11,193,157885,5,10,0:0:0:0:
149,366,158035,1,0,3:0:0:0:
231,165,158185,5,10,0:0:0:0:
151,372,158335,1,0,3:0:0:0:
0,185,158485,5,10,0:0:0:0:
238,147,158635,1,0,3:0:0:0:
135,247,158785,5,10,0:0:0:0:
107,93,158935,1,0,3:0:0:0:
328,277,159085,5,6,3:2:0:0:
346,200,159235,1,2,0:0:0:0:
364,123,159385,1,8,0:0:0:0:
405,326,159535,5,2,3:2:0:0:
240,180,159685,1,10,0:0:0:0:
443,102,159835,1,0,3:0:0:0:
113,151,159985,5,10,0:0:0:0:
235,264,160135,1,2,3:2:0:0:
72,322,160285,1,8,0:0:0:0:
31,37,160435,5,2,3:2:0:0:
138,234,160585,1,10,0:0:0:0:
200,19,160735,1,2,3:2:0:0:
26,262,160885,5,10,0:0:0:0:
295,205,161035,1,0,3:0:0:0:
147,140,161185,5,10,0:0:0:0:
310,351,161335,1,2,3:2:0:0:
461,107,161485,5,2,3:2:0:0:
402,307,161635,1,2,3:2:0:0:
311,39,161785,5,10,0:0:0:0:
386,377,161935,1,2,3:2:0:0:
132,299,162085,5,10,0:0:0:0:
399,207,162235,1,2,3:2:0:0:
164,123,162385,5,10,0:0:0:0:
323,155,162535,1,2,3:2:0:0:
209,344,162685,5,10,0:0:0:0:
172,31,162835,1,2,3:2:0:0:
304,363,162985,5,10,0:0:0:0:
373,84,163135,1,2,3:2:0:0:
81,98,163285,5,10,0:0:0:0:
399,244,163435,1,2,3:2:0:0:
106,384,163585,5,10,0:0:0:0:
432,159,163735,1,2,3:2:0:0:
256,192,163885,5,2,0:0:0:0:
150,191,173185,6,0,P|129:198|116:204,1,30
165,178,173485,6,0,P|217:187|241:290,1,165.000005035401,2|2,0:0|0:0,0:0:0:0:
282,26,174085,2,0,B|245:57|254:91|254:91|298:106|322:148,1,165.000005035401,0|2,0:0|0:0,0:0:0:0:
454,381,174685,2,0,B|437:288|381:344|375:244,1,165.000005035401,0|2,0:0|0:0,0:0:0:0:
330,149,175285,2,0,P|355:136|382:132,1,55.0000016784668,2|0,0:0|0:0,0:0:0:0:
468,71,175585,2,0,P|441:66|417:54,1,55.0000016784668,2|0,0:0|0:0,0:0:0:0:
247,170,175885,6,0,P|237:223|223:293,1,110.000003356934,2|2,0:0|0:0,0:0:0:0:
183,205,176335,2,0,B|245:202|213:243|284:239,1,110.000003356934,2|2,0:0|0:0,0:0:0:0:
364,272,176785,2,0,P|370:240|364:218,1,55.0000016784668,0|2,0:0|0:0,0:0:0:0:
269,344,177085,2,0,B|284:338|300:328|300:328|397:364|397:364|414:356|431:351,2,165.000005035401,0|2|2,0:0|0:0|0:0,0:0:0:0:
199,374,178135,1,0,0:0:0:0:
170,262,178285,6,0,P|183:311|198:382,1,110.000003356934,2|2,0:0|0:0,0:0:0:0:
222,215,178735,2,0,P|180:194|111:225,1,110.000003356934,2|2,0:0|0:0,0:0:0:0:
42,278,179185,6,0,B|67:290|92:281|92:281|74:277|63:262,1,82.5000025177003
21,255,179485,2,0,B|9:136|90:198|57:53,1,192.500005874634
69,2,180085,2,0,P|29:-1|11:-1,1,55.0000016784668,2|0,0:0|0:0,0:0:0:0:
134,72,180385,2,0,P|159:59|184:48,1,55.0000016784668,2|0,0:0|0:0,0:0:0:0:
24,131,180685,5,2,0:0:0:0:
112,189,180985,1,2,0:0:0:0:
112,189,181135,1,2,0:0:0:0:
217,195,181435,1,2,0:0:0:0:
250,83,181735,5,2,0:0:0:0:
219,187,182035,1,2,0:0:0:0:
265,291,182335,1,2,0:0:0:0:
273,279,182485,1,2,0:0:0:0:
182,312,182785,5,0,0:0:0:0:
358,350,183085,6,0,P|363:307|371:264,1,87.5,2|0,0:0|0:0,0:0:0:0:
372,249,183685,6,0,B|478:259|408:178|525:186,1,165.000005035401,0|2,0:0|0:0,0:0:0:0:
350,14,184285,2,0,B|335:37|335:37|398:130|398:130|387:152,1,165.000005035401,0|2,0:0|0:0,0:0:0:0:
298,296,184885,2,0,B|320:199|249:241|270:140,1,165.000005035401,2|0,0:0|0:0,0:0:0:0:
158,81,185485,6,0,P|130:43|30:75,1,165.000005035401,2|2,0:0|0:0,0:0:0:0:
153,157,186085,2,0,P|86:196|26:147,1,165.000005035401,0|2,0:0|0:0,0:0:0:0:
92,116,186685,6,0,B|107:204|107:204|105:206|105:206|124:318,1,192.500005874634
126,322,187285,1,2,0:0:0:0:
231,195,187585,1,2,0:0:0:0:
396,344,187885,6,0,B|370:357|343:344|336:308|336:308|339:308|339:308|335:274|312:261|282:270,1,165.000005035401,2|2,0:0|0:0,0:0:0:0:
220,367,188485,2,0,B|271:393|325:367|338:296|338:296|332:296|332:296|341:227|386:201|446:220,1,330.000010070801
411,290,189535,5,2,0:0:0:0:
418,307,189685,1,2,0:0:0:0:
337,135,189985,1,2,0:0:0:0:
183,192,190285,6,0,P|140:208|138:285,1,110.000003356934,2|2,0:0|0:0,0:0:0:0:
61,318,190735,1,2,0:0:0:0:
256,192,190885,12,0,192535,0:0:0:0:
255,190,192685,6,0,P|211:178|182:173,1,64.9999970245363,0|0,3:0|0:0,0:0:0:0:
320,255,192985,1,0,1:0:0:0:
382,192,193135,1,0,3:0:0:0:
230,270,193285,1,0,0:0:0:0:
305,342,193435,2,0,P|337:336|368:326,1,64.9999970245363,0|2,0:0|1:2,0:0:0:0:
510,216,193735,6,0,B|435:217|471:265|394:262,1,129.999994049073,0|0,0:0|3:0,0:0:0:0:
364,115,194185,2,0,P|377:155|383:182,1,64.9999970245363,0|0,1:0|0:0,0:0:0:0:
466,15,194485,2,0,P|453:55|447:82,1,64.9999970245363,0|0,3:0|0:0,0:0:0:0:
282,150,194785,5,2,1:2:0:0:
358,110,194935,1,0,0:0:0:0:
200,190,195085,5,0,3:0:0:0:
200,190,195385,1,0,1:0:0:0:
128,137,195535,1,0,3:0:0:0:
158,267,195685,1,0,0:0:0:0:
82,229,195835,2,0,P|75:261|67:292,1,64.9999970245363,0|2,0:0|1:2,0:0:0:0:
0,197,196135,6,0,P|15:261|30:338,1,129.999994049073,0|0,0:0|3:0,0:0:0:0:
224,313,196585,2,0,P|217:345|209:376,1,64.9999970245363,0|0,1:0|0:0,0:0:0:0:
82,228,196885,2,0,P|75:206|71:190,1,32.4999985122681,0|0,3:0|0:0,0:0:0:0:
66,183,197185,5,2,1:2:0:0:
105,301,197335,1,0,0:0:0:0:
226,188,197485,5,0,3:0:0:0:
151,230,197635,1,0,0:0:0:0:
291,305,197785,1,0,1:0:0:0:
216,269,197935,1,0,3:0:0:0:
341,226,198085,1,0,0:0:0:0:
405,285,198235,2,0,P|411:320|418:353,1,64.9999970245363,0|2,0:0|1:2,0:0:0:0:
469,177,198535,6,0,B|393:170|436:221|351:216,1,129.999994049073,0|0,0:0|3:0,0:0:0:0:
279,122,198985,2,0,P|323:132|360:145,1,75.0000028610231,0|0,1:0|0:0,0:0:0:0:
137,52,199285,2,0,P|181:42|230:3,1,89.9999972534181,0|0,3:0|0:0,0:0:0:0:
43,149,199585,5,2,1:2:0:0:
246,232,199735,1,0,0:0:0:0:
165,301,199885,6,0,B|105:321|105:321|118:308|118:308|183:288,1,150,2|0,0:0|0:0,0:0:0:0:
258,335,200935,5,0,0:0:0:0:
282,341,201085,1,0,0:0:0:0:
306,347,201235,1,0,0:0:0:0:
330,353,201385,1,0,0:0:0:0:
330,274,201535,5,0,0:0:0:0:
312,269,201610,1,0,0:0:0:0:
294,265,201685,1,0,0:0:0:0:
329,191,201835,1,0,0:0:0:0:
382,125,201985,5,0,0:0:0:0:
364,120,202060,1,0,0:0:0:0:
346,115,202135,1,0,0:0:0:0:
328,110,202210,1,0,0:0:0:0:
309,106,202285,6,0,P|243:90|210:82,1,89.9999972534181,2|0,0:0|0:0,0:0:0:0:
256,169,202735,2,0,P|190:153|157:145,1,89.9999972534181,2|0,0:0|0:0,0:0:0:0:
80,201,203185,2,0,P|101:206|166:222,1,89.9999972534181,2|0,0:0|0:0,0:0:0:0:
25,262,203635,2,0,P|46:267|111:283,1,89.9999972534181,2|0,0:0|0:0,0:0:0:0:
184,331,204085,5,2,0:0:0:0:
184,331,204385,1,0,0:0:0:0:
286,371,204685,6,0,P|330:363|355:321,1,89.9999972534181,2|0,0:0|0:0,0:0:0:0:
428,336,205135,2,0,P|450:297|434:251,1,89.9999972534181,2|0,0:0|0:0,0:0:0:0:
462,164,205585,2,0,P|402:173|362:180,1,89.9999972534181,2|0,0:0|0:0,0:0:0:0:
244,255,206035,2,0,P|288:247|332:241,1,89.9999972534181,2|0,0:0|0:0,0:0:0:0:
306,130,206485,6,0,P|296:158|300:184,1,44.999998626709,2|0,0:0|0:0,0:0:0:0:
296,172,206785,1,0,0:0:0:0:
148,30,207085,6,0,P|192:39|236:50,1,89.9999972534181,2|0,0:0|0:0,0:0:0:0:
310,32,207535,2,0,P|354:41|397:51,1,89.9999972534181,2|0,0:0|0:0,0:0:0:0:
154,109,207985,2,0,P|198:118|241:128,1,89.9999972534181,2|0,0:0|0:0,0:0:0:0:
315,110,208435,2,0,P|359:119|402:129,1,89.9999972534181,2|0,0:0|0:0,0:0:0:0:
272,210,208885,6,0,P|265:241|270:261,1,44.999998626709,2|0,0:0|0:0,0:0:0:0:
343,322,209185,2,0,P|345:299|338:278,1,44.999998626709
190,363,209485,6,0,P|145:352|134:313,1,89.9999972534181,2|0,0:0|0:0,0:0:0:0:
67,273,209935,2,0,P|54:228|82:199,1,89.9999972534181,2|0,0:0|0:0,0:0:0:0:
155,123,210385,2,0,P|117:110|58:103,1,89.9999972534181,2|0,0:0|0:0,0:0:0:0:
91,18,210835,2,0,P|135:23|178:37,1,89.9999972534181,2|0,0:0|0:0,0:0:0:0:
246,99,211285,5,2,0:0:0:0:
315,8,211585,1,0,0:0:0:0:
256,192,211885,5,4,3:2:0:0:
120,78,212185,5,0,3:0:0:0:
87,171,212335,1,0,1:0:0:0:
133,85,212485,1,0,3:0:0:0:
326,217,212785,5,0,3:0:0:0:
123,259,213085,5,0,3:0:0:0:
162,349,213235,1,0,1:0:0:0:
137,255,213385,1,0,3:0:0:0:
347,349,213685,5,0,3:0:0:0:
249,324,213835,1,0,1:0:0:0:
418,301,213985,1,0,3:0:0:0:
320,276,214135,1,0,1:0:0:0:
486,253,214285,1,0,3:0:0:0:
497,247,214585,5,0,3:0:0:0:
424,44,214885,5,0,3:0:0:0:
331,60,215035,1,0,1:0:0:0:
299,148,215185,1,0,3:0:0:0:
439,25,215485,5,0,3:0:0:0:
319,46,215635,1,0,1:0:0:0:
277,160,215785,1,0,3:0:0:0:
510,240,216085,5,0,3:0:0:0:
303,189,216385,5,0,3:0:0:0:
307,286,216535,1,0,1:0:0:0:
317,190,216685,1,0,3:0:0:0:
140,379,216985,5,0,3:0:0:0:
189,301,217135,1,0,1:0:0:0:
95,296,217285,1,0,3:0:0:0:
380,314,217585,5,0,3:0:0:0:
216,218,217885,5,0,3:0:0:0:
193,312,218035,1,0,1:0:0:0:
229,222,218185,1,0,3:0:0:0:
139,102,218485,5,0,3:0:0:0:
237,77,218635,1,0,1:0:0:0:
68,54,218785,1,0,3:0:0:0:
166,29,218935,1,0,1:0:0:0:
0,6,219085,1,0,3:0:0:0:
237,77,219385,5,0,3:0:0:0:
78,225,219685,5,0,3:0:0:0:
21,147,219835,1,0,1:0:0:0:
67,233,219985,1,0,3:0:0:0:
370,104,220285,5,14,3:2:0:0:
381,85,220360,1,8,0:0:0:0:
392,65,220435,1,8,0:0:0:0:
403,46,220510,1,8,0:0:0:0:
412,36,220585,5,10,3:2:0:0:
437,66,220660,1,8,0:0:0:0:
439,107,220735,1,8,0:0:0:0:
417,141,220810,1,8,0:0:0:0:
384,164,220885,1,10,3:2:0:0:
361,199,220960,1,8,0:0:0:0:
364,240,221035,1,8,0:0:0:0:
389,271,221110,1,8,0:0:0:0:
426,215,221185,5,10,3:2:0:0:
379,223,221260,1,8,0:0:0:0:
341,248,221335,1,8,0:0:0:0:
306,280,221410,1,8,0:0:0:0:
262,294,221485,6,0,B|219:290|192:258|201:220|201:220|215:202|215:202|208:235|225:259,1,187.5,6|0,3:2|0:0,0:0:0:0:
284,221,221785,1,8,0:0:0:0:
47,287,221935,1,2,0:0:0:0:
238,384,222085,1,2,3:2:0:0:
100,93,222235,6,0,B|99:76|110:50|110:50|43:10|0:96|36:126,1,187.5,0|0,3:0|0:0,0:0:0:0:
61,188,222535,2,0,B|83:182|89:164|89:164|75:176|67:179,1,62.5,10|0,0:0|0:0,0:0:0:0:
270,154,222685,2,0,B|200:156|232:90|170:90,1,125,2|0,0:0|3:0,0:0:0:0:
279,247,222985,1,8,0:0:0:0:
460,49,223135,5,2,0:0:0:0:
292,160,223285,1,2,3:2:0:0:
488,257,223435,1,0,0:0:0:0:
412,150,223585,2,0,P|394:183|395:217,1,62.5,10|0,0:0|0:0,0:0:0:0:
440,358,223735,2,0,P|437:327|421:301,1,62.5,0|0,3:0|0:0,0:0:0:0:
305,269,223885,6,0,B|261:309|221:253|231:245|190:195|134:237,1,187.5,2|0,3:2|0:0,0:0:0:0:
69,290,224185,2,0,B|98:300|117:253|109:249|130:205|157:213,1,125,10|0,0:0|0:0,0:0:0:0:
316,257,224485,1,2,3:2:0:0:
150,370,224635,1,0,3:0:0:0:
16,215,224785,1,2,0:0:0:0:
236,150,224935,6,0,P|287:163|359:183,1,125,10|0,0:0|0:0,0:0:0:0:
309,48,225235,1,2,3:2:0:0:
398,280,225385,2,0,P|455:254|512:229,1,125,8|0,0:0|3:0,0:0:0:0:
165,77,225685,6,0,B|126:86|104:131|104:131|140:171|137:244,1,187.5,2|0,3:2|0:0,0:0:0:0:
230,173,225985,1,10,0:0:0:0:
7,91,226135,1,0,3:0:0:0:
141,349,226285,6,0,B|151:334|169:324|169:324|124:294|76:286|76:286|46:304|46:304|73:309|72:340|59:360|59:360|54:343,1,250,6|10,3:2|0:0,0:0:0:0:
200,384,226735,1,0,0:0:0:0:
242,171,226885,5,2,3:2:0:0:
9,243,227035,1,0,3:0:0:0:
349,345,227185,2,0,P|381:353|418:363,1,62.5,14|0,0:0|0:0,0:0:0:0:
106,128,227335,6,0,B|81:117|45:130|45:130|88:114|114:100|114:100|133:110|158:114|158:114|186:96|223:86,1,250,10|2,0:0|0:0,0:0:0:0:
377,53,227785,2,0,P|433:26|490:0,1,125,10|0,0:0|3:0,0:0:0:0:
221,171,228085,6,0,B|206:256|249:213|240:299,1,125,2|0,3:2|0:0,0:0:0:0:
276,110,228385,1,10,0:0:0:0:
179,353,228535,1,0,3:0:0:0:
0,217,228685,6,0,P|61:186|144:262,1,187.5,2|0,3:2|0:0,0:0:0:0:
239,297,228985,2,0,P|291:326|342:295,1,125,10|0,0:0|0:0,0:0:0:0:
319,27,229285,5,2,3:2:0:0:
229,183,229435,1,2,3:2:0:0:
434,154,229585,1,0,0:0:0:0:
131,56,229735,2,0,B|140:97|150:124|150:124|143:140|140:166|140:166|156:205|162:246,1,187.5,10|0,0:0|0:0,0:0:0:0:
115,313,230035,5,2,3:2:0:0:
266,128,230185,1,8,0:0:0:0:
194,353,230335,1,2,3:2:0:0:
56,43,230485,1,0,3:0:0:0:
56,43,230785,5,10,0:0:0:0:
115,313,230935,1,0,0:0:0:0:
283,93,231085,6,0,B|302:74|320:73|320:73|325:62|325:62|274:37|227:66|227:122|227:122|253:144|251:178,1,250,6|8,3:2|0:0,0:0:0:0:
402,270,231535,5,2,0:0:0:0:
327,174,231685,1,2,3:2:0:0:
345,381,231835,1,0,3:0:0:0:
512,267,231985,1,2,0:0:0:0:
265,317,232135,6,0,P|215:335|140:364,1,125,8|0,0:0|0:0,0:0:0:0:
402,270,232435,1,0,3:0:0:0:
187,143,232585,1,8,0:0:0:0:
284,316,232735,6,0,P|294:235|303:170,1,125,2|0,3:2|3:0,0:0:0:0:
135,41,233035,5,2,0:0:0:0:
309,107,233185,1,10,0:0:0:0:
75,190,233335,1,0,3:0:0:0:
298,28,233485,6,0,B|399:15|367:107|472:87,1,187.5,2|0,3:2|0:0,0:0:0:0:
445,17,233785,1,8,0:0:0:0:
299,192,233935,1,2,0:0:0:0:
216,31,234085,1,2,3:2:0:0:
432,177,234235,1,0,3:0:0:0:
170,312,234385,6,0,B|157:323|146:322|136:310|136:310|150:312|150:298|166:307,1,62.5,2|0,0:0|0:0,0:0:0:0:
227,276,234535,2,0,B|251:268|270:256|270:256|281:261|281:261|307:302|301:349|257:376,1,187.5,10|0,0:0|0:0,0:0:0:0:
172,323,234835,1,2,3:2:0:0:
61,76,234985,1,8,0:0:0:0:
206,157,235135,1,0,0:0:0:0:
153,41,235285,6,0,P|138:102|124:163,1,125,2|0,3:2|0:0,0:0:0:0:
365,0,235585,2,0,P|388:91|409:182,1,187.5,10|0,0:0|0:0,0:0:0:0:
466,295,235885,6,0,B|483:287|512:298|512:298|456:261|419:311|419:311|422:314|422:314|386:359|324:335,1,250,6|8,3:2|0:0,0:0:0:0:
276,112,236335,1,2,0:0:0:0:
227,313,236485,6,0,B|187:334|176:376|176:376|195:305|195:305|191:286|191:286|204:252|212:207,1,250,2|0,3:2|0:0,0:0:0:0:
251,11,236935,1,10,0:0:0:0:
144,282,237085,6,0,P|194:293|283:314,1,125,2|0,0:0|3:0,0:0:0:0:
23,75,237385,2,0,P|81:51|139:28,1,125,10|0,0:0|0:0,0:0:0:0:
0,280,237685,2,0,P|39:333|70:387,1,125,2|0,3:2|0:0,0:0:0:0:
337,137,237985,2,0,B|229:128|277:217|166:206,1,187.5,10|0,0:0|0:0,0:0:0:0:
109,235,238285,6,0,B|72:219|64:167|92:135|92:135|101:148|101:148|89:174|92:207,1,187.5,2|0,3:2|0:0,0:0:0:0:
174,206,238585,1,8,0:0:0:0:
95,33,238735,2,0,P|33:56|1:121,1,125,2|0,0:0|3:0,0:0:0:0:
314,213,239035,1,0,3:0:0:0:
221,88,239185,5,2,0:0:0:0:
327,367,239335,1,8,0:0:0:0:
462,238,239485,6,0,P|449:199|439:173,1,62.5,10|8,3:2|0:0,0:0:0:0:
363,53,239635,2,0,P|374:82|384:112,1,62.5,8|8,0:0|0:0,0:0:0:0:
357,288,239785,2,0,P|370:249|380:223,1,62.5,8|8,3:2|0:0,0:0:0:0:
471,15,239935,2,0,P|460:44|450:74,1,62.5,8|8,0:0|0:0,0:0:0:0:
269,263,240085,5,8,3:2:0:0:
233,274,240160,1,8,0:0:0:0:
198,286,240235,1,8,0:0:0:0:
163,298,240310,1,8,0:0:0:0:
108,250,240385,5,8,3:2:0:0:
82,202,240460,1,8,0:0:0:0:
102,153,240535,1,8,0:0:0:0:
153,137,240610,1,8,0:0:0:0:
223,129,240685,6,0,B|250:145|289:154|289:154|300:178|315:198|315:198|349:206|376:224,1,187.5,6|0,3:2|0:0,0:0:0:0:
451,241,240985,1,10,0:0:0:0:
262,348,241135,1,0,3:0:0:0:
474,383,241285,1,10,0:0:0:0:
196,290,241435,2,0,P|140:293|97:328,1,104.999996795654,2|0,3:2|0:0,0:0:0:0:
70,22,241735,6,0,B|164:12|125:142|229:130,1,209.999993591309,10|2,0:0|3:2,0:0:0:0:
279,77,242110,1,0,0:0:0:0:
291,57,242185,2,0,P|348:38|402:26,1,104.999996795654,10|0,0:0|0:0,0:0:0:0:
244,271,242485,5,2,3:2:0:0:
57,205,242635,1,0,3:0:0:0:
247,140,242785,1,10,0:0:0:0:
158,340,242935,1,2,0:0:0:0:
393,368,243085,6,0,B|394:265|354:319|359:216,1,157.499995193482,10|0,0:0|0:0,0:0:0:0:
433,240,243385,1,10,0:0:0:0:
309,360,243535,1,0,0:0:0:0:
284,349,243610,1,0,0:0:0:0:
260,340,243685,1,2,3:2:0:0:
431,125,243835,1,10,0:0:0:0:
286,235,243985,1,0,0:0:0:0:
485,332,244135,6,0,P|496:267|514:171,1,157.499995193482,10|0,0:0|0:0,0:0:0:0:
512,162,244435,1,2,3:2:0:0:
359,217,244585,1,10,0:0:0:0:
312,0,244735,5,8,0:0:0:0:
337,6,244810,1,8,0:0:0:0:
362,12,244885,1,2,3:2:0:0:
374,16,245185,5,10,0:0:0:0:
170,74,245335,1,2,3:2:0:0:
352,218,245485,5,2,0:0:0:0:
298,116,245635,1,0,3:0:0:0:
161,276,245785,2,0,P|212:289|263:302,1,104.999996795654,10|8,0:0|0:0,0:0:0:0:
331,321,246010,1,8,0:0:0:0:
349,326,246085,1,2,0:0:0:0:
164,359,246235,1,2,3:2:0:0:
430,305,246385,1,8,0:0:0:0:
324,89,246535,6,0,B|363:87|388:125|388:125|368:164|367:214,1,157.499995193482,2|0,3:2|0:0,0:0:0:0:
368,228,246835,1,2,3:2:0:0:
221,107,246985,2,0,P|211:53|259:14,1,104.999996795654,10|0,0:0|0:0,0:0:0:0:
185,352,247285,5,2,3:2:0:0:
268,182,247435,1,2,3:2:0:0:
75,209,247585,1,8,0:0:0:0:
254,285,247735,1,2,0:0:0:0:
124,66,247885,6,0,B|33:65|94:151|-9:143,1,157.499995193482,4|0,3:2|0:0,0:0:0:0:
4,69,248185,2,0,P|66:103|95:124,1,104.999996795654,10|8,0:0|0:0,0:0:0:0:
168,181,248410,1,8,0:0:0:0:
178,188,248485,1,2,3:2:0:0:
263,11,248635,2,0,P|243:78|237:114,1,104.999996795654,2|0,3:2|0:0,0:0:0:0:
214,298,248935,1,10,0:0:0:0:
423,190,249085,5,2,0:0:0:0:
302,236,249235,1,0,3:0:0:0:
484,331,249385,2,0,P|498:276|511:225,1,104.999996795654,10|0,0:0|0:0,0:0:0:0:
282,163,249685,5,2,3:2:0:0:
347,352,249835,1,0,3:0:0:0:
215,108,249985,1,10,0:0:0:0:
137,383,250135,1,0,3:0:0:0:
49,184,250285,6,0,B|43:174|17:168|17:168|66:179|107:187|107:187|110:197|110:197|85:213|84:242,1,187.5,6|0,3:2|0:0,0:0:0:0:
111,303,250585,1,10,0:0:0:0:
34,94,250735,1,0,3:0:0:0:
189,162,250885,1,10,0:0:0:0:
37,355,251035,2,0,P|24:297|14:250,1,104.999996795654,2|0,3:2|0:0,0:0:0:0:
304,51,251335,6,0,B|266:25|220:58|231:93|231:93|253:145|210:174|173:157,1,210,10|2,0:0|3:2,0:0:0:0:
27,92,251710,1,0,0:0:0:0:
41,77,251785,2,0,P|105:90|149:99,1,104.999996795654,10|0,0:0|0:0,0:0:0:0:
338,200,252085,5,2,3:2:0:0:
200,265,252235,1,0,3:0:0:0:
462,191,252385,1,10,0:0:0:0:
324,126,252535,1,2,0:0:0:0:
285,296,252685,6,0,B|302:297|309:294|309:294|387:365|387:365|398:360|422:363,1,157.499995193482,10|0,0:0|0:0,0:0:0:0:
408,281,252985,1,10,0:0:0:0:
287,377,253135,1,0,0:0:0:0:
260,379,253210,1,0,0:0:0:0:
235,384,253285,1,2,3:2:0:0:
399,200,253435,1,10,0:0:0:0:
195,325,253585,1,0,0:0:0:0:
214,104,253735,6,0,B|252:105|273:136|273:136|245:180|252:232,1,157.499995193482,10|0,0:0|0:0,0:0:0:0:
279,290,254035,1,2,3:2:0:0:
105,188,254185,1,10,0:0:0:0:
359,122,254335,1,8,0:0:0:0:
380,117,254410,1,8,0:0:0:0:
401,112,254485,1,2,3:2:0:0:
401,112,254785,5,10,0:0:0:0:
279,285,254935,1,2,3:2:0:0:
128,75,255085,5,2,0:0:0:0:
263,150,255235,1,0,3:0:0:0:
35,204,255385,1,10,0:0:0:0:
186,297,255535,1,8,0:0:0:0:
179,271,255610,1,8,0:0:0:0:
172,245,255685,1,2,0:0:0:0:
126,67,255835,5,2,3:2:0:0:
188,304,255985,1,8,0:0:0:0:
414,163,256135,6,0,B|400:164|386:159|386:159|319:236|319:236|304:232|288:232,1,157.499995193482,2|0,3:2|0:0,0:0:0:0:
284,162,256435,1,2,3:2:0:0:
411,244,256585,2,0,P|460:255|519:272,1,104.999996795654,10|0,0:0|0:0,0:0:0:0:
482,27,256885,5,2,3:2:0:0:
313,86,257035,1,2,3:2:0:0:
494,143,257185,1,8,0:0:0:0:
376,0,257335,1,2,0:0:0:0:
376,242,257485,5,4,3:2:0:0:
403,131,257635,1,0,0:0:0:0:
264,323,257785,2,0,P|250:265|237:209,1,104.999996795654,10|8,0:0|0:0,0:0:0:0:
221,150,258010,1,8,0:0:0:0:
213,126,258085,1,2,3:2:0:0:
11,296,258235,2,0,B|46:274|85:312|80:318|114:356|154:329,1,157.499995193482,2|0,3:2|0:0,0:0:0:0:
165,313,258535,1,10,0:0:0:0:
100,132,258685,6,0,P|48:156|-2:183,1,104.999996795654,2|0,0:0|3:0,0:0:0:0:
297,46,258985,2,0,P|250:21|202:0,1,104.999996795654,10|0,0:0|0:0,0:0:0:0:
483,151,259285,5,10,0:0:0:0:
506,124,259360,1,8,0:0:0:0:
512,89,259435,1,8,0:0:0:0:
498,56,259510,1,8,0:0:0:0:
452,0,259585,5,8,0:0:0:0:
429,26,259660,1,8,0:0:0:0:
422,61,259735,1,8,0:0:0:0:
436,94,259810,1,8,0:0:0:0:
444,88,259885,5,0,0:0:0:0:
256,192,259960,12,0,274285,0:0:0:0:
