osu file format v14

[General]
AudioFilename: audio.mp3
AudioLeadIn: 0
PreviewTime:57535
Countdown: 0
SampleSet: Soft
StackLeniency: 0.4
Mode: 0
LetterboxInBreaks: 0
WidescreenStoryboard: 1

[Editor]
Bookmarks: 135085
DistanceSpacing: 1.8
BeatDivisor: 4
GridSize: 8
TimelineZoom: 2.4

[Metadata]
Title:Majo
TitleUnicode:魔女
Artist:KAF
ArtistUnicode:花譜
Creator:LeeGod
Version:Insane
Source:
Tags:Poyoyo MiyohashiKoori W M W_M milkgreen Sagisawa_Arisa Kohno_Marika Sagisawa Arisa Kohno Marika kamitsubaki studio kafu japanese pop rock jpop jrock virtual vtuber vsinger 神椿 花と心臓 hana to shinzou
BeatmapID:2960553
BeatmapSetID:1438258

[Difficulty]
HPDrainRate:5
CircleSize:3.8
OverallDifficulty:8.2
ApproachRate:9
SliderMultiplier:2
SliderTickRate:1

[Events]
//Background and Video events
0,0,"bg.jpg",0,0
//Break Periods
2,164085,172585
//Storyboard Layer 0 (Background)
//Storyboard Layer 1 (Fail)
//Storyboard Layer 2 (Pass)
//Storyboard Layer 3 (Foreground)
//Storyboard Layer 4 (Overlay)
//Storyboard Sound Samples

[TimingPoints]
685,300,4,2,2,30,1,0
685,-153.846153846154,4,2,2,30,0,0
1885,-153.846153846154,4,2,2,20,0,0
2185,-153.846153846154,4,2,2,30,0,0
2485,-153.846153846154,4,2,2,40,0,0
2785,-153.846153846154,4,2,2,50,0,0
3085,-153.846153846154,4,2,2,30,0,0
4285,-153.846153846154,4,2,2,20,0,0
4585,-153.846153846154,4,2,2,30,0,0
4885,-153.846153846154,4,2,2,40,0,0
5185,-153.846153846154,4,2,2,50,0,0
5485,-153.846153846154,4,2,2,30,0,0
6685,-153.846153846154,4,2,2,20,0,0
6985,-153.846153846154,4,2,2,30,0,0
7285,-153.846153846154,4,2,2,40,0,0
7585,-153.846153846154,4,2,2,50,0,0
7885,-153.846153846154,4,2,2,30,0,0
9085,-153.846153846154,4,2,2,20,0,0
9385,-153.846153846154,4,2,2,30,0,0
9685,-153.846153846154,4,2,1,65,0,0
10285,-105.263157894737,4,2,1,80,0,0
19885,-250,4,2,2,40,0,0
29485,-181.818181818182,4,2,2,50,0,0
38785,-181.818181818182,4,2,1,65,0,0
39085,-117.647058823529,4,2,1,65,0,0
48685,-105.263157894737,4,2,1,65,0,0
57535,-105.263157894737,4,2,1,40,0,0
58285,-95.2380952380952,4,2,1,90,0,0
77485,-100,4,2,1,80,0,0
85885,-66.6666666666667,4,2,1,80,0,0
87085,-222.222222222222,4,2,2,40,0,0
94285,-285.714285714286,4,2,2,40,0,0
95485,-400,4,2,2,40,0,0
96085,-500,4,2,2,40,0,0
96385,-500,4,2,2,50,0,0
96685,-666.666666666667,4,2,2,50,0,0
97885,-333.333333333333,4,2,2,50,0,0
101485,-250,4,2,2,50,0,0
103885,-285.714285714286,4,2,2,50,0,0
106285,-250,4,2,2,60,0,0
115585,-250,4,2,1,40,0,0
115885,-117.647058823529,4,2,1,65,0,0
125485,-105.263157894737,4,2,1,65,0,0
133885,-105.263157894737,4,2,2,45,0,0
135085,-95.2380952380954,4,2,1,90,0,0
163885,-95.2380952380954,4,2,2,40,0,0
173485,-181.818181818182,4,2,2,50,0,0
189985,-285.714285714286,4,2,2,50,0,0
192685,-133.333333333333,4,2,1,60,0,0
199885,-400,4,2,1,35,0,0
200935,-400,4,2,1,35,0,0
201085,-181.818181818182,4,2,1,35,0,0
202285,-181.818181818182,4,2,2,40,0,0
211885,-95.2380952380954,4,2,1,65,0,0
220285,-105.263157894737,4,2,1,80,0,0
221485,-95.2380952380954,4,2,1,90,0,0
227185,-95.2380952380954,4,2,2,90,0,0
227335,-95.2380952380954,4,2,1,90,0,0
240685,-100,4,2,1,80,0,0
259885,-95.2380952380954,4,2,1,20,0,0
259960,-95.2380952380954,4,2,1,20,0,0
264685,-95.2380952380954,4,2,1,16,0,0
267085,-95.2380952380954,4,2,1,14,0,0
268285,-95.2380952380954,4,2,1,12,0,0
269485,-95.2380952380954,4,2,1,10,0,0
270685,-95.2380952380954,4,2,1,8,0,0
271885,-95.2380952380954,4,2,1,7,0,0
273085,-95.2380952380954,4,2,1,6,0,0
274285,-95.2380952380954,4,2,1,5,0,0

[Colours]
Combo1 : 197,177,194
Combo2 : 255,189,209
Combo3 : 200,35,235

[HitObjects]
17,63,685,6,0,P|84:54|154:49,1,130
220,91,1135,1,0,0:0:0:0:
86,175,1435,1,0,0:0:0:0:
225,252,1735,1,0,0:0:0:0:
230,249,1885,6,0,L|225:180,1,64.9999999999999,2|0,0:0|0:0,0:0:0:0:
108,315,2185,2,0,L|113:246,1,64.9999999999999,2|0,0:0|0:0,0:0:0:0:
240,247,2485,2,0,L|234:168,1,64.9999999999999,2|0,0:0|0:0,0:0:0:0:
101,321,2785,2,0,L|106:242,1,64.9999999999999,2|0,0:0|0:0,0:0:0:0:
301,303,3085,6,0,B|374:295|352:351|428:336,1,130
491,293,3535,1,0,0:0:0:0:
342,209,3835,1,0,0:0:0:0:
465,156,4135,1,0,0:0:0:0:
472,153,4285,6,0,L|464:84,1,64.9999999999999,2|0,0:0|0:0,0:0:0:0:
329,109,4585,2,0,L|337:40,1,64.9999999999999,2|0,0:0|0:0,0:0:0:0:
484,161,4885,2,0,L|474:81,1,64.9999999999999,2|0,0:0|0:0,0:0:0:0:
318,92,5185,2,0,L|327:12,1,64.9999999999999,2|0,0:0|0:0,0:0:0:0:
205,160,5485,6,0,P|214:221|212:293,1,130
139,338,5935,1,0,0:0:0:0:
0,264,6235,1,0,0:0:0:0:
118,192,6535,1,0,0:0:0:0:
125,187,6685,6,0,P|134:151|125:110,1,64.9999999999999,2|0,0:0|0:0,0:0:0:0:
17,139,6985,2,0,P|8:103|17:62,1,64.9999999999999,2|0,0:0|0:0,0:0:0:0:
134,192,7285,2,0,P|143:156|134:115,1,64.9999999999999,2|0,0:0|0:0,0:0:0:0:
5,131,7585,2,0,P|-4:95|5:54,1,64.9999999999999,2|0,0:0|0:0,0:0:0:0:
220,97,7885,6,0,P|277:93|358:96,1,130
415,144,8335,1,0,0:0:0:0:
317,189,8485,6,0,P|311:230|319:264,1,64.9999999999999
413,246,8785,2,0,P|419:277|414:309,1,64.9999999999999
512,210,9085,2,0,P|506:169|510:143,1,64.9999999999999,2|0,0:0|0:0,0:0:0:0:
404,138,9385,2,0,P|410:97|406:71,1,64.9999999999999,2|0,0:0|0:0,0:0:0:0:
248,35,9685,5,2,0:0:0:0:
286,133,9835,1,2,0:0:0:0:
183,115,9985,1,2,0:0:0:0:
173,128,10060,1,2,0:0:0:0:
167,143,10135,1,2,0:0:0:0:
165,159,10210,1,2,0:0:0:0:
165,173,10285,6,0,B|179:218|179:218|174:251|174:251|192:312,1,142.5,6|0,3:2|0:0,0:0:0:0:
196,321,10585,2,0,P|253:343|317:327,1,94.9999999999998,10|0,0:0|3:0,0:0:0:0:
130,365,10885,1,10,0:0:0:0:
97,240,11035,2,0,P|54:220|7:220,1,94.9999999999998,2|0,3:2|0:0,0:0:0:0:
210,75,11335,2,0,B|237:98|279:116|279:116|261:176|253:252,1,190,10|2,0:0|3:2,0:0:0:0:
128,134,11785,2,0,L|23:119,1,94.9999999999998,10|0,0:0|0:0,0:0:0:0:
212,67,12085,2,0,L|317:52,1,94.9999999999998,2|0,3:2|3:0,0:0:0:0:
439,114,12385,1,10,0:0:0:0:
402,19,12535,1,2,0:0:0:0:
444,123,12685,6,0,P|454:190|456:281,1,142.5,10|0,0:0|0:0,0:0:0:0:
457,276,12985,2,0,P|403:281|357:270,1,94.9999999999998,10|0,0:0|0:0,0:0:0:0:
252,342,13285,1,2,3:2:0:0:
197,206,13435,2,0,P|243:197|290:202,1,94.9999999999998,10|0,0:0|0:0,0:0:0:0:
113,242,13735,2,0,B|67:245|42:287|42:287|12:231|40:166,1,190,10|2,0:0|3:2,0:0:0:0:
3,61,14185,1,10,0:0:0:0:
117,107,14335,1,8,0:0:0:0:
117,107,14410,1,8,0:0:0:0:
117,107,14485,2,0,P|192:92|271:86,1,142.5,2|0,3:2|0:0,0:0:0:0:
313,22,14785,2,0,P|341:67|337:117,1,94.9999999999998,10|2,0:0|3:2,0:0:0:0:
290,269,15085,6,0,P|262:224|266:174,1,94.9999999999998,2|0,0:0|3:0,0:0:0:0:
371,293,15385,1,10,0:0:0:0:
236,357,15535,1,8,0:0:0:0:
236,357,15610,1,8,0:0:0:0:
236,357,15685,2,0,L|136:350,1,94.9999999999998,2|2,0:0|3:2,0:0:0:0:
43,241,15985,1,8,0:0:0:0:
43,241,16135,2,0,B|92:261|130:211|122:206|166:160|216:173,1,190,2|2,3:2|3:2,0:0:0:0:
370,244,16585,2,0,P|314:256|273:245,1,94.9999999999998,10|0,0:0|0:0,0:0:0:0:
234,91,16885,1,2,3:2:0:0:
311,153,17035,1,2,3:2:0:0:
195,262,17185,1,8,0:0:0:0:
209,171,17335,1,2,0:0:0:0:
326,342,17485,6,0,B|310:330|310:330|370:314|358:383|445:356,1,142.5,4|0,3:2|0:0,0:0:0:0:
442,357,17785,1,10,0:0:0:0:
490,258,17935,1,8,0:0:0:0:
490,258,18010,1,8,0:0:0:0:
490,258,18085,2,0,P|485:186|491:136,2,94.9999999999998,2|2|0,3:2|3:2|0:0,0:0:0:0:
387,200,18535,1,10,0:0:0:0:
387,200,18685,2,0,P|327:210|286:205,1,94.9999999999998,2|0,0:0|3:0,0:0:0:0:
191,103,18985,2,0,P|251:93|292:98,1,94.9999999999998,10|0,0:0|0:0,0:0:0:0:
154,240,19285,5,10,0:0:0:0:
130,241,19360,1,8,0:0:0:0:
107,236,19435,1,8,0:0:0:0:
85,226,19510,1,8,0:0:0:0:
67,211,19585,1,8,0:0:0:0:
54,191,19660,1,8,0:0:0:0:
46,169,19735,1,8,0:0:0:0:
43,146,19810,1,8,0:0:0:0:
47,121,19885,6,0,B|117:151|182:85|164:75|233:8|311:55,1,280,2|0,0:0|0:0,0:0:0:0:
362,136,21085,6,0,P|313:157|237:46,1,200,2|2,0:0|0:0,0:0:0:0:
463,71,22285,6,0,B|418:184|524:213|481:351,1,280,2|0,0:0|0:0,0:0:0:0:
374,284,23485,2,0,B|323:280|323:280|308:270|308:270|244:264,2,120,2|2|2,0:0|0:0|0:0,0:0:0:0:
182,325,24685,6,0,P|136:353|118:214,1,280,2|0,0:0|0:0,0:0:0:0:
257,264,25885,2,0,P|302:292|320:153,1,280,2|0,0:0|0:0,0:0:0:0:
224,59,27085,6,0,B|161:91|112:49|126:39|82:1|6:31|6:31|65:21|92:57,1,320,2|2,0:0|0:0,0:0:0:0:
86,50,29485,6,0,P|100:106|94:168,1,110,2|0,0:0|1:0,0:0:0:0:
218,111,29935,1,0,1:0:0:0:
218,111,30085,2,0,P|204:167|210:229,1,110,0|0,0:0|1:0,0:0:0:0:
127,298,30535,1,0,1:0:0:0:
127,298,30685,1,2,0:0:0:0:
127,298,30835,2,0,B|217:287|193:361|288:341,1,165,0|0,1:0|1:0,0:0:0:0:
294,222,31435,2,0,P|306:280|289:341,1,110,2|0,0:0|0:0,0:0:0:0:
447,375,31885,6,0,P|436:321|448:268,1,110,2|0,0:0|0:0,0:0:0:0:
490,133,32335,1,0,0:0:0:0:
490,133,32485,2,0,B|405:121|424:194|330:180,1,165,0|0,1:0|1:0,0:0:0:0:
219,92,33085,1,2,0:0:0:0:
219,92,33235,2,0,P|266:64|325:65,1,110,0|2,1:0|0:0,0:0:0:0:
220,180,33685,2,0,P|165:179|118:151,1,110,0|2,1:0|0:0,0:0:0:0:
65,67,34135,1,0,1:0:0:0:
65,67,34285,6,0,P|73:118|66:195,1,110,2|0,0:0|0:0,0:0:0:0:
28,272,34735,1,0,1:0:0:0:
28,272,34885,2,0,B|112:264|91:332|182:318,1,165,0|0,1:0|1:0,0:0:0:0:
291,352,35485,1,2,0:0:0:0:
291,352,35635,2,0,P|278:306|284:239,1,110,0|0,1:0|1:0,0:0:0:0:
386,128,36085,2,0,P|405:197|396:298,1,165,0|0,1:0|1:0,0:0:0:0:
287,215,36685,6,0,B|193:220|226:156|133:155,1,165,2|0,0:0|1:0,0:0:0:0:
69,93,37285,2,0,P|49:171|94:238,1,165,0|0,1:0|1:0,0:0:0:0:
230,303,37885,1,2,0:0:0:0:
230,303,38035,2,0,B|194:286|174:270|174:270|148:308|99:346,1,165,0|0,1:0|1:0,0:0:0:0:
0,378,38785,5,2,0:0:0:0:
8,374,39085,6,0,B|23:317|1:282|1:282|-4:229|37:196,1,170.000000000001,6|10,3:2|0:0,0:0:0:0:
96,150,39535,1,0,0:0:0:0:
96,150,39685,2,0,P|134:151|189:145,1,85.0000000000003,2|0,3:2|3:0,0:0:0:0:
246,91,39985,1,2,0:0:0:0:
274,189,40135,2,0,B|279:245|279:245|258:285|258:285|266:360,1,170.000000000001,10|2,0:0|3:2,0:0:0:0:
349,288,40585,2,0,P|313:261|271:254,1,85.0000000000003,10|0,0:0|0:0,0:0:0:0:
179,321,40885,1,0,3:0:0:0:
179,321,41035,1,0,3:0:0:0:
150,204,41185,2,0,B|210:215|207:153|266:169,1,127.5,10|0,0:0|0:0,0:0:0:0:
372,213,41485,6,0,P|382:163|379:127,1,85.0000000000003,2|0,3:2|0:0,0:0:0:0:
481,30,41785,2,0,P|467:90|495:201,1,170.000000000001,10|2,0:0|3:2,0:0:0:0:
437,277,42235,1,0,3:0:0:0:
492,204,42385,1,2,0:0:0:0:
401,186,42535,2,0,B|304:205|337:122|242:143,1,170.000000000001,10|2,0:0|3:2,0:0:0:0:
162,207,42985,2,0,P|147:166|142:124,1,85.0000000000003,10|0,0:0|0:0,0:0:0:0:
163,19,43285,1,0,3:0:0:0:
163,19,43435,1,0,3:0:0:0:
50,48,43585,2,0,B|45:85|45:85|47:96|47:96|41:146,1,85.0000000000003,10|0,0:0|0:0,0:0:0:0:
29,279,43885,6,0,B|76:277|67:312|131:302,1,85.0000000000003,2|0,3:2|0:0,0:0:0:0:
243,333,44185,2,0,B|158:312|173:399|75:375,1,170.000000000001,10|2,0:0|3:2,0:0:0:0:
0,349,44635,1,0,3:0:0:0:
0,349,44785,1,2,0:0:0:0:
109,295,44935,2,0,B|128:268|155:243|155:243|125:188|112:122,1,170.000000000001,10|2,0:0|3:2,0:0:0:0:
118,41,45385,1,8,0:0:0:0:
219,84,45535,2,0,P|292:121|367:88,1,170.000000000001,2|0,0:0|3:0,0:0:0:0:
452,25,45985,2,0,P|469:92|471:150,1,127.5,10|0,0:0|0:0,0:0:0:0:
481,270,46285,6,0,P|438:289|390:281,1,85.0000000000003,2|0,3:2|0:0,0:0:0:0:
289,197,46585,2,0,B|247:164|247:164|311:286,1,170.000000000001,10|2,0:0|3:2,0:0:0:0:
340,366,47035,1,0,3:0:0:0:
394,280,47185,1,2,0:0:0:0:
332,373,47335,2,0,L|239:374,1,85.0000000000003,10|0,0:0|0:0,0:0:0:0:
144,342,47635,1,2,3:2:0:0:
216,266,47785,2,0,L|309:267,1,85.0000000000003,10|0,0:0|0:0,0:0:0:0:
339,167,48085,1,0,3:0:0:0:
339,167,48235,1,0,3:0:0:0:
308,278,48385,1,10,0:0:0:0:
143,136,48685,6,0,B|248:122|209:211|321:187,1,190,6|10,3:2|0:0,0:0:0:0:
408,114,49135,1,0,0:0:0:0:
408,114,49285,2,0,P|417:165|411:213,1,94.9999999999998,2|0,3:2|3:0,0:0:0:0:
322,275,49585,1,2,0:0:0:0:
399,366,49735,2,0,B|331:365|331:365|290:345|290:345|213:344,1,190,10|2,0:0|3:2,0:0:0:0:
99,280,50185,2,0,P|93:334|102:377,1,94.9999999999998,10|0,0:0|0:0,0:0:0:0:
206,328,50485,1,0,3:0:0:0:
206,328,50635,1,0,3:0:0:0:
226,223,50785,2,0,B|144:213|172:275|79:264,1,142.5,10|0,0:0|0:0,0:0:0:0:
21,206,51085,6,0,P|15:149|15:106,1,94.9999999999998,2|0,3:2|0:0,0:0:0:0:
73,22,51385,2,0,B|184:-4|149:83|285:53,1,190,10|2,0:0|3:2,0:0:0:0:
364,104,51835,1,0,3:0:0:0:
335,0,51985,1,2,0:0:0:0:
264,86,52135,2,0,P|253:132|260:206,1,94.9999999999998,8|2,0:0|0:0,0:0:0:0:
357,230,52435,1,0,3:0:0:0:
264,288,52585,2,0,B|151:296|198:216|87:227,1,190,10|2,0:0|3:2,0:0:0:0:
65,325,53035,1,0,3:0:0:0:
14,241,53185,2,0,P|-3:172|3:101,1,142.5,10|0,0:0|0:0,0:0:0:0:
12,80,53485,6,0,B|57:51|99:62|99:62|141:99|196:68,1,190,2|8,3:2|0:0,0:0:0:0:
273,11,53935,2,0,P|341:61|328:167,1,190,2|0,0:0|3:0,0:0:0:0:
253,222,54385,1,2,0:0:0:0:
255,120,54535,2,0,P|209:121|160:133,1,94.9999999999998,8|2,0:0|0:0,0:0:0:0:
82,80,54835,1,0,3:0:0:0:
118,198,54985,2,0,P|126:250|121:300,1,94.9999999999998,10|2,0:0|0:0,0:0:0:0:
50,346,55285,1,0,3:0:0:0:
50,346,55435,1,0,3:0:0:0:
157,292,55585,2,0,B|208:286|195:331|262:325,1,94.9999999999998,10|2,0:0|0:0,0:0:0:0:
342,351,55885,6,0,P|347:300|331:255,1,94.9999999999998,2|0,3:2|0:0,0:0:0:0:
457,384,56185,2,0,P|446:290|475:200,1,190,10|0,0:0|3:0,0:0:0:0:
430,102,56635,1,0,3:0:0:0:
347,190,56785,1,2,0:0:0:0:
292,22,56935,1,10,0:0:0:0:
292,22,58285,6,0,B|320:14|320:14|220:-10|255:86|130:65,1,210,4|8,3:2|0:0,0:0:0:0:
48,1,58735,1,2,0:0:0:0:
38,124,58885,2,0,P|40:190|21:239,1,105,2|0,3:2|3:0,0:0:0:0:
124,193,59185,2,0,B|242:161|207:257|332:236,1,210,10|0,0:0|0:0,0:0:0:0:
399,183,59635,1,0,3:0:0:0:
399,183,59785,1,8,0:0:0:0:
308,256,59935,2,0,P|294:312|305:378,1,105,2|0,0:0|3:0,0:0:0:0:
459,353,60235,1,2,3:2:0:0:
437,267,60385,1,10,0:0:0:0:
373,329,60535,1,2,0:0:0:0:
469,357,60685,6,0,B|479:296|479:296|468:246|468:246|478:185,1,157.5,2|0,3:2|0:0,0:0:0:0:
488,180,60985,1,10,0:0:0:0:
371,138,61135,2,0,P|306:156|277:182,1,105,2|0,0:0|3:0,0:0:0:0:
348,323,61435,2,0,P|413:305|442:279,1,105,2|8,3:2|0:0,0:0:0:0:
363,238,61735,2,0,B|272:220|290:326|172:316,1,210,2|0,3:2|3:0,0:0:0:0:
55,339,62185,6,0,P|38:265|41:218,1,105,10|0,0:0|0:0,0:0:0:0:
183,107,62485,2,0,P|181:159|166:209,1,105,2|0,3:2|3:0,0:0:0:0:
28,92,62785,2,0,B|115:64|114:136|196:109,1,157.5,10|0,0:0|0:0,0:0:0:0:
205,88,63085,6,0,B|258:94|296:54|296:54|358:84|341:156,1,210,6|10,3:2|0:0,0:0:0:0:
298,240,63535,1,0,0:0:0:0:
298,240,63685,2,0,P|338:249|402:234,1,105,2|0,3:2|3:0,0:0:0:0:
470,172,63985,1,10,0:0:0:0:
497,384,64135,2,0,B|386:404|428:302|293:328,1,210,2|2,3:2|3:2,0:0:0:0:
205,326,64585,2,0,B|201:276|201:276|196:267|196:267|192:213,1,105,8|0,0:0|0:0,0:0:0:0:
129,134,64885,1,2,3:2:0:0:
129,134,65035,1,0,3:0:0:0:
240,149,65185,2,0,P|309:139|349:107,1,105,10|0,0:0|0:0,0:0:0:0:
202,22,65485,6,0,P|133:32|93:64,1,105,2|0,3:2|0:0,0:0:0:0:
28,145,65785,2,0,B|10:202|28:247|28:247|68:291|50:351,1,210,10|2,0:0|3:2,0:0:0:0:
135,274,66235,1,2,3:2:0:0:
203,338,66385,1,8,0:0:0:0:
250,217,66535,2,0,B|199:213|217:267|161:260,1,105,2|0,3:2|0:0,0:0:0:0:
324,335,66835,5,2,3:2:0:0:
326,242,66985,1,8,0:0:0:0:
485,341,67135,1,2,0:0:0:0:
408,199,67285,1,0,3:0:0:0:
403,384,67435,1,0,3:0:0:0:
487,248,67585,2,0,P|495:186|478:92,1,157.5,10|0,0:0|0:0,0:0:0:0:
474,55,67885,6,0,B|495:49|495:49|452:32|404:60|404:60|408:63|408:63|356:96|292:66,1,210,6|8,3:2|0:0,0:0:0:0:
223,15,68335,1,2,0:0:0:0:
223,15,68485,2,0,P|154:7|106:20,1,105,2|0,3:2|3:0,0:0:0:0:
20,106,68785,2,0,B|142:91|96:194|223:168,1,210,10|0,0:0|0:0,0:0:0:0:
307,218,69235,1,0,3:0:0:0:
287,113,69385,1,8,0:0:0:0:
312,229,69535,2,0,P|367:234|415:217,1,105,2|0,0:0|3:0,0:0:0:0:
467,106,69835,1,2,3:2:0:0:
380,142,69985,1,10,0:0:0:0:
421,30,70135,1,2,0:0:0:0:
476,116,70285,6,0,P|490:198|487:271,1,157.5,2|0,3:2|0:0,0:0:0:0:
500,295,70585,1,10,0:0:0:0:
382,356,70735,2,0,B|330:401|255:382|236:327|276:273|315:284,1,210,2|2,0:0|3:2,0:0:0:0:
398,232,71185,1,8,0:0:0:0:
297,264,71335,2,0,P|236:260|188:271,1,105,2|0,3:2|0:0,0:0:0:0:
59,357,71635,2,0,P|120:361|168:350,1,105,2|8,3:2|0:0,0:0:0:0:
201,255,71935,1,0,0:0:0:0:
95,213,72085,2,0,P|91:159|100:105,1,105,2|0,3:2|3:0,0:0:0:0:
238,151,72385,2,0,P|242:97|233:43,1,105,10|0,0:0|0:0,0:0:0:0:
411,190,72685,6,0,B|421:218|398:235|398:235|353:159|420:146|404:69,1,210,6|8,3:2|0:0,0:0:0:0:
309,30,73135,1,2,0:0:0:0:
302,143,73285,2,0,B|270:218|339:246|310:318|310:318|304:296|292:281,1,210,2|8,3:2|0:0,0:0:0:0:
204,304,73735,1,2,3:2:0:0:
145,232,73885,6,0,P|85:222|38:234,1,105,2|0,0:0|3:0,0:0:0:0:
257,367,74185,2,0,P|317:377|364:365,1,105,10|0,0:0|0:0,0:0:0:0:
137,354,74485,2,0,P|77:364|30:352,1,105,2|0,3:2|3:0,0:0:0:0:
218,296,74785,2,0,P|278:286|325:298,1,105,10|0,0:0|0:0,0:0:0:0:
498,299,75085,6,0,B|559:302|528:356|467:334|450:254|465:250|433:195|376:216,1,210,2|8,3:2|0:0,0:0:0:0:
290,191,75535,2,0,P|351:222|399:212,1,105,2|2,0:0|3:2,0:0:0:0:
436,136,75835,1,0,3:0:0:0:
305,99,75985,2,0,P|253:97|209:125,1,105,8|2,0:0|3:2,0:0:0:0:
62,251,76285,5,10,3:2:0:0:
49,228,76360,1,8,0:0:0:0:
39,203,76435,1,8,0:0:0:0:
33,178,76510,1,8,0:0:0:0:
31,151,76585,1,8,3:2:0:0:
32,125,76660,1,8,0:0:0:0:
37,100,76735,1,8,0:0:0:0:
46,75,76810,1,8,0:0:0:0:
59,49,76885,6,0,L|119:26,3,52.5,8|8|8|8,3:2|0:0|0:0|0:0,0:0:0:0:
167,96,77185,2,0,L|227:119,3,52.5,8|8|8|8,3:2|0:0|0:0|0:0,0:0:0:0:
295,150,77485,6,0,B|296:167|296:167|318:121|318:121|317:102|317:102|336:60|336:60|338:79,1,150,6|0,3:2|0:0,0:0:0:0:
343,85,77785,2,0,P|398:93|450:76,1,100,10|0,0:0|3:0,0:0:0:0:
512,139,78085,1,10,0:0:0:0:
446,243,78235,2,0,P|397:230|348:239,1,100,2|0,3:2|0:0,0:0:0:0:
235,331,78535,2,0,B|238:368|238:368|212:303|212:303|216:273|216:273|187:196,1,200,10|2,0:0|3:2,0:0:0:0:
202,122,78985,2,0,P|254:93|304:91,1,100,10|0,0:0|0:0,0:0:0:0:
118,182,79285,2,0,P|68:175|26:150,1,100,2|0,3:2|3:0,0:0:0:0:
87,0,79585,1,10,0:0:0:0:
13,75,79735,1,2,0:0:0:0:
97,5,79885,6,0,B|175:-19|167:48|273:10,1,150,10|0,0:0|0:0,0:0:0:0:
262,24,80185,2,0,B|314:10|314:10|368:24,1,100,10|0,0:0|0:0,0:0:0:0:
313,96,80485,1,2,3:2:0:0:
262,167,80635,2,0,B|314:181|314:181|359:170,1,100,10|0,0:0|0:0,0:0:0:0:
457,68,80935,2,0,B|465:131|465:131|449:174|449:174|465:277,1,200,10|2,0:0|3:2,0:0:0:0:
512,355,81385,1,10,0:0:0:0:
386,311,81535,1,8,0:0:0:0:
386,311,81610,1,8,0:0:0:0:
386,311,81685,2,0,P|323:302|276:317,1,100,2|0,3:2|3:0,0:0:0:0:
216,234,81985,1,10,0:0:0:0:
186,334,82135,1,2,3:2:0:0:
226,221,82285,6,0,P|227:163|221:112,1,100,2|0,0:0|3:0,0:0:0:0:
112,59,82585,1,10,0:0:0:0:
36,162,82735,1,8,0:0:0:0:
36,162,82810,1,8,0:0:0:0:
36,162,82885,2,0,B|88:153|72:203|156:191,1,100,2|2,0:0|3:2,0:0:0:0:
181,287,83185,1,8,0:0:0:0:
181,287,83335,2,0,B|73:280|117:366|-6:346,1,200,2|2,3:2|3:2,0:0:0:0:
166,368,83785,2,0,P|224:375|269:366,1,100,10|0,0:0|0:0,0:0:0:0:
309,271,84085,1,2,3:2:0:0:
280,364,84235,1,2,3:2:0:0:
388,279,84385,1,8,0:0:0:0:
410,352,84535,1,2,0:0:0:0:
471,255,84685,6,0,B|482:283|482:283|502:229|447:217|471:158,1,150,4|0,3:2|0:0,0:0:0:0:
483,139,84985,1,10,0:0:0:0:
410,61,85135,1,8,0:0:0:0:
410,61,85210,1,8,0:0:0:0:
410,61,85285,2,0,P|356:49|310:57,2,100,2|2|0,3:2|3:2|0:0,0:0:0:0:
362,155,85735,1,10,0:0:0:0:
236,205,85885,6,0,B|257:205|257:205|217:227|171:197|171:197|176:192|176:192|132:168|92:197|92:197|114:201,2,225,10|10|10,0:0|0:0|0:0,0:0:0:0:
158,323,86485,6,0,B|179:323|179:323|139:301|93:331|93:331|98:336|98:336|54:359|14:331|14:331|36:327,2,225,10|10|10,0:0|0:0|0:0,0:0:0:0:
267,296,87085,6,0,B|315:246|396:286|381:301|442:342|505:292|505:292|475:308|442:304,1,315,2|2,0:0|0:0,0:0:0:0:
421,156,88285,6,0,P|407:194|433:292,1,135,0|2,0:0|0:0,0:0:0:0:
502,211,88885,2,0,P|516:173|490:75,1,135,2|0,0:0|0:0,0:0:0:0:
398,16,89485,6,0,B|392:42|363:58|363:58|303:4|231:7|176:36|176:36|207:26|233:29,1,315,2|2,0:0|0:0,0:0:0:0:
270,116,90685,6,0,P|291:168|269:255,1,135,0|2,0:0|0:0,0:0:0:0:
203,320,91285,2,0,P|182:268|204:181,1,135,2|0,0:0|0:0,0:0:0:0:
174,99,91885,6,0,B|116:65|49:108|49:108|106:200|43:296,1,315,2|2,0:0|0:0,0:0:0:0:
0,375,93085,6,0,B|74:406|159:345|134:323|218:265|305:323,1,315
439,364,94285,6,0,P|396:382|422:273,1,245,2|2,0:0|0:0,0:0:0:0:
437,286,95485,6,0,B|403:284|400:301|362:300,1,75,0|2,0:0|0:0,0:0:0:0:
301,231,96085,2,0,B|272:232|269:218|238:218,1,60,2|0,0:0|0:0,0:0:0:0:
173,276,96685,6,0,B|174:225|137:233|138:177,1,105,2|2,0:0|0:0,0:0:0:0:
93,110,97885,2,0,P|143:95|195:217,1,210
69,293,99085,2,0,P|124:307|265:383,1,210,2|2,0:0|0:0,0:0:0:0:
383,273,100285,2,0,P|338:285|296:314,1,90.0000000000001,0|2,0:0|0:0,0:0:0:0:
431,349,100885,2,0,P|476:361|518:390,1,90.0000000000001,2|0,0:0|0:0,0:0:0:0:
482,267,101485,6,0,B|503:215|462:166|459:175|410:120|431:61|431:61|434:99|447:120,1,280,2|2,0:0|0:0,0:0:0:0:
379,197,102685,2,0,B|320:206|320:206|315:209|315:209|248:219,1,120,0|2,0:0|0:0,0:0:0:0:
238,134,103285,2,0,B|179:125|179:125|174:122|174:122|107:112,1,120,2|0,0:0|0:0,0:0:0:0:
49,145,103885,6,0,B|7:82|58:-26|202:-7|259:91|246:125|214:139|268:223|360:241|416:187,1,524.999999999999,2|0,0:0|0:0,0:0:0:0:
452,123,106285,6,0,P|418:118|398:120,3,40,2|0|2|2,0:0|1:0|0:0|1:2,0:0:0:0:
342,298,106885,2,0,P|322:298|302:302,3,40,0|2|0|2,0:0|1:2|0:0|1:2,0:0:0:0:
440,320,107485,2,0,P|445:339|447:359,1,40,0|2,0:0|1:2,0:0:0:0:
503,250,107785,2,0,P|505:230|510:210,1,40,0|2,0:0|1:2,0:0:0:0:
369,183,108085,2,0,P|363:202|361:222,1,40,2|0,0:0|1:0,0:0:0:0:
306,113,108385,2,0,P|303:93|298:73,1,40,2|0,0:0|0:0,0:0:0:0:
158,135,108685,6,0,P|161:164|163:180,2,40,2|0|2,0:0|1:0|0:0,0:0:0:0:
237,179,109135,1,2,1:2:0:0:
96,249,109285,2,0,P|93:278|91:294,2,40,0|2|0,0:0|1:2|0:0,0:0:0:0:
21,316,109735,1,2,1:2:0:0:
180,319,109885,6,0,P|205:317|228:313,1,40,0|2,0:0|1:2,0:0:0:0:
295,341,110185,2,0,P|311:321|324:302,1,40,0|2,0:0|1:2,0:0:0:0:
391,275,110485,2,0,P|389:250|385:227,1,40,2|0,0:0|1:0,0:0:0:0:
412,160,110785,2,0,P|392:143|373:130,1,40,2|0,0:0|0:0,0:0:0:0:
347,46,111085,6,0,L|308:56,3,40,2|0|2|2,0:0|1:0|0:0|1:2,0:0:0:0:
224,22,111685,2,0,L|185:12,3,40,0|2|0|2,0:0|1:2|0:0|1:2,0:0:0:0:
123,106,112285,6,0,P|117:144|118:163,1,40,0|2,0:0|1:2,0:0:0:0:
104,256,112585,2,0,P|142:262|161:261,1,40,0|2,0:0|1:2,0:0:0:0:
254,275,112885,2,0,P|260:237|259:218,1,40,2|0,0:0|1:0,0:0:0:0:
273,124,113185,2,0,P|235:118|216:119,1,40,2|0,0:0|0:0,0:0:0:0:
43,214,113485,6,0,L|-7:223,1,40,2|0,0:0|1:0,0:0:0:0:
20,338,113785,2,0,L|59:330,1,40,2|2,0:0|1:2,0:0:0:0:
173,286,114085,2,0,L|212:293,1,40,0|2,0:0|1:2,0:0:0:0:
228,176,114385,2,0,L|188:168,1,40,0|2,0:0|1:2,0:0:0:0:
60,128,114685,6,0,P|59:108|58:89,1,40,0|2,0:0|1:2,0:0:0:0:
168,16,114985,2,0,P|166:36|166:56,1,40,0|2,0:0|1:2,0:0:0:0:
297,180,115285,6,0,P|309:141|230:122,1,140,2|0,0:0|0:0,0:0:0:0:
136,177,115885,6,0,P|158:218|195:300,1,127.5,2|0,3:2|0:0,0:0:0:0:
208,364,116185,2,0,P|223:313|235:282,1,85.0000000000003,10|0,0:0|3:0,0:0:0:0:
252,258,116410,1,8,0:0:0:0:
268,251,116485,2,0,B|326:250|326:250|365:286|365:286|434:285,1,170.000000000001,2|2,3:2|0:0,0:0:0:0:
512,350,116935,2,0,P|468:357|415:368,1,85.0000000000003,10|0,0:0|0:0,0:0:0:0:
295,327,117235,5,2,3:2:0:0:
423,285,117385,1,10,0:0:0:0:
322,195,117535,1,0,3:0:0:0:
311,186,117610,1,8,0:0:0:0:
297,174,117685,2,0,P|251:138|223:118,1,85.0000000000003,0|0,3:0|3:0,0:0:0:0:
297,35,117985,2,0,P|343:71|371:91,1,85.0000000000003,10|0,0:0|0:0,0:0:0:0:
197,220,118285,6,0,P|131:224|120:152,1,127.5,2|0,3:2|0:0,0:0:0:0:
101,144,118585,2,0,P|106:98|110:52,1,85.0000000000003,10|0,0:0|3:0,0:0:0:0:
10,16,118810,1,8,0:0:0:0:
0,29,118885,2,0,P|7:116|17:204,1,170.000000000001,2|2,3:2|0:0,0:0:0:0:
0,303,119335,1,8,0:0:0:0:
88,343,119485,2,0,P|99:296|81:249,1,85.0000000000003,2|0,0:0|3:0,0:0:0:0:
7,303,119785,5,10,0:0:0:0:
174,364,119935,1,2,3:2:0:0:
174,364,120010,1,8,0:0:0:0:
174,364,120085,2,0,P|232:369|264:373,2,85.0000000000003,0|0|10,3:0|3:0|0:0,0:0:0:0:
402,365,120685,6,0,B|394:334|389:306|389:306|350:281|350:281|344:246|336:213,1,170.000000000001,6|10,3:2|0:0,0:0:0:0:
432,126,121135,1,0,3:0:0:0:
432,126,121210,1,8,0:0:0:0:
432,126,121285,2,0,P|435:179|425:215,1,85.0000000000003,2|0,3:2|3:0,0:0:0:0:
325,168,121585,1,2,0:0:0:0:
325,168,121735,2,0,P|274:178|156:204,1,170.000000000001,10|2,0:0|3:2,0:0:0:0:
66,158,122185,5,8,0:0:0:0:
141,60,122335,1,2,3:2:0:0:
158,64,122410,1,8,0:0:0:0:
176,67,122485,2,0,P|239:82|268:90,1,85.0000000000003,0|0,3:0|3:0,0:0:0:0:
328,250,122785,2,0,P|265:267|192:293,1,127.5,10|0,0:0|0:0,0:0:0:0:
150,344,123085,6,0,B|143:240|204:297|200:172,1,170.000000000001,2|10,3:2|0:0,0:0:0:0:
84,156,123535,1,0,3:0:0:0:
81,142,123610,1,8,0:0:0:0:
77,126,123685,2,0,P|86:66|119:41,1,85.0000000000003,2|0,3:2|3:0,0:0:0:0:
175,112,123985,1,2,0:0:0:0:
271,80,124135,2,0,P|212:91|167:102,1,85.0000000000003,10|0,0:0|0:0,0:0:0:0:
302,172,124435,5,2,3:2:0:0:
408,198,124585,2,0,P|353:173|310:156,1,85.0000000000003,10|0,0:0|3:0,0:0:0:0:
351,91,124810,1,8,0:0:0:0:
364,74,124885,2,0,P|416:62|461:47,1,85.0000000000003,0|0,3:0|3:0,0:0:0:0:
505,165,125185,1,10,0:0:0:0:
512,172,125485,6,0,B|519:261|462:217|468:313,1,142.5,2|0,3:2|0:0,0:0:0:0:
444,329,125785,2,0,P|444:273|467:241,1,94.9999999999998,10|0,0:0|3:0,0:0:0:0:
433,174,126010,1,8,0:0:0:0:
420,159,126085,2,0,P|420:103|397:71,2,94.9999999999998,2|0|2,3:2|3:0|0:0,0:0:0:0:
346,219,126535,2,0,P|282:229|234:241,1,94.9999999999998,10|0,0:0|0:0,0:0:0:0:
159,122,126835,5,2,3:2:0:0:
267,152,126985,1,10,0:0:0:0:
179,228,127135,1,0,3:0:0:0:
179,228,127210,1,8,0:0:0:0:
179,228,127285,2,0,P|169:277|161:324,1,94.9999999999998,0|0,3:0|3:0,0:0:0:0:
74,356,127585,2,0,P|57:282|32:194,1,142.5,10|0,0:0|0:0,0:0:0:0:
25,130,127885,6,0,P|29:80|152:43,1,190,2|10,3:2|0:0,0:0:0:0:
121,135,128335,1,0,3:0:0:0:
121,135,128410,1,8,0:0:0:0:
121,135,128485,2,0,P|171:170|204:207,1,94.9999999999998,2|0,3:2|3:0,0:0:0:0:
301,250,128785,2,0,P|301:203|292:157,1,94.9999999999998,2|8,0:0|0:0,0:0:0:0:
219,331,129085,6,0,P|309:344|413:360,1,190,2|10,0:0|0:0,0:0:0:0:
362,241,129535,1,0,3:0:0:0:
362,241,129610,1,8,0:0:0:0:
362,241,129685,2,0,P|304:254|263:264,1,94.9999999999998,2|0,3:2|3:0,0:0:0:0:
476,300,129985,1,10,0:0:0:0:
418,155,130285,6,0,B|356:136|356:136|293:160|293:160|229:139,1,190,6|8,3:2|0:0,0:0:0:0:
315,50,130735,1,2,3:2:0:0:
335,45,130810,1,8,0:0:0:0:
357,40,130885,2,0,P|413:58|454:72,1,94.9999999999998,0|0,3:2|3:0,0:0:0:0:
508,172,131185,1,2,0:0:0:0:
426,204,131335,1,8,0:0:0:0:
339,241,131485,6,0,B|245:235|285:334|150:325,1,190,2|10,0:0|0:0,0:0:0:0:
180,226,131935,1,2,3:2:0:0:
174,212,132010,1,8,0:0:0:0:
168,195,132085,2,0,P|211:150|253:144,1,94.9999999999998,0|0,3:0|3:0,0:0:0:0:
96,246,132385,1,10,0:0:0:0:
113,79,132535,1,2,0:0:0:0:
253,155,132685,6,0,L|277:204,3,47.4999999999999,10|8|8|8,3:2|0:0|0:0|0:0,0:0:0:0:
234,131,132985,5,8,3:2:0:0:
229,107,133060,1,8,0:0:0:0:
231,84,133135,1,8,0:0:0:0:
242,63,133210,1,8,0:0:0:0:
258,46,133285,1,8,3:2:0:0:
280,36,133360,1,8,0:0:0:0:
303,33,133435,1,8,0:0:0:0:
326,38,133510,1,8,0:0:0:0:
342,51,133585,2,0,P|337:77|322:94,1,47.4999999999999,8|8,3:2|0:0,0:0:0:0:
208,163,133735,2,0,P|193:144|189:121,1,47.4999999999999,8|8,0:0|0:0,0:0:0:0:
302,196,133885,5,2,0:0:0:0:
302,196,135085,6,0,B|281:210|232:218|232:218|205:281|205:281|165:290|112:310,1,209.999993591309,4|8,3:2|0:0,0:0:0:0:
174,163,135535,1,2,0:0:0:0:
296,286,135685,2,0,P|322:317|307:375,1,104.999996795654,2|0,3:2|3:0,0:0:0:0:
485,344,135985,2,0,P|401:292|429:198,1,209.999993591309,10|0,0:0|0:0,0:0:0:0:
499,261,136435,1,0,3:0:0:0:
499,261,136585,1,8,0:0:0:0:
429,198,136735,6,0,P|371:193|305:185,1,104.999996795654,2|0,0:0|3:0,0:0:0:0:
222,95,137035,1,2,3:2:0:0:
330,41,137185,1,10,0:0:0:0:
206,85,137335,1,2,0:0:0:0:
354,177,137485,5,2,3:2:0:0:
354,177,137785,1,10,0:0:0:0:
272,264,137935,2,0,P|229:243|169:263,1,104.999996795654,2|0,0:0|3:0,0:0:0:0:
7,287,138235,2,0,P|50:308|110:288,1,104.999996795654,2|8,3:2|0:0,0:0:0:0:
113,167,138535,2,0,B|101:298|171:226|169:390,1,209.999993591309,2|0,3:2|3:0,0:0:0:0:
25,139,138985,6,0,P|69:84|113:81,1,104.999996795654,10|0,0:0|0:0,0:0:0:0:
193,202,139285,2,0,P|149:257|105:260,1,104.999996795654,2|0,3:2|3:0,0:0:0:0:
89,0,139585,2,0,B|181:-7|138:68|256:38,1,157.499995193482,10|0,0:0|0:0,0:0:0:0:
252,28,139885,6,0,B|313:45|364:0|364:0|408:29|402:88,1,209.999993591309,6|10,3:2|0:0,0:0:0:0:
289,155,140335,1,0,0:0:0:0:
289,155,140485,2,0,P|228:141|176:132,1,104.999996795654,2|0,3:2|3:0,0:0:0:0:
88,174,140785,1,10,0:0:0:0:
163,250,140935,2,0,P|214:260|266:272,1,104.999996795654,2|0,3:2|0:0,0:0:0:0:
436,297,141235,2,0,B|300:292|375:376|235:369,1,209.999993591309,2|2,3:2|0:0,0:0:0:0:
156,346,141685,1,2,3:2:0:0:
156,346,141835,1,0,3:0:0:0:
269,291,141985,2,0,B|308:244|286:188|286:188|287:219|277:238,1,157.499995193482,10|0,0:0|0:0,0:0:0:0:
209,201,142285,5,2,3:2:0:0:
209,201,142585,2,0,B|316:179|280:308|394:285,1,209.999993591309,10|2,0:0|3:2,0:0:0:0:
469,260,143035,1,2,3:2:0:0:
383,195,143185,1,8,0:0:0:0:
477,147,143335,2,0,P|470:208|467:266,1,104.999996795654,2|0,3:2|0:0,0:0:0:0:
301,132,143635,5,2,3:2:0:0:
417,75,143785,1,8,0:0:0:0:
220,53,143935,1,2,0:0:0:0:
370,186,144085,1,0,3:0:0:0:
346,0,144235,1,2,3:2:0:0:
212,61,144385,6,0,P|223:113|243:217,1,157.499995193482,10|0,0:0|0:0,0:0:0:0:
250,234,144685,6,0,B|142:234|189:330|69:325,1,209.999993591309,6|8,3:2|0:0,0:0:0:0:
80,201,145135,1,2,0:0:0:0:
239,313,145285,2,0,P|275:312|301:371,1,104.999996795654,2|0,3:2|3:0,0:0:0:0:
380,172,145585,2,0,B|376:207|368:242|368:242|407:290|407:290|399:327|395:366,1,209.999993591309,10|0,0:0|0:0,0:0:0:0:
493,342,146035,1,0,3:0:0:0:
493,342,146185,1,8,0:0:0:0:
456,216,146335,6,0,P|465:159|475:103,1,104.999996795654,2|0,0:0|3:0,0:0:0:0:
327,26,146635,1,2,3:2:0:0:
393,94,146785,1,10,0:0:0:0:
418,2,146935,1,2,0:0:0:0:
289,118,147085,5,2,3:2:0:0:
289,118,147385,1,10,0:0:0:0:
214,184,147535,2,0,P|174:167|161:105,1,104.999996795654,2|0,0:0|3:0,0:0:0:0:
31,72,147835,2,0,P|77:49|87:0,1,104.999996795654,2|8,3:2|0:0,0:0:0:0:
25,163,148135,2,0,P|38:231|43:280,1,104.999996795654,2|0,3:2|0:0,0:0:0:0:
131,382,148435,2,0,P|137:329|147:278,1,104.999996795654,2|8,3:2|0:0,0:0:0:0:
132,173,148735,1,0,0:0:0:0:
234,334,148885,6,0,P|293:336|317:297,1,104.999996795654,2|0,3:2|3:0,0:0:0:0:
336,126,149185,2,0,P|324:175|359:210,1,104.999996795654,10|0,0:0|0:0,0:0:0:0:
470,239,149485,6,0,B|478:132|427:195|438:77|438:77|459:97|449:119,1,209.999993591309,6|8,3:2|0:0,0:0:0:0:
373,220,149935,1,2,0:0:0:0:
266,64,150085,6,0,B|251:22|291:-16|377:9|369:99|320:145,1,209.999993591309,2|8,3:2|0:0,0:0:0:0:
189,84,150535,1,2,3:2:0:0:
63,167,150685,6,0,P|124:178|174:191,1,104.999996795654,2|0,0:0|3:0,0:0:0:0:
335,284,150985,2,0,P|274:273|224:260,1,104.999996795654,10|0,0:0|0:0,0:0:0:0:
41,324,151285,2,0,P|91:287|130:253,1,104.999996795654,2|0,3:2|3:0,0:0:0:0:
333,118,151585,2,0,P|282:154|243:188,1,104.999996795654,10|0,0:0|0:0,0:0:0:0:
152,336,151885,6,0,B|268:313|230:409|358:382,1,209.999993591309,2|8,3:2|0:0,0:0:0:0:
461,354,152335,2,0,P|449:306|492:271,1,104.999996795654,2|2,0:0|3:2,0:0:0:0:
335,183,152635,2,0,P|372:216|360:265,1,104.999996795654,0|8,3:0|0:0,0:0:0:0:
426,115,152935,1,2,3:2:0:0:
256,195,153085,6,0,P|222:204|195:215,3,52.4999983978272,10|8|8|8,3:2|0:0|0:0|0:0,0:0:0:0:
175,113,153385,2,0,P|150:104|124:97,3,52.4999983978272,8|8|8|8,3:2|0:0|0:0|0:0,0:0:0:0:
44,219,153685,5,8,3:2:0:0:
38,196,153760,1,8,0:0:0:0:
32,174,153835,1,8,0:0:0:0:
26,153,153910,1,8,0:0:0:0:
22,131,153985,1,8,3:2:0:0:
17,109,154060,1,8,0:0:0:0:
12,88,154135,1,8,0:0:0:0:
7,65,154210,1,8,0:0:0:0:
0,41,154285,6,0,P|64:19|118:4,1,104.999996795654,14|0,0:0|0:0,0:0:0:0:
309,8,154585,2,0,P|258:22|208:39,1,104.999996795654,10|0,0:0|3:0,0:0:0:0:
92,199,154885,5,10,0:0:0:0:
92,199,155035,1,2,3:2:0:0:
216,267,155185,1,10,0:0:0:0:
216,267,155335,1,0,3:0:0:0:
205,130,155485,1,10,0:0:0:0:
205,130,155785,6,0,P|192:182|179:236,1,104.999996795654,10|0,0:0|3:0,0:0:0:0:
389,169,156085,2,0,P|350:131|310:93,1,104.999996795654,10|0,0:0|3:0,0:0:0:0:
263,308,156385,2,0,P|314:293|367:277,1,104.999996795654,10|0,0:0|3:0,0:0:0:0:
287,204,156685,5,2,3:2:0:0:
287,204,156835,1,2,3:2:0:0:
168,336,156985,6,0,P|110:359|59:384,1,104.999996795654,10|0,0:0|3:0,0:0:0:0:
98,167,157285,2,0,P|40:190|-11:215,1,104.999996795654,10|0,0:0|3:0,0:0:0:0:
87,267,157585,1,10,0:0:0:0:
87,267,157735,1,2,3:2:0:0:
202,82,157885,6,0,P|195:147|190:194,1,104.999996795654,10|0,0:0|3:0,0:0:0:0:
281,376,158185,2,0,P|286:323|292:271,1,104.999996795654,10|0,0:0|3:0,0:0:0:0:
318,111,158485,5,10,0:0:0:0:
359,208,158635,1,0,3:0:0:0:
475,71,158785,1,10,0:0:0:0:
447,245,158935,1,0,3:0:0:0:
318,111,159085,6,0,P|252:120|200:129,1,104.999996795654,6|2,3:2|0:0,0:0:0:0:
110,36,159385,1,8,0:0:0:0:
204,130,159535,5,2,3:2:0:0:
67,146,159685,2,0,P|92:84|110:34,1,104.999996795654,10|0,0:0|3:0,0:0:0:0:
34,221,159985,5,10,0:0:0:0:
130,324,160135,2,0,P|150:275|168:226,1,104.999996795654,2|8,3:2|0:0,0:0:0:0:
16,367,160435,5,2,3:2:0:0:
127,333,160585,1,10,0:0:0:0:
221,384,160735,1,2,3:2:0:0:
332,299,160885,6,0,P|319:238|307:190,1,104.999996795654,10|0,0:0|3:0,0:0:0:0:
487,258,161185,2,0,P|476:206|463:155,1,104.999996795654,10|2,0:0|3:2,0:0:0:0:
334,31,161485,5,2,3:2:0:0:
221,68,161635,1,2,3:2:0:0:
201,197,161785,5,10,0:0:0:0:
212,25,161935,1,2,3:2:0:0:
62,102,162085,6,0,P|75:158|88:217,1,104.999996795654,10|2,0:0|3:2,0:0:0:0:
210,362,162385,2,0,P|198:310|186:259,1,104.999996795654,10|2,0:0|3:2,0:0:0:0:
306,191,162685,5,10,0:0:0:0:
405,251,162835,1,2,3:2:0:0:
500,161,162985,5,10,0:0:0:0:
423,271,163135,1,2,3:2:0:0:
511,146,163285,5,10,0:0:0:0:
353,93,163435,1,2,3:2:0:0:
466,0,163585,5,10,0:0:0:0:
264,114,163735,1,2,3:2:0:0:
397,165,163885,5,2,0:0:0:0:
256,192,173185,5,0,0:0:0:0:
256,192,173485,6,0,B|339:190|318:262|404:252,1,165.000005035401,2|2,0:0|0:0,0:0:0:0:
512,303,174085,2,0,B|427:293|448:365|365:363,1,165.000005035401,0|2,0:0|0:0,0:0:0:0:
287,325,174685,2,0,P|263:296|163:347,1,165.000005035401,0|2,0:0|0:0,0:0:0:0:
79,370,175285,2,0,P|68:306|57:244,2,110.000003356934,2|2|2,0:0|0:0|0:0,0:0:0:0:
12,176,176185,5,2,0:0:0:0:
12,176,176335,2,0,P|64:173|139:169,1,110.000003356934,2|2,0:0|0:0,0:0:0:0:
203,169,176785,5,0,0:0:0:0:
268,248,177085,2,0,B|266:155|314:187|310:93,2,165.000005035401,0|2|2,0:0|0:0|0:0,0:0:0:0:
271,263,178285,1,2,0:0:0:0:
346,331,178585,5,2,0:0:0:0:
346,331,178735,2,0,P|404:334|434:276,1,110.000003356934,2|2,0:0|0:0,0:0:0:0:
444,220,179185,5,0,0:0:0:0:
497,142,179485,2,0,B|405:139|462:227|357:225,1,165.000005035401,0|2,0:0|0:0,0:0:0:0:
288,195,180085,2,0,P|281:158|277:135,1,55.0000016784668,2|0,0:0|0:0,0:0:0:0:
241,276,180385,2,0,P|245:303|250:330,1,55.0000016784668,2|0,0:0|0:0,0:0:0:0:
94,213,180685,6,0,B|39:207|13:304|97:330|148:289|177:216|177:216|219:86|352:63|318:202|274:130,1,495.000015106202,2|2,0:0|0:0,0:0:0:0:
221,48,182335,5,2,0:0:0:0:
221,48,182485,1,2,0:0:0:0:
123,85,182785,1,0,0:0:0:0:
0,0,183085,5,2,0:0:0:0:
63,55,183685,6,0,P|108:110|71:197,1,165.000005035401,0|2,0:0|0:0,0:0:0:0:
30,353,184285,2,0,P|55:286|148:275,1,165.000005035401,0|2,0:0|0:0,0:0:0:0:
304,232,184885,2,0,P|233:243|177:167,1,165.000005035401,2|0,0:0|0:0,0:0:0:0:
197,101,185485,2,0,P|248:75|345:29,1,165.000005035401,2|2,0:0|0:0,0:0:0:0:
444,4,186085,2,0,P|426:50|378:161,1,165.000005035401,0|2,0:0|0:0,0:0:0:0:
399,270,186685,2,0,B|382:300|425:315|452:266|410:205|299:199|288:290,1,220.000006713867,0|2,0:0|0:0,0:0:0:0:
291,292,187585,5,2,0:0:0:0:
189,366,187885,2,0,P|136:332|142:282,1,110.000003356934,2|2,0:0|0:0,0:0:0:0:
209,363,188335,6,0,P|255:303|112:144,1,330.000010070801,2|2,0:0|0:0,0:0:0:0:
46,203,189535,1,2,0:0:0:0:
46,203,189685,1,2,0:0:0:0:
0,122,189985,5,2,0:0:0:0:
148,69,190285,2,0,P|178:77|257:103,1,104.999996795654,2|2,0:0|0:0,0:0:0:0:
256,192,190885,12,0,192535,0:0:0:0:
256,192,192685,6,0,P|298:203|333:214,1,75.0000028610231,0|0,3:0|0:0,0:0:0:0:
233,285,192985,2,0,P|269:294|305:305,1,75.0000028610231,0|0,1:0|3:0,0:0:0:0:
311,311,193285,1,0,0:0:0:0:
137,344,193435,2,0,B|141:249|95:298|99:196,1,150.000005722046
99,194,194035,5,0,3:0:0:0:
99,194,194185,2,0,P|112:148|120:119,1,75.0000028610231,0|0,1:0|0:0,0:0:0:0:
41,30,194485,1,0,3:0:0:0:
41,30,194785,2,0,P|88:43|128:35,1,75.0000028610231,2|0,1:2|0:0,0:0:0:0:
259,3,195085,6,0,P|208:45|210:131,1,150.000005722046,0|0,3:0|1:0,0:0:0:0:
216,135,195535,1,0,3:0:0:0:
296,159,195685,2,0,P|297:112|281:81,2,75.0000028610231,0|0|2,0:0|0:0|1:2,0:0:0:0:
237,216,196135,1,0,0:0:0:0:
237,216,196435,5,0,3:0:0:0:
300,278,196585,2,0,P|339:268|378:258,1,75.0000028610231,0|0,1:0|0:0,0:0:0:0:
219,384,196885,2,0,P|258:374|297:364,1,75.0000028610231,0|0,3:0|0:0,0:0:0:0:
147,345,197185,1,2,1:2:0:0:
147,345,197335,1,0,0:0:0:0:
61,292,197485,6,0,P|45:253|44:217,1,75.0000028610231,0|0,3:0|0:0,0:0:0:0:
185,184,197785,2,0,P|159:217|128:236,1,75.0000028610231,0|0,1:0|3:0,0:0:0:0:
29,130,198085,1,0,0:0:0:0:
29,130,198235,2,0,P|70:135|102:152,1,75.0000028610231,0|2,0:0|1:2,0:0:0:0:
97,44,198535,1,0,0:0:0:0:
97,44,198835,5,0,3:0:0:0:
174,86,198985,2,0,P|218:81|261:77,1,75.0000028610231,0|0,1:0|0:0,0:0:0:0:
403,57,199285,2,0,P|365:60|328:64,1,75.0000028610231,0|0,3:0|0:0,0:0:0:0:
304,151,199585,1,2,1:2:0:0:
304,151,199735,1,0,0:0:0:0:
218,201,199885,6,0,P|224:243|241:359,1,150,2|0,0:0|0:0,0:0:0:0:
242,361,200935,1,0,0:0:0:0:
330,314,201085,6,0,P|359:320|388:328,1,55.0000016784668
348,233,201385,2,0,P|377:239|406:247,1,55.0000016784668
411,253,201610,1,0,0:0:0:0:
411,253,201685,1,0,0:0:0:0:
474,307,201835,1,0,0:0:0:0:
504,222,201985,2,0,P|496:188|493:176,3,27.5000008392334
499,168,202285,6,0,P|478:130|370:142,1,165.000005035401,2|2,0:0|0:0,0:0:0:0:
369,150,203185,2,0,P|354:232|345:314,1,165.000005035401,2|2,0:0|0:0,0:0:0:0:
344,330,204085,1,2,0:0:0:0:
439,374,204385,1,0,0:0:0:0:
245,288,204685,6,0,B|152:279|188:352|98:348,2,165.000005035401,2|2|2,0:0|0:0|0:0,0:0:0:0:
161,222,206035,2,0,P|171:180|122:130,1,110.000003356934,2|0,0:0|0:0,0:0:0:0:
53,112,206485,2,0,P|109:107|170:96,1,110.000003356934,2|0,0:0|0:0,0:0:0:0:
246,14,207085,6,0,B|277:6|277:6|364:61|364:61|404:51,2,165.000005035401,2|2|2,0:0|0:0|0:0,0:0:0:0:
171,48,208435,6,0,P|112:53|77:12,1,110.000003356934,2|0,0:0|0:0,0:0:0:0:
72,2,208885,1,2,0:0:0:0:
72,2,209185,1,0,0:0:0:0:
27,99,209485,6,0,P|37:144|52:212,1,110.000003356934,2|0,0:0|0:0,0:0:0:0:
53,217,209935,2,0,P|85:251|149:238,1,110.000003356934,2|0,0:0|0:0,0:0:0:0:
254,367,210385,2,0,P|262:321|275:253,1,110.000003356934,2|0,0:0|0:0,0:0:0:0:
276,248,210835,2,0,P|259:204|195:191,1,110.000003356934,2|0,0:0|0:0,0:0:0:0:
143,242,211285,5,2,0:0:0:0:
143,242,211585,1,0,0:0:0:0:
371,262,211885,5,4,3:2:0:0:
444,208,212185,1,0,3:0:0:0:
444,208,212335,1,0,1:0:0:0:
444,208,212485,1,0,3:0:0:0:
310,312,212785,5,0,3:0:0:0:
226,255,213085,1,0,3:0:0:0:
226,255,213235,1,0,1:0:0:0:
226,255,213385,1,0,3:0:0:0:
0,224,213685,5,0,3:0:0:0:
0,224,213835,1,0,1:0:0:0:
75,202,213985,1,0,3:0:0:0:
75,202,214135,1,0,1:0:0:0:
148,176,214285,5,0,3:0:0:0:
148,176,214585,1,0,3:0:0:0:
40,103,214885,5,0,3:0:0:0:
40,103,215035,1,0,1:0:0:0:
40,103,215185,1,0,3:0:0:0:
162,54,215485,5,0,3:0:0:0:
162,54,215635,1,0,1:0:0:0:
162,54,215785,1,0,3:0:0:0:
148,176,216085,5,0,3:0:0:0:
301,294,216385,5,0,3:0:0:0:
214,274,216535,1,0,1:0:0:0:
301,294,216685,1,0,3:0:0:0:
393,162,216985,5,0,3:0:0:0:
393,162,217135,1,0,1:0:0:0:
393,162,217285,1,0,3:0:0:0:
500,222,217585,5,0,3:0:0:0:
397,306,217885,1,0,3:0:0:0:
397,306,218035,1,0,1:0:0:0:
397,306,218185,1,0,3:0:0:0:
394,163,218485,5,0,3:0:0:0:
394,163,218635,1,0,1:0:0:0:
319,141,218785,1,0,3:0:0:0:
319,141,218935,1,0,1:0:0:0:
246,115,219085,5,0,3:0:0:0:
292,223,219385,5,0,3:0:0:0:
354,67,219685,1,0,3:0:0:0:
354,67,219835,1,0,1:0:0:0:
354,67,219985,1,0,3:0:0:0:
135,174,220285,6,0,P|139:199|144:235,3,47.4999987316132,14|8|8|8,3:2|0:0|0:0|0:0,0:0:0:0:
59,277,220585,2,0,P|62:300|66:323,3,47.4999987316132,10|8|8|8,3:2|0:0|0:0|0:0,0:0:0:0:
275,353,220885,5,10,3:2:0:0:
298,355,220960,1,8,0:0:0:0:
322,352,221035,1,8,0:0:0:0:
344,342,221110,1,8,0:0:0:0:
363,325,221185,1,10,3:2:0:0:
376,303,221260,1,8,0:0:0:0:
384,281,221335,1,8,0:0:0:0:
385,256,221410,1,8,0:0:0:0:
375,229,221485,6,0,B|263:208|302:332|185:303,1,209.999993591309,6|8,3:2|0:0,0:0:0:0:
143,218,221935,1,2,0:0:0:0:
261,129,222085,2,0,P|289:178|266:229,2,104.999996795654,2|0|0,3:2|3:0|0:0,0:0:0:0:
152,75,222535,1,10,0:0:0:0:
273,112,222685,2,0,P|336:122|387:129,1,104.999996795654,2|0,0:0|3:0,0:0:0:0:
332,16,222985,1,8,0:0:0:0:
186,159,223135,5,2,0:0:0:0:
63,133,223285,2,0,P|40:82|52:29,1,104.999996795654,2|0,3:2|0:0,0:0:0:0:
109,208,223585,2,0,P|116:259|94:305,1,104.999996795654,10|0,0:0|3:0,0:0:0:0:
5,244,223885,1,2,3:2:0:0:
5,244,224185,6,0,B|70:261|70:261|108:331|108:331|187:345,1,209.999993591309,10|2,0:0|3:2,0:0:0:0:
262,360,224635,1,0,3:0:0:0:
262,360,224785,1,2,0:0:0:0:
445,342,224935,2,0,P|395:346|333:352,1,104.999996795654,10|0,0:0|0:0,0:0:0:0:
325,244,225235,1,2,3:2:0:0:
434,229,225385,2,0,P|384:233|322:239,1,104.999996795654,8|0,0:0|3:0,0:0:0:0:
229,160,225685,6,0,P|203:114|208:51,1,104.999996795654,2|0,3:2|0:0,0:0:0:0:
39,31,225985,2,0,P|98:48|94:144,1,157.499995193482,10|0,0:0|0:0,0:0:0:0:
71,142,226285,6,0,P|43:186|58:235,1,104.999996795654,6|0,3:2|0:0,0:0:0:0:
12,319,226585,2,0,B|129:297|90:389|215:369,1,209.999993591309,10|2,0:0|3:2,0:0:0:0:
155,216,227035,1,0,3:0:0:0:
299,329,227185,1,14,0:0:0:0:
235,174,227335,2,0,B|239:212|252:246|252:246|210:306|210:306|224:353|226:403,1,209.999993591309,10|2,0:0|0:0,0:0:0:0:
299,329,227785,2,0,P|352:309|400:331,1,104.999996795654,10|0,0:0|3:0,0:0:0:0:
486,366,228085,5,2,3:2:0:0:
486,366,228385,2,0,P|472:313|458:257,1,104.999996795654,10|0,0:0|3:0,0:0:0:0:
493,148,228685,6,0,B|412:147|442:215|358:216,1,157.499995193482,2|0,3:2|0:0,0:0:0:0:
338,211,228985,2,0,P|302:164|312:116,1,104.999996795654,10|0,0:0|0:0,0:0:0:0:
368,38,229285,1,2,3:2:0:0:
294,109,229435,2,0,P|235:120|167:117,1,104.999996795654,2|0,3:2|0:0,0:0:0:0:
85,3,229735,2,0,P|115:54|103:100,1,104.999996795654,10|0,0:0|0:0,0:0:0:0:
19,175,230035,5,2,3:2:0:0:
152,205,230185,1,8,0:0:0:0:
24,325,230335,5,2,3:2:0:0:
226,220,230485,1,0,3:0:0:0:
226,220,230785,5,10,0:0:0:0:
316,361,230935,1,0,0:0:0:0:
408,205,231085,6,0,B|389:184|391:141|391:141|385:230|379:300,1,209.999993591309,6|8,3:2|0:0,0:0:0:0:
380,295,231535,1,2,0:0:0:0:
308,138,231685,2,0,P|266:120|211:140,1,104.999996795654,2|0,3:2|3:0,0:0:0:0:
263,242,231985,1,2,0:0:0:0:
151,300,232135,2,0,B|144:257|146:218|146:218|101:188|101:188|102:146|98:101,1,209.999993591309,8|0,0:0|3:0,0:0:0:0:
92,0,232585,1,8,0:0:0:0:
24,151,232735,6,0,P|1:206|36:248,1,104.999996795654,2|0,3:2|3:0,0:0:0:0:
181,375,233035,1,2,0:0:0:0:
149,259,233185,1,10,0:0:0:0:
73,345,233335,1,0,3:0:0:0:
247,303,233485,6,0,B|357:278|331:389|459:347,1,209.999993591309,2|8,3:2|0:0,0:0:0:0:
396,218,233935,1,2,0:0:0:0:
512,185,234085,2,0,P|496:258|484:313,1,104.999996795654,2|0,3:2|3:0,0:0:0:0:
488,296,234385,1,2,0:0:0:0:
396,218,234535,6,0,P|385:166|374:115,1,104.999996795654,10|0,0:0|0:0,0:0:0:0:
264,129,234835,1,2,3:2:0:0:
285,239,234985,2,0,P|274:188|263:137,1,104.999996795654,8|0,0:0|0:0,0:0:0:0:
154,41,235285,6,0,P|98:39|56:74,1,104.999996795654,2|0,3:2|0:0,0:0:0:0:
185,155,235585,2,0,P|142:184|91:181,1,104.999996795654,10|0,0:0|3:0,0:0:0:0:
123,111,235885,6,0,B|131:149|143:181|143:181|122:239|122:239|140:280|147:323,1,209.999993591309,6|8,3:2|0:0,0:0:0:0:
50,308,236335,1,2,0:0:0:0:
213,258,236485,2,0,B|310:248|289:349|407:337,1,209.999993591309,2|0,3:2|0:0,0:0:0:0:
476,285,236935,1,10,0:0:0:0:
477,145,237085,6,0,P|425:159|406:213,1,104.999996795654,2|0,0:0|3:0,0:0:0:0:
232,34,237385,2,0,P|270:72|326:61,1,104.999996795654,10|0,0:0|0:0,0:0:0:0:
258,301,237685,2,0,P|271:248|234:205,1,104.999996795654,2|0,3:2|0:0,0:0:0:0:
316,160,237985,2,0,B|226:158|279:237|150:231,1,157.499995193482,10|0,0:0|0:0,0:0:0:0:
125,290,238285,6,0,B|120:234|120:234|142:197|142:197|138:132|138:132|140:161|136:178,1,209.999993591309,2|8,3:2|0:0,0:0:0:0:
41,28,238735,2,0,P|5:64|14:114,1,104.999996795654,2|0,0:0|3:0,0:0:0:0:
26,227,239035,1,0,3:0:0:0:
26,227,239185,2,0,P|37:284|47:334,1,104.999996795654,2|8,0:0|0:0,0:0:0:0:
189,372,239485,6,0,P|198:341|204:321,3,52.4999983978272,10|8|8|8,3:2|0:0|0:0|0:0,0:0:0:0:
330,351,239785,2,0,P|339:320|345:300,3,52.4999983978272,8|8|8|8,3:2|0:0|0:0|0:0,0:0:0:0:
439,151,240085,5,8,3:2:0:0:
412,152,240160,1,8,0:0:0:0:
387,158,240235,1,8,0:0:0:0:
364,170,240310,1,8,0:0:0:0:
343,186,240385,1,8,3:2:0:0:
323,203,240460,1,8,0:0:0:0:
300,217,240535,1,8,0:0:0:0:
276,225,240610,1,8,0:0:0:0:
247,229,240685,6,0,B|232:176|232:176|192:152|192:152|178:90,1,150,6|0,3:2|0:0,0:0:0:0:
174,86,240985,2,0,P|199:43|248:43,1,100,10|0,0:0|3:0,0:0:0:0:
65,86,241285,1,10,0:0:0:0:
65,86,241435,2,0,P|73:135|78:184,1,100,2|0,3:2|0:0,0:0:0:0:
53,329,241735,6,0,B|21:322|21:322|83:308|83:308|126:330|126:330|187:317,1,200,10|2,0:0|3:2,0:0:0:0:
324,363,242185,2,0,P|380:348|424:335,1,100,10|0,0:0|0:0,0:0:0:0:
272,173,242485,2,0,P|256:229|245:274,1,100,2|0,3:2|3:0,0:0:0:0:
463,223,242785,1,10,0:0:0:0:
392,152,242935,1,2,0:0:0:0:
351,252,243085,6,0,B|276:256|293:186|216:194,1,150,10|0,0:0|0:0,0:0:0:0:
190,182,243385,2,0,P|132:164|92:188,1,100,10|0,0:0|0:0,0:0:0:0:
185,283,243685,1,2,3:2:0:0:
185,283,243835,2,0,P|139:300|94:281,1,100,10|0,0:0|0:0,0:0:0:0:
5,210,244135,2,0,B|15:179|11:139|11:139|43:103|43:103|41:62|55:20,1,200,10|2,0:0|3:2,0:0:0:0:
138,74,244585,1,10,0:0:0:0:
218,25,244735,5,8,0:0:0:0:
218,25,244810,1,8,0:0:0:0:
218,25,244885,2,0,P|288:37|330:48,1,100,2|0,3:2|3:0,0:0:0:0:
418,126,245185,1,10,0:0:0:0:
508,90,245335,1,2,3:2:0:0:
344,157,245485,6,0,P|351:214|355:264,1,100,2|0,0:0|3:0,0:0:0:0:
345,384,245785,1,10,0:0:0:0:
490,303,245935,1,8,0:0:0:0:
490,303,246010,1,8,0:0:0:0:
490,303,246085,2,0,P|424:300|403:341,1,100,2|2,0:0|3:2,0:0:0:0:
275,260,246385,5,8,0:0:0:0:
275,260,246535,2,0,B|239:270|203:273|203:273|179:325|179:325|149:327|106:338,1,200,2|2,3:2|3:2,0:0:0:0:
22,382,246985,2,0,P|9:329|27:283,1,100,10|0,0:0|0:0,0:0:0:0:
29,119,247285,1,2,3:2:0:0:
55,205,247435,1,2,3:2:0:0:
141,179,247585,1,8,0:0:0:0:
115,93,247735,1,2,0:0:0:0:
49,24,247885,6,0,B|124:19|103:79|200:67,1,150,4|0,3:2|0:0,0:0:0:0:
198,66,248185,1,10,0:0:0:0:
277,23,248335,1,8,0:0:0:0:
277,23,248410,1,8,0:0:0:0:
277,23,248485,2,0,P|327:6|379:24,2,100,2|2|0,3:2|3:2|0:0,0:0:0:0:
333,117,248935,1,10,0:0:0:0:
441,162,249085,6,0,P|428:96|443:54,1,100,2|0,0:0|3:0,0:0:0:0:
275,225,249385,2,0,P|341:212|383:227,1,100,10|0,0:0|0:0,0:0:0:0:
331,328,249685,1,2,3:2:0:0:
331,328,249835,1,0,3:0:0:0:
211,169,249985,2,0,B|135:169|154:218|65:220,1,150,10|0,0:0|0:0,0:0:0:0:
50,216,250285,6,0,B|39:169|39:169|42:140|42:140|31:91|31:91|28:114|22:133,1,150,6|0,3:2|0:0,0:0:0:0:
30,132,250585,2,0,P|96:128|121:81,1,100,10|0,0:0|3:0,0:0:0:0:
86,11,250885,1,10,0:0:0:0:
0,27,251035,2,0,P|36:-4|85:0,1,100,2|0,3:2|0:0,0:0:0:0:
184,50,251335,6,0,B|221:53|253:52|253:52|303:100|303:100|332:96|381:103,1,200,10|2,0:0|3:2,0:0:0:0:
451,111,251785,2,0,P|476:53|441:26,1,100,10|0,0:0|0:0,0:0:0:0:
349,220,252085,2,0,P|365:277|377:329,1,100,2|0,3:2|3:0,0:0:0:0:
450,191,252385,1,10,0:0:0:0:
475,287,252535,1,2,0:0:0:0:
294,361,252685,6,0,B|276:270|235:327|216:220,1,150,10|0,0:0|0:0,0:0:0:0:
210,208,252985,2,0,P|224:159|283:139,1,100,10|0,0:0|0:0,0:0:0:0:
135,278,253285,1,2,3:2:0:0:
135,278,253435,2,0,P|90:297|45:279,1,100,10|0,0:0|0:0,0:0:0:0:
92,203,253735,6,0,B|102:166|102:132|102:132|140:92|140:92|142:53|150:17,1,200,10|2,0:0|3:2,0:0:0:0:
45,39,254185,1,10,0:0:0:0:
229,66,254335,1,8,0:0:0:0:
229,66,254410,1,8,0:0:0:0:
229,66,254485,2,0,P|289:73|332:82,1,100,2|0,3:2|3:0,0:0:0:0:
435,146,254785,1,10,0:0:0:0:
450,42,254935,1,2,3:2:0:0:
321,169,255085,6,0,P|334:229|344:280,1,100,2|0,0:0|3:0,0:0:0:0:
447,309,255385,1,10,0:0:0:0:
285,364,255535,1,8,0:0:0:0:
285,364,255610,1,8,0:0:0:0:
285,364,255685,2,0,P|275:314|264:266,1,100,2|2,0:0|3:2,0:0:0:0:
161,344,255985,1,8,0:0:0:0:
77,218,256135,6,0,B|174:199|157:289|277:263,1,200,2|2,3:2|3:2,0:0:0:0:
340,228,256585,2,0,P|354:182|333:134,1,100,10|0,0:0|0:0,0:0:0:0:
228,36,256885,1,2,3:2:0:0:
133,57,257035,1,2,3:2:0:0:
152,147,257185,1,8,0:0:0:0:
247,126,257335,1,2,0:0:0:0:
56,115,257485,6,0,B|45:87|45:87|25:141|80:153|56:212,1,150,4|0,3:2|0:0,0:0:0:0:
45,219,257785,1,10,0:0:0:0:
99,312,257935,1,8,0:0:0:0:
99,312,258010,1,8,0:0:0:0:
99,312,258085,2,0,P|142:288|208:297,2,100,2|2|0,3:2|3:2|0:0,0:0:0:0:
5,360,258535,1,10,0:0:0:0:
160,373,258685,6,0,P|221:379|271:385,1,100,2|0,0:0|3:0,0:0:0:0:
455,354,258985,2,0,P|405:348|355:343,1,100,10|0,0:0|0:0,0:0:0:0:
294,249,259285,5,10,0:0:0:0:
294,249,259360,1,8,0:0:0:0:
294,249,259435,2,0,P|285:203|282:191,1,50,8|8,0:0|0:0,0:0:0:0:
431,132,259585,1,8,0:0:0:0:
431,132,259660,1,8,0:0:0:0:
431,132,259735,2,0,P|422:178|419:190,1,50,8|8,0:0|0:0,0:0:0:0:
227,94,259885,5,0,0:0:0:0:
256,192,259960,12,0,274285,0:0:0:0:
