osu file format v14

[General]
AudioFilename: audio.ogg
AudioLeadIn: 0
PreviewTime: 47634
Countdown: 0
SampleSet: Normal
StackLeniency: 0.7
Mode: 1
LetterboxInBreaks: 0
WidescreenStoryboard: 1

[Editor]
Bookmarks: 12320,24628,36936,49243,61551,73859,86166,98474
DistanceSpacing: 1.2
BeatDivisor: 4
GridSize: 32
TimelineZoom: 2.4

[Metadata]
Title:Pekorap3D Remix
TitleUnicode:ぺこらっぷ3D Remix
Artist:K2HAmu
ArtistUnicode:K2HAmu
Creator:D3kuu
Version:Oni
Source:
Tags:cdhsausageboy cdh 兎田ぺこら usada pekora vtuber virtual youtuber バーチャル ユーチューバー hololive ホロライブ japanese electronic
BeatmapID:2712391
BeatmapSetID:1307689

[Difficulty]
HPDrainRate:5.5
CircleSize:5
OverallDifficulty:5
ApproachRate:5
SliderMultiplier:1.4
SliderTickRate:1

[Events]
//Background and Video events
0,0,"pekora2.png",0,0
//Break Periods
//Storyboard Layer 0 (Background)
//Storyboard Layer 1 (Fail)
//Storyboard Layer 2 (Pass)
//Storyboard Layer 3 (Foreground)
//Storyboard Layer 4 (Overlay)
//Storyboard Sound Samples

[TimingPoints]
134,384.615384615385,4,1,0,70,1,0
134,-125,4,1,0,70,0,0
11672,-121.951219512195,4,1,0,70,0,0
11864,-119.047619047619,4,1,0,70,0,0
12057,-116.279069767442,4,1,0,70,0,0
12153,-114.942528735632,4,1,0,70,0,0
12249,-113.636363636364,4,1,0,70,0,0
12345,-112.359550561798,4,1,0,70,0,0
12441,-111.111111111111,4,1,0,80,0,0
18595,-111.111111111111,4,1,0,80,0,0
18787,-110.237539850871,4,1,0,80,0,0
18980,-109.377597717946,4,1,0,80,0,0
19172,-108.530850436891,4,1,0,80,0,0
19268,-108.112432605412,4,1,0,80,0,0
19364,-107.697228627216,4,1,0,80,0,0
19460,-107.285201615715,4,1,0,80,0,0
19557,-106.876315246655,4,1,0,80,0,0
19749,-106.067821886671,4,1,0,80,0,0
19941,-105.271357979464,4,1,0,80,0,0
20037,-104.877649733821,4,1,0,80,0,0
20134,-104.486875403581,4,1,0,80,0,0
20326,-103.713998278348,4,1,0,80,0,0
20518,-102.952470962256,4,1,0,80,0,0
20710,-102.201940814856,4,1,0,80,0,0
20807,-101.830816245274,4,1,0,80,0,0
20903,-101.462377243206,4,1,0,80,0,0
20999,-101.096594763399,4,1,0,80,0,0
21095,-100.733440177936,4,1,0,80,0,0
21287,-100.014902220431,4,1,0,80,0,0
21480,-99.3064437965251,4,1,0,80,0,0
21576,-98.956014051754,4,1,0,80,0,0
21672,-98.6080487833739,4,1,0,80,0,0
21864,-97.9194084101022,4,1,0,80,0,0
21960,-97.9194084101022,4,1,0,80,0,0
22057,-97.2403197261713,4,1,0,80,0,0
22249,-96.5704921135708,4,1,0,80,0,0
22345,-96.2390732562202,4,1,0,80,0,0
22441,-95.9099214018194,4,1,0,80,0,0
22634,-95.2583262921554,4,1,0,80,0,0
22730,-94.9358376141485,4,1,0,80,0,0
22826,-94.6155250830488,4,1,0,80,0,0
23018,-93.9812526197274,4,1,0,80,0,0
23114,-93.6673385737087,4,1,0,80,0,0
23210,-93.3555146036031,4,1,0,80,0,0
23307,-93.0457599047211,4,1,0,80,0,0
23371,-92.8404249491931,4,1,0,80,0,0
23435,-92.6359084571953,4,1,0,80,0,0
23499,-92.4323764733721,4,1,0,80,0,0
23563,-92.2296518330643,4,1,0,80,0,0
23627,-92.0278991779148,4,1,0,80,0,0
23691,-91.8270272652809,4,1,0,80,0,0
23755,-91.6269463854086,4,1,0,80,0,0
23819,-91.4278191082313,4,1,0,80,0,0
23884,-91.2294722283802,4,1,0,80,0,0
23980,-90.9336429926989,4,1,0,80,0,0
24749,-100.029708823521,4,1,0,80,0,0
43210,-100,4,1,0,80,0,0
43307,-99.5858225639565,4,1,0,80,0,0
43403,-99.1749634788197,4,1,0,80,0,0
43499,-98.767578159723,4,1,0,80,0,0
43595,-98.3634292639071,4,1,0,80,0,0
43691,-97.9626703448384,4,1,0,80,0,0
43787,-97.565068583365,4,1,0,80,0,0
43884,-97.1707756948682,4,1,0,80,0,0
43980,-96.779563253187,4,1,0,80,0,0
44076,-96.3915811593015,4,1,0,80,0,0
44172,-96.0066974272125,4,1,0,80,0,0
44268,-95.624783648927,4,1,0,80,0,0
44364,-95.2459870484507,4,1,0,80,0,0
44460,-94.8700896427477,4,1,0,80,0,0
44557,-94.497236900793,4,1,0,80,0,0
44653,-94.1272148133646,4,1,0,80,0,0
44749,-93.7601671181219,4,1,0,80,0,0
44845,-93.3958836698231,4,1,0,80,0,0
44941,-93.0345064984603,4,1,0,80,0,0
45037,-92.6759151051547,4,1,0,80,0,0
45134,-92.3199921712647,4,1,0,80,0,0
45230,-91.9668772095042,4,1,0,80,0,0
45326,-91.616369279932,4,1,0,80,0,0
45422,-91.2686062462409,4,1,0,80,0,0
45518,-90.9233906787158,4,1,0,80,0,0
45614,-90.5808588152386,4,1,0,80,0,0
45710,-90.2408166432943,4,1,0,80,0,0
45807,-89.9033987979916,4,1,0,80,0,0
45903,-89.5684948193583,4,1,0,80,0,0
45999,-89.2359970873371,4,1,0,80,0,0
46095,-88.9060378757502,4,1,0,80,0,0
46191,-88.5784313291282,4,1,0,80,0,0
46287,-88.2533081752569,4,1,0,80,0,0
46351,-88.0378562781996,4,1,0,80,0,0
46416,-87.8234537802727,4,1,0,80,0,0
46480,-87.6100930331578,4,1,0,80,0,0
46576,-87.2919505473642,4,1,0,80,0,0
46672,-86.976185920295,4,1,0,80,0,0
46736,-86.7669171627565,4,1,0,80,0,0
46800,-86.5586530088653,4,1,0,80,0,0
46864,-86.351386241979,4,1,0,80,0,0
46960,-86.0423775918115,4,1,0,80,0,0
47057,-85.7354991263553,4,1,0,80,0,0
47121,-85.5321511079407,4,1,0,80,0,0
47185,-85.3297654114089,4,1,0,80,0,0
47249,-85.1283352217636,4,1,0,80,0,0
47345,-84.8280027416411,4,1,0,80,0,0
47441,-84.5297105026475,4,1,0,80,0,0
47505,-84.3320354633075,4,1,0,80,0,0
47569,-84.1352828039261,4,1,0,80,0,0
47634,-83.9395165419605,4,1,0,80,0,0
47730,-83.6474294308462,4,1,0,80,0,0
47826,-83.3574375256845,4,1,0,80,0,0
48210,-76.9436149495288,4,1,0,80,0,0
48595,-71.4462798993751,4,1,0,80,0,0
49172,-100.03471204508,4,1,0,80,0,0
67826,-100,4,1,0,80,0,0
67922,-99.611415866704,4,1,0,80,0,0
68018,-99.2258399963485,4,1,0,80,0,0
68114,-98.843139890719,4,1,0,80,0,0
68210,-98.4634774346326,4,1,0,80,0,0
68307,-98.0867204312677,4,1,0,80,0,0
68403,-97.7128356558046,4,1,0,80,0,0
68499,-97.3417903880822,4,1,0,80,0,0
68595,-96.9735524030531,4,1,0,80,0,0
68691,-96.6079966303131,4,1,0,80,0,0
68787,-96.2452791690568,4,1,0,80,0,0
68884,-95.8852751859455,4,1,0,80,0,0
68980,-95.5279543452801,4,1,0,80,0,0
69076,-95.1732867618717,4,1,0,80,0,0
69172,-94.8212429927101,4,1,0,80,0,0
69236,-94.5879606551919,4,1,0,80,0,0
69364,-94.1248226923653,4,1,0,80,0,0
69460,-93.7804786555631,4,1,0,80,0,0
69557,-93.438644915396,4,1,0,80,0,0
69653,-93.099294121152,4,1,0,80,0,0
69749,-92.7623993180109,4,1,0,80,0,0
69845,-92.4278485107563,4,1,0,80,0,0
69941,-92.0957869861285,4,1,0,80,0,0
70005,-91.8757068687197,4,1,0,80,0,0
70069,-91.6567600985127,4,1,0,80,0,0
70134,-91.4387707703168,4,1,0,80,0,0
70230,-91.1137655588144,4,1,0,80,0,0
70326,-90.7910625278048,4,1,0,80,0,0
70422,-90.4705554530223,4,1,0,80,0,0
70518,-90.1523845756482,4,1,0,80,0,0
70614,-89.8364437704715,4,1,0,80,0,0
70710,-89.5227096733764,4,1,0,80,0,0
70775,-89.3147415767267,4,1,0,80,0,0
70839,-89.1077374921697,4,1,0,80,0,0
70903,-88.9017697675308,4,1,0,80,0,0
70999,-88.5944403444906,4,1,0,80,0,0
71095,-88.2893063992089,4,1,0,80,0,0
71159,-88.0870229316947,4,1,0,80,0,0
71223,-87.8857415051839,4,1,0,80,0,0
71287,-87.6853009622585,4,1,0,80,0,0
71384,-87.3863867738956,4,1,0,80,0,0
71480,-87.0895036246651,4,1,0,80,0,0
71544,-86.8926745130752,4,1,0,80,0,0
71608,-86.6967330937036,4,1,0,80,0,0
71672,-86.5016733748714,4,1,0,80,0,0
71768,-86.2107611720525,4,1,0,80,0,0
71864,-85.9217991337364,4,1,0,80,0,0
71928,-85.73020703845,4,1,0,80,0,0
71992,-85.5394674825991,4,1,0,80,0,0
72057,-85.3496476339797,4,1,0,80,0,0
72153,-85.0663474977308,4,1,0,80,0,0
72249,-84.784993734389,4,1,0,80,0,0
72313,-84.5984323910478,4,1,0,80,0,0
72377,-84.4127615212868,4,1,0,80,0,0
72441,-84.2278329189324,4,1,0,80,0,0
72634,-83.3333333333333,4,1,0,80,0,0
72826,-84.8485157024906,4,1,0,80,0,0
73018,-86.4197424173157,4,1,0,80,0,0
73082,-86.9565217391304,4,1,0,80,0,0
73146,-87.5000109375014,4,1,0,80,0,0
73210,-88.0503366164369,4,1,0,80,0,0
73403,-89.7435667324188,4,1,0,80,0,0
73595,-91.5032799350693,4,1,0,80,0,0
73787,-93.3332960000149,4,1,0,80,0,0
73980,-86.9565217391304,4,1,0,90,0,1
84749,-86.9565217391304,4,1,0,100,0,0
84941,-87.9120879120879,4,1,0,100,0,0
85134,-88.8888888888889,4,1,0,100,0,0
85326,-89.8876404494382,4,1,0,100,0,0
85422,-90.3954802259887,4,1,0,100,0,0
85518,-90.9090909090909,4,1,0,100,0,0
85710,-91.9540229885058,4,1,0,100,0,0
85903,-93.0232558139535,4,1,0,100,0,0
86095,-94.1176470588235,4,1,0,100,0,0
86287,-86.9565217391304,4,1,0,100,0,1
92441,-86.9565217391304,4,1,0,100,0,1
92537,-86.6431748138688,4,1,0,100,0,1
92634,-86.3320035327056,4,1,0,100,0,1
92730,-86.0231333410181,4,1,0,100,0,1
92826,-85.7163918884864,4,1,0,100,0,1
92922,-85.4119031736501,4,1,0,100,0,1
93018,-85.1094976241684,4,1,0,100,0,1
93114,-84.8092978129378,4,1,0,100,0,1
93210,-84.5111368776177,4,1,0,100,0,1
93307,-84.2151359863908,4,1,0,100,0,1
93403,-83.9212013487816,4,1,0,100,0,1
93499,-83.6292414660541,4,1,0,100,0,1
93595,-83.3393754380526,4,1,0,100,0,1
93691,-83.0514428942431,4,1,0,100,0,1
93787,-82.7655615808884,4,1,0,100,0,1
93884,-82.4815736164541,4,1,0,100,0,1
93980,-82.1995954135914,4,1,0,100,0,1
94076,-81.9194715211053,4,1,0,100,0,1
94172,-81.6413170377265,4,1,0,100,0,1
94268,-81.3650450884397,4,1,0,100,0,1
94364,-81.0905708695099,4,1,0,100,0,1
94460,-80.8180075451692,4,1,0,100,0,1
94557,-80.5472054952525,4,1,0,100,0,1
94653,-80.2782766180689,4,1,0,100,0,1
94749,-80.0110735325769,4,1,0,100,0,1
94845,-79.7457068898696,4,1,0,100,0,1
94941,-79.4820314971394,4,1,0,100,0,1
95037,-79.2201567766903,4,1,0,100,0,1
95134,-78.9600020213761,4,1,0,100,0,1
95230,-78.7014884025487,4,1,0,100,0,1
95326,-78.4447235333386,4,1,0,100,0,1
95422,-78.1895674787696,4,1,0,100,0,1
95518,-77.936126668028,4,1,0,100,0,1
95582,-77.7680567706814,4,1,0,100,0,1
95646,-77.6007102016998,4,1,0,100,0,1
95710,-77.4340823015887,4,1,0,100,0,1
95807,-77.1854480731039,4,1,0,100,0,1
95903,-76.9384646160001,4,1,0,100,0,1
95967,-76.7746655887504,4,1,0,100,0,1
96031,-76.6115625234623,4,1,0,100,0,1
96095,-76.4491509939536,4,1,0,100,0,1
96191,-76.2068497764853,4,1,0,100,0,1
96287,-75.9660219177166,4,1,0,100,0,1
96351,-75.8063330126726,4,1,0,100,0,1
96416,-75.6473140664667,4,1,0,100,0,1
96480,-75.4889608718069,4,1,0,100,0,1
96576,-75.2526985617704,4,1,0,100,0,1
96672,-75.0178542493113,4,1,0,100,0,1
96736,-74.8621226855439,4,1,0,100,0,1
96800,-74.7070363569263,4,1,0,100,0,1
96864,-74.5526468426208,4,1,0,100,0,1
96960,-74.3221448776435,4,1,0,100,0,1
97201,-74.0931187497823,4,1,0,60,0,1
98595,-125,4,1,0,80,0,0

[HitObjects]
440,157,134,5,8,0:0:0:0:
209,36,518,1,0,0:0:0:0:
492,163,903,1,8,0:0:0:0:
486,154,1287,1,0,0:0:0:0:
472,160,1480,1,8,0:0:0:0:
502,148,1864,1,0,0:0:0:0:
487,154,2249,1,8,0:0:0:0:
494,155,2441,1,0,0:0:0:0:
490,142,2634,1,8,0:0:0:0:
465,155,2826,1,8,0:0:0:0:
480,161,3210,1,0,0:0:0:0:
232,53,3595,1,8,0:0:0:0:
486,162,3980,1,0,0:0:0:0:
289,49,4364,1,8,0:0:0:0:
453,169,4557,1,0,0:0:0:0:
284,144,4941,1,8,0:0:0:0:
346,127,5134,1,0,0:0:0:0:
324,78,5518,1,0,0:0:0:0:
461,153,5710,1,0,0:0:0:0:
461,153,5903,1,8,0:0:0:0:
440,157,6287,5,8,0:0:0:0:
209,36,6672,1,0,0:0:0:0:
492,163,7057,1,8,0:0:0:0:
487,154,7441,1,0,0:0:0:0:
472,160,7634,1,8,0:0:0:0:
502,148,8018,1,0,0:0:0:0:
487,154,8403,1,8,0:0:0:0:
494,155,8595,1,0,0:0:0:0:
490,142,8787,1,8,0:0:0:0:
465,155,8980,1,8,0:0:0:0:
480,161,9364,1,0,0:0:0:0:
232,53,9749,1,8,0:0:0:0:
205,113,10134,1,0,0:0:0:0:
473,142,10518,1,0,0:0:0:0:
453,169,10710,1,8,0:0:0:0:
396,141,10903,1,0,0:0:0:0:
346,127,11287,1,8,0:0:0:0:
219,36,11672,1,0,0:0:0:0:
460,152,12057,1,8,0:0:0:0:
401,150,12249,1,8,0:0:0:0:
209,36,12441,1,4,0:0:0:0:
242,156,12634,1,0,0:0:0:0:
401,150,12826,1,8,0:0:0:0:
145,60,13018,5,0,0:0:0:0:
458,168,13403,1,0,0:0:0:0:
469,161,13595,1,8,0:0:0:0:
311,124,13787,1,8,0:0:0:0:
100,47,13884,1,8,0:0:0:0:
393,136,13980,1,0,0:0:0:0:
457,154,14172,1,0,0:0:0:0:
460,146,14364,1,8,0:0:0:0:
305,155,14557,1,0,0:0:0:0:
473,159,14941,1,0,0:0:0:0:
423,150,15134,1,8,0:0:0:0:
239,78,15326,1,0,0:0:0:0:
433,178,15710,1,8,0:0:0:0:
372,150,15903,1,8,0:0:0:0:
479,156,16095,1,0,0:0:0:0:
446,149,16480,1,0,0:0:0:0:
433,146,16672,1,8,0:0:0:0:
394,157,16864,1,8,0:0:0:0:
258,89,16960,1,8,0:0:0:0:
469,148,17057,1,0,0:0:0:0:
469,148,17249,1,0,0:0:0:0:
429,133,17441,1,8,0:0:0:0:
450,137,17634,1,0,0:0:0:0:
445,142,18018,1,0,0:0:0:0:
422,142,18210,1,8,0:0:0:0:
334,244,18403,1,8,0:0:0:0:
417,170,18595,1,0,0:0:0:0:
242,156,18787,1,0,0:0:0:0:
401,150,18980,1,8,0:0:0:0:
458,180,19172,1,0,0:0:0:0:
458,168,19557,1,0,0:0:0:0:
469,161,19749,1,8,0:0:0:0:
381,130,19941,1,8,0:0:0:0:
381,130,20037,1,8,0:0:0:0:
393,136,20134,1,0,0:0:0:0:
457,154,20326,1,0,0:0:0:0:
460,146,20518,1,8,0:0:0:0:
305,155,20710,1,0,0:0:0:0:
473,159,21095,1,0,0:0:0:0:
423,150,21287,1,8,0:0:0:0:
438,161,21480,1,8,0:0:0:0:
471,159,21672,1,0,0:0:0:0:
433,178,21864,1,0,0:0:0:0:
323,167,21960,1,0,0:0:0:0:
372,150,22057,1,8,0:0:0:0:
479,156,22249,1,0,0:0:0:0:
229,108,22345,1,8,0:0:0:0:
471,159,22441,1,0,0:0:0:0:
474,133,22634,1,8,0:0:0:0:
436,139,22730,1,0,0:0:0:0:
433,146,22826,1,8,0:0:0:0:
394,157,23018,1,8,0:0:0:0:
469,148,23210,1,0,0:0:0:0:
487,158,23307,1,8,0:0:0:0:
478,156,23403,1,0,0:0:0:0:
503,157,23499,1,8,0:0:0:0:
500,158,23595,1,0,0:0:0:0:
465,156,23691,1,8,0:0:0:0:
472,165,23787,1,0,0:0:0:0:
450,137,23884,1,8,0:0:0:0:
248,192,23980,1,0,0:0:0:0:
417,170,24749,1,4,0:0:0:0:
455,156,24941,1,8,0:0:0:0:
473,160,25134,1,0,0:0:0:0:
465,144,25230,1,8,0:0:0:0:
479,149,25326,1,0,0:0:0:0:
419,155,25518,1,8,0:0:0:0:
404,146,25710,1,0,0:0:0:0:
475,154,25903,1,8,0:0:0:0:
462,125,26287,1,0,0:0:0:0:
433,142,26672,1,8,0:0:0:0:
470,160,26864,1,0,0:0:0:0:
467,160,27057,1,8,0:0:0:0:
480,158,27249,1,0,0:0:0:0:
459,159,27345,1,8,0:0:0:0:
433,154,27441,1,0,0:0:0:0:
433,154,27634,1,0,0:0:0:0:
465,132,27826,1,8,0:0:0:0:
465,132,28018,1,8,0:0:0:0:
465,132,28114,1,8,0:0:0:0:
380,129,28210,1,0,0:0:0:0:
471,141,28403,1,8,0:0:0:0:
467,146,28595,1,0,0:0:0:0:
440,135,28787,1,0,0:0:0:0:
450,131,28980,1,8,0:0:0:0:
463,147,29364,1,8,0:0:0:0:
496,157,29460,1,0,0:0:0:0:
485,156,29557,1,8,0:0:0:0:
396,139,29749,1,0,0:0:0:0:
422,142,29941,1,0,0:0:0:0:
478,148,30134,1,8,0:0:0:0:
481,150,30230,1,0,0:0:0:0:
481,150,30326,1,0,0:0:0:0:
450,150,30518,1,8,0:0:0:0:
437,140,30903,1,0,0:0:0:0:
495,152,31095,1,8,0:0:0:0:
473,158,31287,1,8,0:0:0:0:
306,111,31384,1,8,0:0:0:0:
445,152,31480,1,0,0:0:0:0:
494,160,31672,1,8,0:0:0:0:
489,154,31864,1,0,0:0:0:0:
465,140,32057,1,0,0:0:0:0:
473,145,32441,1,0,0:0:0:0:
489,149,32634,1,8,0:0:0:0:
489,144,32826,1,0,0:0:0:0:
488,165,33018,1,8,0:0:0:0:
488,165,33210,1,8,0:0:0:0:
223,26,33307,1,0,0:0:0:0:
427,155,33403,1,8,0:0:0:0:
295,165,33499,1,0,0:0:0:0:
440,154,33595,1,0,0:0:0:0:
476,193,33980,1,0,0:0:0:0:
466,160,34076,1,8,0:0:0:0:
483,162,34268,1,0,0:0:0:0:
483,162,34364,1,0,0:0:0:0:
503,161,34460,1,8,0:0:0:0:
480,159,34557,1,0,0:0:0:0:
470,162,34749,1,8,0:0:0:0:
439,162,34941,1,8,0:0:0:0:
437,162,35134,1,8,0:0:0:0:
445,153,35518,1,8,0:0:0:0:
430,152,35710,1,0,0:0:0:0:
386,101,35807,1,0,0:0:0:0:
436,151,35903,1,8,0:0:0:0:
216,45,36095,5,8,0:0:0:0:
481,148,36191,1,0,0:0:0:0:
436,144,36287,1,8,0:0:0:0:
418,154,36672,1,0,0:0:0:0:
454,122,37057,1,12,0:0:0:0:
454,153,37249,1,8,0:0:0:0:
433,158,37441,1,0,0:0:0:0:
405,143,37634,1,8,0:0:0:0:
457,145,37730,1,0,0:0:0:0:
426,142,37826,1,8,0:0:0:0:
416,147,38018,1,8,0:0:0:0:
416,147,38210,1,8,0:0:0:0:
425,156,38595,1,0,0:0:0:0:
482,157,38691,1,8,0:0:0:0:
482,157,38787,1,8,0:0:0:0:
466,152,38980,1,0,0:0:0:0:
201,44,39172,1,0,0:0:0:0:
433,160,39364,1,8,0:0:0:0:
388,96,39557,1,8,0:0:0:0:
388,96,39749,1,8,0:0:0:0:
422,145,40134,1,8,0:0:0:0:
422,145,40230,1,8,0:0:0:0:
352,98,40422,1,8,0:0:0:0:
481,158,40518,1,8,0:0:0:0:
481,158,40614,1,8,0:0:0:0:
462,166,40710,1,0,0:0:0:0:
219,48,40903,1,0,0:0:0:0:
266,80,41095,1,0,0:0:0:0:
348,129,41287,1,8,0:0:0:0:
340,161,41672,1,0,0:0:0:0:
340,161,41768,1,0,0:0:0:0:
435,150,41864,1,8,0:0:0:0:
476,152,42057,1,0,0:0:0:0:
266,124,42249,1,8,0:0:0:0:
476,152,42441,1,8,0:0:0:0:
487,161,42634,1,0,0:0:0:0:
485,161,42730,1,0,0:0:0:0:
503,361,42826,1,8,0:0:0:0:
318,85,43210,1,8,0:0:0:0:
245,177,43307,1,0,0:0:0:0:
479,138,43403,1,8,0:0:0:0:
479,138,43499,1,8,0:0:0:0:
459,141,43595,1,0,0:0:0:0:
367,179,43691,1,8,0:0:0:0:
366,143,43787,1,0,0:0:0:0:
428,74,43980,1,0,0:0:0:0:
428,74,44172,1,8,0:0:0:0:
446,141,44364,1,0,0:0:0:0:
408,149,44749,1,0,0:0:0:0:
406,139,44845,1,8,0:0:0:0:
464,149,45037,1,0,0:0:0:0:
412,122,45134,1,8,0:0:0:0:
237,62,45326,1,0,0:0:0:0:
433,130,45518,1,8,0:0:0:0:
228,50,45614,5,0,0:0:0:0:
474,151,45710,1,8,0:0:0:0:
442,143,45903,1,0,0:0:0:0:
481,150,45999,1,0,0:0:0:0:
434,144,46095,1,8,0:0:0:0:
453,152,46191,1,8,0:0:0:0:
392,136,46287,1,0,0:0:0:0:
500,160,46480,1,0,0:0:0:0:
123,71,46576,1,8,0:0:0:0:
100,74,46672,1,0,0:0:0:0:
389,102,46864,1,8,0:0:0:0:
434,169,47057,1,0,0:0:0:0:
504,164,47249,1,8,0:0:0:0:
477,158,47345,1,0,0:0:0:0:
477,158,47441,1,8,0:0:0:0:
412,156,47537,1,8,0:0:0:0:
303,210,47634,1,0,0:0:0:0:
416,148,47826,1,4,0:0:0:0:
348,110,48210,1,4,0:0:0:0:
348,110,48595,1,4,0:0:0:0:
341,132,49172,1,8,0:0:0:0:
209,36,49364,1,4,0:0:0:0:
401,150,49749,1,8,0:0:0:0:
280,80,50134,1,0,0:0:0:0:
458,168,50326,1,0,0:0:0:0:
469,161,50518,1,8,0:0:0:0:
460,145,50710,1,8,0:0:0:0:
457,154,51095,1,0,0:0:0:0:
460,146,51287,1,8,0:0:0:0:
305,155,51480,1,0,0:0:0:0:
473,159,51576,1,0,0:0:0:0:
367,136,51672,1,8,0:0:0:0:
473,159,51864,1,0,0:0:0:0:
423,150,52057,1,8,0:0:0:0:
471,159,52441,1,0,0:0:0:0:
372,150,52826,1,8,0:0:0:0:
471,159,53210,1,0,0:0:0:0:
446,149,53403,1,8,0:0:0:0:
433,146,53595,1,8,0:0:0:0:
394,157,53787,1,0,0:0:0:0:
469,148,54172,1,0,0:0:0:0:
429,133,54364,1,8,0:0:0:0:
450,137,54557,1,8,0:0:0:0:
450,137,54653,1,8,0:0:0:0:
470,139,54749,1,0,0:0:0:0:
445,142,54941,1,0,0:0:0:0:
422,142,55134,1,8,0:0:0:0:
334,244,55326,1,8,0:0:0:0:
417,170,55518,1,0,0:0:0:0:
401,150,55903,1,8,0:0:0:0:
280,80,56287,1,0,0:0:0:0:
458,168,56480,1,0,0:0:0:0:
469,161,56672,1,8,0:0:0:0:
460,145,56864,1,8,0:0:0:0:
457,154,57249,1,0,0:0:0:0:
460,146,57441,1,8,0:0:0:0:
305,155,57634,1,0,0:0:0:0:
302,126,57730,1,0,0:0:0:0:
302,126,57826,1,8,0:0:0:0:
473,159,58018,1,0,0:0:0:0:
423,150,58210,1,8,0:0:0:0:
389,80,58595,1,0,0:0:0:0:
442,142,58980,1,8,0:0:0:0:
460,155,59364,1,0,0:0:0:0:
460,155,59557,1,8,0:0:0:0:
442,142,59749,1,8,0:0:0:0:
388,133,59941,1,0,0:0:0:0:
419,120,60326,1,0,0:0:0:0:
437,133,60518,1,8,0:0:0:0:
413,141,60903,1,8,0:0:0:0:
414,145,61287,1,0,0:0:0:0:
313,121,61480,1,8,0:0:0:0:
417,170,61672,1,4,0:0:0:0:
401,150,62057,1,8,0:0:0:0:
280,80,62441,1,0,0:0:0:0:
458,168,62634,1,0,0:0:0:0:
469,161,62826,1,8,0:0:0:0:
460,145,63018,1,8,0:0:0:0:
457,154,63403,1,0,0:0:0:0:
460,146,63595,1,8,0:0:0:0:
305,155,63787,1,0,0:0:0:0:
473,159,63884,1,0,0:0:0:0:
367,136,63980,1,8,0:0:0:0:
473,159,64172,1,0,0:0:0:0:
423,150,64364,1,8,0:0:0:0:
471,159,64749,1,0,0:0:0:0:
372,150,65134,1,8,0:0:0:0:
471,159,65518,1,0,0:0:0:0:
446,149,65710,1,8,0:0:0:0:
433,146,65903,1,8,0:0:0:0:
394,157,66095,1,0,0:0:0:0:
469,148,66480,1,0,0:0:0:0:
429,133,66672,1,8,0:0:0:0:
450,137,66864,1,8,0:0:0:0:
450,137,66960,1,8,0:0:0:0:
470,139,67057,1,0,0:0:0:0:
445,142,67249,1,0,0:0:0:0:
422,142,67441,1,8,0:0:0:0:
417,170,67826,1,0,0:0:0:0:
401,150,68210,1,8,0:0:0:0:
280,80,68595,1,0,0:0:0:0:
458,168,68787,1,0,0:0:0:0:
469,161,68980,1,8,0:0:0:0:
460,145,69172,1,0,0:0:0:0:
431,133,69268,1,0,0:0:0:0:
431,133,69364,1,8,0:0:0:0:
357,149,69557,1,0,0:0:0:0:
460,146,69749,1,8,0:0:0:0:
368,124,69941,1,0,0:0:0:0:
368,124,70037,1,0,0:0:0:0:
365,108,70134,1,8,0:0:0:0:
473,159,70326,1,0,0:0:0:0:
423,150,70518,1,8,0:0:0:0:
401,130,70710,1,8,0:0:0:0:
401,130,70807,1,8,0:0:0:0:
237,148,70903,1,0,0:0:0:0:
361,164,71095,1,8,0:0:0:0:
346,127,71191,1,8,0:0:0:0:
432,148,71287,1,0,0:0:0:0:
361,164,71480,1,8,0:0:0:0:
346,127,71576,1,8,0:0:0:0:
429,138,71672,1,0,0:0:0:0:
361,164,71864,1,8,0:0:0:0:
346,127,71960,1,8,0:0:0:0:
450,149,72057,1,0,0:0:0:0:
361,164,72249,1,8,0:0:0:0:
361,164,72345,1,8,0:0:0:0:
443,142,72441,1,0,0:0:0:0:
437,133,72826,1,8,0:0:0:0:
397,166,73018,1,0,0:0:0:0:
413,141,73210,1,8,0:0:0:0:
414,145,73595,1,0,0:0:0:0:
417,170,73980,1,4,0:0:0:0:
337,140,74172,1,0,0:0:0:0:
221,47,74364,1,8,0:0:0:0:
328,108,74460,1,0,0:0:0:0:
440,135,74557,1,0,0:0:0:0:
440,135,74653,1,0,0:0:0:0:
393,147,74749,1,8,0:0:0:0:
409,141,74941,1,0,0:0:0:0:
460,150,75134,1,0,0:0:0:0:
357,142,75326,1,8,0:0:0:0:
357,142,75422,1,8,0:0:0:0:
299,127,75518,1,0,0:0:0:0:
475,151,75710,1,8,0:0:0:0:
374,86,75903,1,8,0:0:0:0:
432,146,76095,1,0,0:0:0:0:
450,149,76287,1,8,0:0:0:0:
403,169,76480,1,0,0:0:0:0:
344,37,76576,1,8,0:0:0:0:
477,159,76672,1,0,0:0:0:0:
486,165,76864,1,8,0:0:0:0:
334,154,77057,1,0,0:0:0:0:
409,150,77249,1,0,0:0:0:0:
242,83,77345,1,0,0:0:0:0:
468,149,77441,1,8,0:0:0:0:
238,77,77634,1,0,0:0:0:0:
339,161,77826,1,8,0:0:0:0:
339,161,77922,1,8,0:0:0:0:
451,165,78018,1,0,0:0:0:0:
356,157,78210,1,8,0:0:0:0:
220,132,78403,1,0,0:0:0:0:
481,160,78595,1,8,0:0:0:0:
406,154,78691,1,0,0:0:0:0:
354,148,78787,1,0,0:0:0:0:
405,140,78980,1,8,0:0:0:0:
473,149,79172,1,0,0:0:0:0:
406,154,79364,1,0,0:0:0:0:
406,154,79460,1,0,0:0:0:0:
474,159,79557,1,0,0:0:0:0:
206,68,79749,1,8,0:0:0:0:
461,150,80134,1,0,0:0:0:0:
417,124,80230,1,0,0:0:0:0:
442,146,80326,1,8,0:0:0:0:
424,135,80518,1,8,0:0:0:0:
248,140,80614,5,0,0:0:0:0:
447,141,80710,1,8,0:0:0:0:
401,128,80903,1,8,0:0:0:0:
266,142,81095,5,8,0:0:0:0:
266,142,81191,1,8,0:0:0:0:
442,146,81287,1,0,0:0:0:0:
227,116,81480,1,8,0:0:0:0:
427,141,81672,1,0,0:0:0:0:
465,167,81768,1,0,0:0:0:0:
496,160,81864,1,8,0:0:0:0:
496,153,82057,1,8,0:0:0:0:
493,157,82153,1,8,0:0:0:0:
454,147,82249,1,0,0:0:0:0:
384,191,82345,1,0,0:0:0:0:
346,153,82441,1,8,0:0:0:0:
426,162,82634,1,8,0:0:0:0:
465,158,82826,1,8,0:0:0:0:
283,122,83018,1,0,0:0:0:0:
396,144,83210,1,8,0:0:0:0:
396,144,83307,1,8,0:0:0:0:
482,151,83499,1,8,0:0:0:0:
485,155,83595,1,0,0:0:0:0:
485,155,83691,1,0,0:0:0:0:
453,153,83787,1,8,0:0:0:0:
456,145,83980,1,8,0:0:0:0:
487,152,84172,1,8,0:0:0:0:
462,158,84364,1,8,0:0:0:0:
440,149,84749,1,8,0:0:0:0:
384,145,85037,1,0,0:0:0:0:
384,145,85134,1,8,0:0:0:0:
466,179,85326,1,0,0:0:0:0:
445,172,85518,1,8,0:0:0:0:
477,159,85903,1,0,0:0:0:0:
450,161,86287,1,4,0:0:0:0:
453,139,86480,1,8,0:0:0:0:
432,144,86672,1,0,0:0:0:0:
404,129,86864,1,8,0:0:0:0:
456,131,86960,1,0,0:0:0:0:
425,128,87057,1,8,0:0:0:0:
415,133,87249,1,8,0:0:0:0:
415,133,87441,1,8,0:0:0:0:
424,142,87826,1,0,0:0:0:0:
481,143,87922,1,8,0:0:0:0:
481,143,88018,1,8,0:0:0:0:
481,143,88114,1,8,0:0:0:0:
465,138,88210,1,0,0:0:0:0:
200,30,88403,1,0,0:0:0:0:
432,146,88595,1,8,0:0:0:0:
387,82,88787,1,8,0:0:0:0:
387,82,88980,1,8,0:0:0:0:
421,131,89364,1,8,0:0:0:0:
421,131,89460,1,8,0:0:0:0:
480,144,89653,1,8,0:0:0:0:
480,144,89749,1,8,0:0:0:0:
480,144,89845,1,8,0:0:0:0:
461,152,89941,1,0,0:0:0:0:
461,152,90134,1,0,0:0:0:0:
265,66,90326,1,0,0:0:0:0:
251,83,90422,1,0,0:0:0:0:
347,115,90518,1,8,0:0:0:0:
339,147,90903,1,0,0:0:0:0:
339,147,90999,1,0,0:0:0:0:
434,136,91095,1,8,0:0:0:0:
475,138,91287,1,0,0:0:0:0:
485,140,91384,1,8,0:0:0:0:
480,142,91480,1,0,0:0:0:0:
475,138,91672,1,8,0:0:0:0:
486,147,91864,1,0,0:0:0:0:
484,147,91960,1,0,0:0:0:0:
502,347,92057,1,8,0:0:0:0:
318,85,92441,1,8,0:0:0:0:
245,177,92537,1,0,0:0:0:0:
479,138,92634,1,8,0:0:0:0:
479,138,92730,1,8,0:0:0:0:
459,141,92826,1,0,0:0:0:0:
367,179,92922,1,8,0:0:0:0:
366,143,93018,1,0,0:0:0:0:
428,74,93210,1,0,0:0:0:0:
428,74,93403,1,8,0:0:0:0:
446,141,93595,1,0,0:0:0:0:
408,149,93980,1,0,0:0:0:0:
406,139,94076,1,8,0:0:0:0:
464,149,94268,1,0,0:0:0:0:
412,122,94364,1,8,0:0:0:0:
237,62,94557,1,0,0:0:0:0:
433,130,94749,1,8,0:0:0:0:
228,50,94845,5,0,0:0:0:0:
474,151,94941,1,8,0:0:0:0:
442,143,95134,1,0,0:0:0:0:
481,150,95230,1,0,0:0:0:0:
434,144,95326,1,8,0:0:0:0:
453,152,95422,1,8,0:0:0:0:
392,136,95518,1,0,0:0:0:0:
500,160,95710,1,0,0:0:0:0:
123,71,95807,1,8,0:0:0:0:
100,74,95903,1,0,0:0:0:0:
389,102,96095,1,8,0:0:0:0:
434,169,96287,1,0,0:0:0:0:
434,169,96480,1,8,0:0:0:0:
352,208,96576,1,0,0:0:0:0:
477,158,96672,1,8,0:0:0:0:
483,160,96768,1,8,0:0:0:0:
250,189,96864,1,0,0:0:0:0:
266,113,97057,1,0,0:0:0:0:
256,192,97249,12,0,98403,0:0:0:0:
440,157,98595,5,8,0:0:0:0:
209,36,98980,1,0,0:0:0:0:
492,163,99364,1,8,0:0:0:0:
486,154,99749,1,0,0:0:0:0:
472,160,99941,1,8,0:0:0:0:
502,148,100326,1,0,0:0:0:0:
487,154,100710,1,8,0:0:0:0:
494,155,100903,1,0,0:0:0:0:
490,142,101095,1,8,0:0:0:0:
465,155,101287,1,8,0:0:0:0:
480,161,101672,1,0,0:0:0:0:
232,53,102057,1,8,0:0:0:0:
486,162,102441,1,0,0:0:0:0:
289,49,102826,1,8,0:0:0:0:
453,169,103018,1,0,0:0:0:0:
284,144,103403,1,8,0:0:0:0:
346,127,103595,1,0,0:0:0:0:
324,78,103980,1,0,0:0:0:0:
461,153,104172,1,0,0:0:0:0:
461,153,104364,1,8,0:0:0:0:
440,157,104749,5,8,0:0:0:0:
209,36,105134,1,0,0:0:0:0:
492,163,105518,1,8,0:0:0:0:
487,154,105903,1,0,0:0:0:0:
472,160,106095,1,8,0:0:0:0:
502,148,106480,1,0,0:0:0:0:
487,154,106864,1,8,0:0:0:0:
494,155,107057,1,0,0:0:0:0:
490,142,107249,1,8,0:0:0:0:
465,155,107441,1,8,0:0:0:0:
480,161,107826,1,0,0:0:0:0:
232,53,108210,1,8,0:0:0:0:
205,113,108595,1,0,0:0:0:0:
473,142,108980,1,0,0:0:0:0:
453,169,109172,1,8,0:0:0:0:
396,141,109364,1,0,0:0:0:0:
346,127,109749,1,8,0:0:0:0:
219,36,110134,1,0,0:0:0:0:
460,152,110518,1,8,0:0:0:0:
401,150,110710,1,8,0:0:0:0:
209,36,110903,1,4,0:0:0:0:
286,131,111095,1,8,0:0:0:0:
