osu file format v14

[General]
AudioFilename: audio.ogg
AudioLeadIn: 0
PreviewTime: 47634
Countdown: 0
SampleSet: Normal
StackLeniency: 0.7
Mode: 1
LetterboxInBreaks: 0
WidescreenStoryboard: 1

[Editor]
Bookmarks: 12320,24628,36936,49243,61551,73859,86166,98474
DistanceSpacing: 1.2
BeatDivisor: 4
GridSize: 32
TimelineZoom: 2.4

[Metadata]
Title:Pekorap3D Remix
TitleUnicode:ぺこらっぷ3D Remix
Artist:K2HAmu
ArtistUnicode:K2HAmu
Creator:D3kuu
Version:Muzukashii
Source:
Tags:cdhsausageboy cdh 兎田ぺこら usada pekora vtuber virtual youtuber バーチャル ユーチューバー hololive ホロライブ japanese electronic
BeatmapID:2712390
BeatmapSetID:1307689

[Difficulty]
HPDrainRate:6
CircleSize:5
OverallDifficulty:4.5
ApproachRate:5
SliderMultiplier:1.4
SliderTickRate:1

[Events]
//Background and Video events
0,0,"pekora2.png",0,0
//Break Periods
//Storyboard Layer 0 (Background)
//Storyboard Layer 1 (Fail)
//Storyboard Layer 2 (Pass)
//Storyboard Layer 3 (Foreground)
//Storyboard Layer 4 (Overlay)
//Storyboard Sound Samples

[TimingPoints]
134,384.615384615385,4,1,0,70,1,0
134,-100,4,1,0,70,0,0
11672,-100,4,1,0,70,0,0
11864,-100,4,1,0,70,0,0
12057,-100,4,1,0,70,0,0
12153,-100,4,1,0,70,0,0
12249,-100,4,1,0,70,0,0
12345,-100,4,1,0,70,0,0
12441,-100,4,1,0,80,0,0
18595,-100,4,1,0,80,0,0
18787,-100,4,1,0,80,0,0
18980,-100,4,1,0,80,0,0
19172,-100,4,1,0,80,0,0
19268,-100,4,1,0,80,0,0
19364,-100,4,1,0,80,0,0
19460,-100,4,1,0,80,0,0
19557,-100,4,1,0,80,0,0
19749,-100,4,1,0,80,0,0
19941,-100,4,1,0,80,0,0
20037,-100,4,1,0,80,0,0
20134,-100,4,1,0,80,0,0
20326,-100,4,1,0,80,0,0
20518,-100,4,1,0,80,0,0
20710,-100,4,1,0,80,0,0
20807,-100,4,1,0,80,0,0
20903,-100,4,1,0,80,0,0
20999,-100,4,1,0,80,0,0
21095,-100,4,1,0,80,0,0
21287,-100,4,1,0,80,0,0
21480,-100,4,1,0,80,0,0
21576,-100,4,1,0,80,0,0
21672,-100,4,1,0,80,0,0
21864,-100,4,1,0,80,0,0
21960,-100,4,1,0,80,0,0
22057,-100,4,1,0,80,0,0
22249,-100,4,1,0,80,0,0
22345,-100,4,1,0,80,0,0
22441,-100,4,1,0,80,0,0
22634,-100,4,1,0,80,0,0
22730,-100,4,1,0,80,0,0
22826,-100,4,1,0,80,0,0
23018,-100,4,1,0,80,0,0
23114,-100,4,1,0,80,0,0
23210,-100,4,1,0,80,0,0
23307,-100,4,1,0,80,0,0
23371,-100,4,1,0,80,0,0
23435,-100,4,1,0,80,0,0
23499,-100,4,1,0,80,0,0
23563,-100,4,1,0,80,0,0
23627,-100,4,1,0,80,0,0
23691,-100,4,1,0,80,0,0
23755,-100,4,1,0,80,0,0
23819,-100,4,1,0,80,0,0
23884,-100,4,1,0,80,0,0
23980,-100,4,1,0,80,0,0
24749,-100,4,1,0,80,0,0
43210,-100,4,1,0,80,0,0
43307,-100,4,1,0,80,0,0
43403,-100,4,1,0,80,0,0
43499,-100,4,1,0,80,0,0
43595,-100,4,1,0,80,0,0
43691,-100,4,1,0,80,0,0
43787,-100,4,1,0,80,0,0
43884,-100,4,1,0,80,0,0
43980,-100,4,1,0,80,0,0
44076,-100,4,1,0,80,0,0
44172,-100,4,1,0,80,0,0
44268,-100,4,1,0,80,0,0
44364,-100,4,1,0,80,0,0
44460,-100,4,1,0,80,0,0
44557,-100,4,1,0,80,0,0
44653,-100,4,1,0,80,0,0
44749,-100,4,1,0,80,0,0
44845,-100,4,1,0,80,0,0
44941,-100,4,1,0,80,0,0
45037,-100,4,1,0,80,0,0
45134,-100,4,1,0,80,0,0
45230,-100,4,1,0,80,0,0
45326,-100,4,1,0,80,0,0
45422,-100,4,1,0,80,0,0
45518,-100,4,1,0,80,0,0
45614,-100,4,1,0,80,0,0
45710,-100,4,1,0,80,0,0
45807,-100,4,1,0,80,0,0
45903,-100,4,1,0,80,0,0
45999,-100,4,1,0,80,0,0
46095,-100,4,1,0,80,0,0
46191,-100,4,1,0,80,0,0
46287,-100,4,1,0,80,0,0
46351,-100,4,1,0,80,0,0
46416,-100,4,1,0,80,0,0
46480,-100,4,1,0,80,0,0
46576,-100,4,1,0,80,0,0
46672,-100,4,1,0,80,0,0
46736,-100,4,1,0,80,0,0
46800,-100,4,1,0,80,0,0
46864,-100,4,1,0,80,0,0
46960,-100,4,1,0,80,0,0
47057,-100,4,1,0,80,0,0
47121,-100,4,1,0,80,0,0
47185,-100,4,1,0,80,0,0
47249,-100,4,1,0,80,0,0
47345,-100,4,1,0,80,0,0
47441,-100,4,1,0,80,0,0
47505,-100,4,1,0,80,0,0
47569,-100,4,1,0,80,0,0
47634,-100,4,1,0,80,0,0
47730,-100,4,1,0,80,0,0
47826,-100,4,1,0,80,0,0
48210,-100,4,1,0,80,0,0
48595,-100,4,1,0,80,0,0
49172,-100,4,1,0,80,0,0
67826,-100,4,1,0,80,0,0
67922,-100,4,1,0,80,0,0
68018,-100,4,1,0,80,0,0
68114,-100,4,1,0,80,0,0
68210,-100,4,1,0,80,0,0
68307,-100,4,1,0,80,0,0
68403,-100,4,1,0,80,0,0
68499,-100,4,1,0,80,0,0
68595,-100,4,1,0,80,0,0
68691,-100,4,1,0,80,0,0
68787,-100,4,1,0,80,0,0
68884,-100,4,1,0,80,0,0
68980,-100,4,1,0,80,0,0
69076,-100,4,1,0,80,0,0
69172,-100,4,1,0,80,0,0
69236,-100,4,1,0,80,0,0
69364,-100,4,1,0,80,0,0
69460,-100,4,1,0,80,0,0
69557,-100,4,1,0,80,0,0
69653,-100,4,1,0,80,0,0
69749,-100,4,1,0,80,0,0
69845,-100,4,1,0,80,0,0
69941,-100,4,1,0,80,0,0
70005,-100,4,1,0,80,0,0
70069,-100,4,1,0,80,0,0
70134,-100,4,1,0,80,0,0
70230,-100,4,1,0,80,0,0
70326,-100,4,1,0,80,0,0
70422,-100,4,1,0,80,0,0
70518,-100,4,1,0,80,0,0
70614,-100,4,1,0,80,0,0
70710,-100,4,1,0,80,0,0
70775,-100,4,1,0,80,0,0
70839,-100,4,1,0,80,0,0
70903,-100,4,1,0,80,0,0
70999,-100,4,1,0,80,0,0
71095,-100,4,1,0,80,0,0
71159,-100,4,1,0,80,0,0
71223,-100,4,1,0,80,0,0
71287,-100,4,1,0,80,0,0
71384,-100,4,1,0,80,0,0
71480,-100,4,1,0,80,0,0
71544,-100,4,1,0,80,0,0
71608,-100,4,1,0,80,0,0
71672,-100,4,1,0,80,0,0
71768,-100,4,1,0,80,0,0
71864,-100,4,1,0,80,0,0
71928,-100,4,1,0,80,0,0
71992,-100,4,1,0,80,0,0
72057,-100,4,1,0,80,0,0
72153,-100,4,1,0,80,0,0
72249,-100,4,1,0,80,0,0
72313,-100,4,1,0,80,0,0
72377,-100,4,1,0,80,0,0
72441,-100,4,1,0,80,0,0
72634,-100,4,1,0,80,0,0
72826,-100,4,1,0,80,0,0
73018,-100,4,1,0,80,0,0
73082,-100,4,1,0,80,0,0
73146,-100,4,1,0,80,0,0
73210,-100,4,1,0,80,0,0
73403,-100,4,1,0,80,0,0
73595,-100,4,1,0,80,0,0
73787,-100,4,1,0,80,0,0
73980,-100,4,1,0,90,0,1
84749,-100,4,1,0,100,0,0
84941,-100,4,1,0,100,0,0
85134,-100,4,1,0,100,0,0
85326,-100,4,1,0,100,0,0
85422,-100,4,1,0,100,0,0
85518,-100,4,1,0,100,0,0
85710,-100,4,1,0,100,0,0
85903,-100,4,1,0,100,0,0
86095,-100,4,1,0,100,0,0
86287,-100,4,1,0,100,0,1
92441,-100,4,1,0,100,0,1
92537,-100,4,1,0,100,0,1
92634,-100,4,1,0,100,0,1
92730,-100,4,1,0,100,0,1
92826,-100,4,1,0,100,0,1
92922,-100,4,1,0,100,0,1
93018,-100,4,1,0,100,0,1
93114,-100,4,1,0,100,0,1
93210,-100,4,1,0,100,0,1
93307,-100,4,1,0,100,0,1
93403,-100,4,1,0,100,0,1
93499,-100,4,1,0,100,0,1
93595,-100,4,1,0,100,0,1
93691,-100,4,1,0,100,0,1
93787,-100,4,1,0,100,0,1
93884,-100,4,1,0,100,0,1
93980,-100,4,1,0,100,0,1
94076,-100,4,1,0,100,0,1
94172,-100,4,1,0,100,0,1
94268,-100,4,1,0,100,0,1
94364,-100,4,1,0,100,0,1
94460,-100,4,1,0,100,0,1
94557,-100,4,1,0,100,0,1
94653,-100,4,1,0,100,0,1
94749,-100,4,1,0,100,0,1
94845,-100,4,1,0,100,0,1
94941,-100,4,1,0,100,0,1
95037,-100,4,1,0,100,0,1
95134,-100,4,1,0,100,0,1
95230,-100,4,1,0,100,0,1
95326,-100,4,1,0,100,0,1
95422,-100,4,1,0,100,0,1
95518,-100,4,1,0,100,0,1
95582,-100,4,1,0,100,0,1
95646,-100,4,1,0,100,0,1
95710,-100,4,1,0,100,0,1
95807,-100,4,1,0,100,0,1
95903,-100,4,1,0,100,0,1
95967,-100,4,1,0,100,0,1
96031,-100,4,1,0,100,0,1
96095,-100,4,1,0,100,0,1
96191,-100,4,1,0,100,0,1
96287,-100,4,1,0,100,0,1
96351,-100,4,1,0,100,0,1
96416,-100,4,1,0,100,0,1
96480,-100,4,1,0,100,0,1
96576,-100,4,1,0,100,0,1
96672,-100,4,1,0,100,0,1
96736,-100,4,1,0,100,0,1
96800,-100,4,1,0,100,0,1
96864,-100,4,1,0,100,0,1
97201,-100,4,1,0,60,0,1
98595,-100,4,1,0,80,0,0

[HitObjects]
440,157,134,5,8,0:0:0:0:
209,36,518,1,0,0:0:0:0:
491,157,903,1,8,0:0:0:0:
486,154,1287,1,0,0:0:0:0:
472,160,1480,1,8,0:0:0:0:
502,148,1864,1,0,0:0:0:0:
487,154,2249,1,8,0:0:0:0:
494,155,2441,1,0,0:0:0:0:
490,142,2634,1,8,0:0:0:0:
465,155,2826,1,8,0:0:0:0:
480,161,3210,1,0,0:0:0:0:
232,53,3595,1,8,0:0:0:0:
486,162,3980,1,0,0:0:0:0:
289,49,4172,1,8,0:0:0:0:
453,169,4364,1,0,0:0:0:0:
284,144,4941,1,8,0:0:0:0:
346,127,5134,1,0,0:0:0:0:
324,78,5518,1,0,0:0:0:0:
461,153,5903,1,8,0:0:0:0:
440,157,6287,5,8,0:0:0:0:
209,36,6672,1,0,0:0:0:0:
492,163,7057,1,8,0:0:0:0:
487,154,7441,1,0,0:0:0:0:
472,160,7634,1,8,0:0:0:0:
502,148,8018,1,0,0:0:0:0:
487,154,8403,1,8,0:0:0:0:
494,155,8595,1,0,0:0:0:0:
490,142,8787,1,8,0:0:0:0:
465,155,8980,1,8,0:0:0:0:
480,161,9364,1,0,0:0:0:0:
232,53,9749,1,8,0:0:0:0:
205,113,10134,1,0,0:0:0:0:
473,142,10326,1,8,0:0:0:0:
453,169,10518,1,8,0:0:0:0:
396,141,10903,1,0,0:0:0:0:
346,127,11287,1,8,0:0:0:0:
219,36,11672,1,0,0:0:0:0:
460,152,12057,1,8,0:0:0:0:
401,150,12249,1,8,0:0:0:0:
209,36,12441,1,4,0:0:0:0:
401,150,12826,1,8,0:0:0:0:
145,60,13018,5,0,0:0:0:0:
469,161,13595,1,8,0:0:0:0:
393,136,13980,1,0,0:0:0:0:
457,154,14172,1,0,0:0:0:0:
460,146,14364,1,8,0:0:0:0:
305,155,14557,1,0,0:0:0:0:
473,159,14941,1,0,0:0:0:0:
423,150,15134,1,8,0:0:0:0:
239,78,15326,1,0,0:0:0:0:
433,178,15710,1,8,0:0:0:0:
372,150,15903,1,8,0:0:0:0:
479,156,16095,1,0,0:0:0:0:
446,149,16480,1,0,0:0:0:0:
433,146,16672,1,8,0:0:0:0:
469,148,17057,1,0,0:0:0:0:
469,148,17249,1,0,0:0:0:0:
429,133,17441,1,8,0:0:0:0:
450,137,17634,1,0,0:0:0:0:
445,142,18018,1,0,0:0:0:0:
422,142,18210,1,8,0:0:0:0:
334,244,18403,1,8,0:0:0:0:
417,170,18595,1,0,0:0:0:0:
401,150,18980,1,8,0:0:0:0:
458,180,19172,1,0,0:0:0:0:
469,161,19749,1,8,0:0:0:0:
393,136,20134,1,0,0:0:0:0:
457,154,20326,1,0,0:0:0:0:
460,146,20518,1,8,0:0:0:0:
305,155,20710,1,0,0:0:0:0:
473,159,21095,1,0,0:0:0:0:
423,150,21287,1,8,0:0:0:0:
471,159,21672,1,8,0:0:0:0:
433,178,21864,1,0,0:0:0:0:
372,150,22057,1,8,0:0:0:0:
433,146,22249,1,0,0:0:0:0:
474,133,22441,1,8,0:0:0:0:
471,159,22634,1,0,0:0:0:0:
479,156,22826,1,8,0:0:0:0:
394,157,23018,1,0,0:0:0:0:
288,213,23210,1,0,0:0:0:0:
288,213,23403,1,0,0:0:0:0:
288,213,23499,1,0,0:0:0:0:
288,213,23595,1,0,0:0:0:0:
288,213,23787,1,0,0:0:0:0:
382,162,23980,1,8,0:0:0:0:
417,170,24749,1,4,0:0:0:0:
455,156,24941,1,8,0:0:0:0:
473,160,25134,1,0,0:0:0:0:
465,144,25230,1,0,0:0:0:0:
479,149,25326,1,0,0:0:0:0:
419,155,25518,1,8,0:0:0:0:
475,154,25903,1,8,0:0:0:0:
462,125,26287,1,0,0:0:0:0:
433,142,26672,1,8,0:0:0:0:
467,160,27057,1,8,0:0:0:0:
480,158,27249,1,0,0:0:0:0:
433,154,27441,1,0,0:0:0:0:
465,132,27826,1,8,0:0:0:0:
465,132,28018,1,8,0:0:0:0:
465,132,28114,1,8,0:0:0:0:
380,129,28210,1,8,0:0:0:0:
471,141,28403,1,8,0:0:0:0:
440,135,28787,1,0,0:0:0:0:
450,131,28980,1,8,0:0:0:0:
463,147,29364,1,8,0:0:0:0:
496,157,29460,1,8,0:0:0:0:
485,156,29557,1,8,0:0:0:0:
396,139,29749,1,0,0:0:0:0:
422,142,29941,1,0,0:0:0:0:
481,150,30326,1,0,0:0:0:0:
450,150,30518,1,8,0:0:0:0:
437,140,30903,1,0,0:0:0:0:
495,152,31095,1,8,0:0:0:0:
306,111,31191,1,8,0:0:0:0:
473,158,31287,1,8,0:0:0:0:
445,152,31480,1,8,0:0:0:0:
494,160,31672,1,8,0:0:0:0:
489,154,31864,1,0,0:0:0:0:
465,140,32057,1,0,0:0:0:0:
473,145,32441,1,0,0:0:0:0:
489,149,32634,1,8,0:0:0:0:
489,144,32826,1,0,0:0:0:0:
488,165,33210,1,8,0:0:0:0:
223,26,33307,1,8,0:0:0:0:
427,155,33403,1,8,0:0:0:0:
440,154,33595,1,0,0:0:0:0:
476,193,33980,1,0,0:0:0:0:
466,160,34076,1,8,0:0:0:0:
483,162,34268,1,0,0:0:0:0:
483,162,34364,1,0,0:0:0:0:
480,159,34557,1,0,0:0:0:0:
470,162,34749,1,8,0:0:0:0:
231,164,34941,1,0,0:0:0:0:
450,164,35134,1,8,0:0:0:0:
445,153,35518,1,8,0:0:0:0:
430,152,35710,1,0,0:0:0:0:
386,101,35807,1,0,0:0:0:0:
436,151,35903,1,0,0:0:0:0:
216,45,36095,5,8,0:0:0:0:
436,144,36287,1,8,0:0:0:0:
454,122,37057,1,12,0:0:0:0:
454,153,37249,1,8,0:0:0:0:
433,158,37441,1,0,0:0:0:0:
426,142,37826,1,8,0:0:0:0:
416,147,38018,1,8,0:0:0:0:
416,147,38210,1,8,0:0:0:0:
425,156,38595,1,8,0:0:0:0:
482,157,38691,1,8,0:0:0:0:
482,157,38787,1,8,0:0:0:0:
466,152,38980,1,0,0:0:0:0:
433,160,39364,1,8,0:0:0:0:
388,96,39557,1,8,0:0:0:0:
388,96,39749,1,8,0:0:0:0:
422,145,40134,1,8,0:0:0:0:
352,98,40422,1,8,0:0:0:0:
481,158,40518,1,8,0:0:0:0:
462,166,40710,1,0,0:0:0:0:
266,80,41095,1,0,0:0:0:0:
348,129,41287,1,8,0:0:0:0:
340,161,41672,1,0,0:0:0:0:
340,161,41768,1,0,0:0:0:0:
435,150,41864,1,0,0:0:0:0:
476,152,42057,1,0,0:0:0:0:
266,124,42249,1,8,0:0:0:0:
487,161,42634,1,0,0:0:0:0:
205,187,42826,5,8,0:0:0:0:
318,85,43210,1,8,0:0:0:0:
479,138,43403,1,8,0:0:0:0:
479,138,43499,1,8,0:0:0:0:
459,141,43595,1,8,0:0:0:0:
366,143,43787,1,0,0:0:0:0:
268,180,43980,1,0,0:0:0:0:
428,74,44172,1,8,0:0:0:0:
446,141,44364,1,0,0:0:0:0:
332,173,44749,1,0,0:0:0:0:
406,139,44845,1,8,0:0:0:0:
464,149,45037,1,0,0:0:0:0:
412,122,45134,1,8,0:0:0:0:
237,62,45326,1,0,0:0:0:0:
433,130,45518,1,8,0:0:0:0:
228,50,45614,5,8,0:0:0:0:
474,151,45710,1,8,0:0:0:0:
442,143,45903,1,0,0:0:0:0:
392,136,46287,1,0,0:0:0:0:
500,160,46480,1,0,0:0:0:0:
123,71,46576,1,0,0:0:0:0:
100,74,46672,1,0,0:0:0:0:
434,169,47057,1,0,0:0:0:0:
504,164,47249,1,8,0:0:0:0:
412,156,47345,1,8,0:0:0:0:
477,158,47441,1,8,0:0:0:0:
303,210,47634,1,8,0:0:0:0:
416,148,47826,1,4,0:0:0:0:
348,110,48210,1,4,0:0:0:0:
348,110,48595,1,4,0:0:0:0:
341,132,49172,1,8,0:0:0:0:
209,36,49364,1,4,0:0:0:0:
401,150,49749,1,8,0:0:0:0:
280,80,50134,1,0,0:0:0:0:
469,161,50518,1,8,0:0:0:0:
460,145,50710,1,8,0:0:0:0:
457,154,51095,1,0,0:0:0:0:
460,146,51287,1,8,0:0:0:0:
367,136,51672,1,8,0:0:0:0:
473,159,51864,1,0,0:0:0:0:
423,150,52057,1,8,0:0:0:0:
471,159,52441,1,0,0:0:0:0:
372,150,52826,1,8,0:0:0:0:
471,159,53210,1,0,0:0:0:0:
433,146,53595,1,8,0:0:0:0:
394,157,53787,1,0,0:0:0:0:
469,148,54172,1,0,0:0:0:0:
429,133,54364,1,8,0:0:0:0:
470,139,54749,1,0,0:0:0:0:
417,170,55518,1,0,0:0:0:0:
401,150,55903,1,8,0:0:0:0:
280,80,56287,1,0,0:0:0:0:
469,161,56672,1,8,0:0:0:0:
460,145,56864,1,8,0:0:0:0:
457,154,57249,1,0,0:0:0:0:
460,146,57441,1,8,0:0:0:0:
302,126,57826,1,8,0:0:0:0:
473,159,58018,1,0,0:0:0:0:
423,150,58210,1,8,0:0:0:0:
389,80,58595,1,0,0:0:0:0:
442,142,58980,1,8,0:0:0:0:
460,155,59364,1,0,0:0:0:0:
442,142,59749,1,8,0:0:0:0:
388,133,59941,1,0,0:0:0:0:
419,120,60326,1,0,0:0:0:0:
437,133,60518,1,8,0:0:0:0:
414,145,61287,1,0,0:0:0:0:
313,121,61480,1,8,0:0:0:0:
417,170,61672,1,4,0:0:0:0:
401,150,62057,1,8,0:0:0:0:
280,80,62441,1,0,0:0:0:0:
469,161,62826,1,8,0:0:0:0:
460,145,63018,1,8,0:0:0:0:
457,154,63403,1,0,0:0:0:0:
460,146,63595,1,8,0:0:0:0:
367,136,63980,1,8,0:0:0:0:
473,159,64172,1,0,0:0:0:0:
423,150,64364,1,8,0:0:0:0:
471,159,64749,1,0,0:0:0:0:
372,150,65134,1,8,0:0:0:0:
471,159,65518,1,0,0:0:0:0:
433,146,65903,1,8,0:0:0:0:
394,157,66095,1,0,0:0:0:0:
469,148,66480,1,0,0:0:0:0:
429,133,66672,1,8,0:0:0:0:
470,139,67057,1,0,0:0:0:0:
417,170,67826,1,0,0:0:0:0:
348,133,68018,1,0,0:0:0:0:
401,150,68210,1,8,0:0:0:0:
280,80,68595,1,0,0:0:0:0:
458,168,68787,1,0,0:0:0:0:
469,161,68980,1,8,0:0:0:0:
423,119,69172,1,0,0:0:0:0:
423,119,69268,1,0,0:0:0:0:
423,119,69364,1,0,0:0:0:0:
460,146,69749,1,8,0:0:0:0:
401,113,69941,1,0,0:0:0:0:
401,111,70037,1,0,0:0:0:0:
365,108,70134,1,0,0:0:0:0:
473,159,70326,1,0,0:0:0:0:
423,150,70518,1,8,0:0:0:0:
237,148,70903,1,0,0:0:0:0:
361,164,71095,1,8,0:0:0:0:
432,148,71287,1,0,0:0:0:0:
361,164,71480,1,8,0:0:0:0:
429,138,71672,1,0,0:0:0:0:
361,164,71864,1,8,0:0:0:0:
450,149,72057,1,0,0:0:0:0:
361,164,72249,1,8,0:0:0:0:
361,164,72345,1,8,0:0:0:0:
443,142,72441,1,8,0:0:0:0:
437,133,72826,1,8,0:0:0:0:
397,166,73018,1,0,0:0:0:0:
413,141,73210,1,8,0:0:0:0:
417,170,73980,1,4,0:0:0:0:
221,47,74364,1,8,0:0:0:0:
346,237,74557,1,0,0:0:0:0:
393,147,74749,1,8,0:0:0:0:
409,141,74941,1,0,0:0:0:0:
460,150,75134,1,0,0:0:0:0:
357,142,75326,1,8,0:0:0:0:
475,151,75710,1,8,0:0:0:0:
432,146,76095,1,0,0:0:0:0:
450,149,76287,1,8,0:0:0:0:
403,169,76480,1,0,0:0:0:0:
477,159,76672,1,0,0:0:0:0:
334,154,77057,1,0,0:0:0:0:
468,149,77441,1,8,0:0:0:0:
346,280,77634,1,0,0:0:0:0:
339,161,77826,1,8,0:0:0:0:
451,165,78018,1,0,0:0:0:0:
334,93,78210,1,8,0:0:0:0:
220,132,78403,1,0,0:0:0:0:
354,148,78787,1,0,0:0:0:0:
405,140,78980,1,8,0:0:0:0:
473,149,79172,1,0,0:0:0:0:
406,154,79364,1,0,0:0:0:0:
474,159,79557,1,0,0:0:0:0:
206,68,79749,1,8,0:0:0:0:
417,170,80134,1,4,0:0:0:0:
221,47,80518,1,8,0:0:0:0:
298,168,80710,1,0,0:0:0:0:
393,147,80903,1,8,0:0:0:0:
409,141,81095,1,0,0:0:0:0:
460,150,81287,1,0,0:0:0:0:
357,142,81480,1,8,0:0:0:0:
475,151,81864,1,8,0:0:0:0:
432,146,82249,1,0,0:0:0:0:
450,149,82441,1,8,0:0:0:0:
403,169,82634,1,0,0:0:0:0:
477,159,82826,1,0,0:0:0:0:
334,154,83210,1,0,0:0:0:0:
468,149,83595,1,8,0:0:0:0:
349,327,83787,1,0,0:0:0:0:
339,161,83980,1,8,0:0:0:0:
451,165,84172,1,0,0:0:0:0:
334,93,84364,1,8,0:0:0:0:
220,132,84557,1,0,0:0:0:0:
354,148,84941,1,0,0:0:0:0:
405,140,85134,5,8,0:0:0:0:
406,154,85518,1,0,0:0:0:0:
454,122,86287,1,4,0:0:0:0:
454,153,86480,1,8,0:0:0:0:
433,158,86672,1,0,0:0:0:0:
426,142,87057,1,8,0:0:0:0:
416,147,87249,1,8,0:0:0:0:
416,147,87441,1,8,0:0:0:0:
425,156,87826,1,8,0:0:0:0:
482,157,87922,1,8,0:0:0:0:
482,157,88018,1,8,0:0:0:0:
466,152,88210,1,0,0:0:0:0:
433,160,88595,1,8,0:0:0:0:
388,96,88787,1,8,0:0:0:0:
388,96,88980,1,8,0:0:0:0:
422,145,89364,1,8,0:0:0:0:
352,98,89653,1,8,0:0:0:0:
481,158,89749,1,8,0:0:0:0:
462,166,89941,1,0,0:0:0:0:
266,80,90326,1,0,0:0:0:0:
348,129,90518,1,8,0:0:0:0:
340,161,90903,1,0,0:0:0:0:
340,161,90999,1,0,0:0:0:0:
435,150,91095,1,0,0:0:0:0:
476,152,91287,1,0,0:0:0:0:
266,124,91480,1,8,0:0:0:0:
487,161,91864,1,0,0:0:0:0:
503,361,92057,1,8,0:0:0:0:
318,85,92441,1,8,0:0:0:0:
479,138,92634,1,8,0:0:0:0:
479,138,92730,1,8,0:0:0:0:
459,141,92826,1,8,0:0:0:0:
366,143,93018,1,0,0:0:0:0:
268,180,93210,1,0,0:0:0:0:
428,74,93403,1,8,0:0:0:0:
446,141,93595,1,0,0:0:0:0:
332,173,93980,1,0,0:0:0:0:
406,139,94076,1,8,0:0:0:0:
464,149,94268,1,0,0:0:0:0:
412,122,94364,1,8,0:0:0:0:
237,62,94557,1,0,0:0:0:0:
433,130,94749,1,8,0:0:0:0:
228,50,94845,5,8,0:0:0:0:
474,151,94941,1,8,0:0:0:0:
442,143,95134,1,0,0:0:0:0:
392,136,95518,1,0,0:0:0:0:
500,160,95710,1,0,0:0:0:0:
123,71,95807,1,0,0:0:0:0:
100,74,95903,5,0,0:0:0:0:
434,169,96287,1,0,0:0:0:0:
504,164,96480,1,8,0:0:0:0:
412,156,96576,1,8,0:0:0:0:
477,158,96672,1,8,0:0:0:0:
303,210,96864,1,8,0:0:0:0:
156,35,97057,1,0,0:0:0:0:
256,192,97249,12,0,98403,0:0:0:0:
440,157,98595,5,8,0:0:0:0:
209,36,98980,1,0,0:0:0:0:
492,163,99364,1,8,0:0:0:0:
486,154,99749,1,0,0:0:0:0:
472,160,99941,1,8,0:0:0:0:
502,148,100326,1,0,0:0:0:0:
487,154,100710,1,8,0:0:0:0:
494,155,100903,1,0,0:0:0:0:
490,142,101095,1,8,0:0:0:0:
465,155,101287,1,8,0:0:0:0:
480,161,101672,1,0,0:0:0:0:
232,53,102057,1,8,0:0:0:0:
486,162,102441,1,0,0:0:0:0:
289,49,102634,1,8,0:0:0:0:
453,169,102826,1,0,0:0:0:0:
284,144,103403,1,8,0:0:0:0:
346,127,103595,1,0,0:0:0:0:
324,78,103980,1,0,0:0:0:0:
461,153,104364,1,8,0:0:0:0:
440,157,104749,5,8,0:0:0:0:
209,36,105134,1,0,0:0:0:0:
492,163,105518,1,8,0:0:0:0:
487,154,105903,1,0,0:0:0:0:
472,160,106095,1,8,0:0:0:0:
502,148,106480,1,0,0:0:0:0:
487,154,106864,1,8,0:0:0:0:
494,155,107057,1,0,0:0:0:0:
490,142,107249,1,8,0:0:0:0:
465,155,107441,1,8,0:0:0:0:
480,161,107826,1,0,0:0:0:0:
232,53,108210,1,8,0:0:0:0:
205,113,108595,1,0,0:0:0:0:
473,142,108787,1,8,0:0:0:0:
453,169,108980,1,8,0:0:0:0:
396,141,109364,1,0,0:0:0:0:
346,127,109749,1,8,0:0:0:0:
219,36,110134,1,0,0:0:0:0:
460,152,110518,1,8,0:0:0:0:
401,150,110710,1,8,0:0:0:0:
209,36,110903,1,4,0:0:0:0:
149,55,111095,1,8,0:0:0:0:
