osu file format v14

[General]
AudioFilename: audio.mp3
AudioLeadIn: 0
PreviewTime: 77372
Countdown: 0
SampleSet: Normal
StackLeniency: 0.7
Mode: 0
LetterboxInBreaks: 0
WidescreenStoryboard: 0

[Editor]
DistanceSpacing: 1.7
BeatDivisor: 2
GridSize: 4
TimelineZoom: 1

[Metadata]
Title:Future Vibes (feat. Stewart Wallace)
TitleUnicode:Future Vibes (feat. Stewart Wallace)
Artist:K.Safo/Alex Skrindo
ArtistUnicode:K.Safo/Alex Skrindo
Creator:NecrOphelia
Version:Easy
Source:
Tags:k. safo, alex, skrindo, edm, ncs, future, vibes, electro
BeatmapID:1067737
BeatmapSetID:501733

[Difficulty]
HPDrainRate:2
CircleSize:2
OverallDifficulty:1
ApproachRate:2
SliderMultiplier:0.999999904632566
SliderTickRate:1

[Events]
//Background and Video events
0,0,"above_the_lights_by_yuumei-d8rr0oe.jpg",0,0
//Break Periods
2,26980,40679
//Storyboard Layer 0 (Background)
//Storyboard Layer 1 (Fail)
//Storyboard Layer 2 (Pass)
//Storyboard Layer 3 (Foreground)
//Storyboard Sound Samples

[TimingPoints]
2422,468.438927274857,4,1,0,50,1,0
86770,-100,4,1,0,50,0,1
116252,-100,4,1,0,50,0,0

[Colours]
Combo1 : 198,112,243
Combo2 : 151,255,255
Combo3 : 151,213,142
Combo4 : 28,192,240

[HitObjects]
24,264,11790,6,0,P|0:216|16:152,2,99.9999904632566
160,312,13196,1,0,0:0:0:0:
296,312,13664,1,0,0:0:0:0:
384,208,14132,6,0,L|384:104,2,99.9999904632566
268,116,15538,1,0,0:0:0:0:
128,96,16006,2,0,L|56:96,2,49.9999952316283
172,284,16943,6,0,L|172:192,2,49.9999952316283
320,256,17880,2,0,B|360:272|420:264|420:264|404:316|420:368,2,199.999980926513
224,364,20222,6,0,L|96:364,1,99.9999904632566
92,288,20925,1,0,0:0:0:0:
76,212,21159,2,0,L|76:152,1,49.9999952316283
84,80,21627,2,0,L|224:80,1,99.9999904632566
336,76,22564,5,0,0:0:0:0:
440,152,23033,2,0,P|468:184|440:236,2,99.9999904632566
328,220,24438,6,0,P|292:180|300:124,1,99.9999904632566
256,192,25141,12,0,26780,0:0:0:0:
56,240,42239,6,0,P|48:168|64:128,1,99.9999904632566
188,100,43176,2,0,L|268:100,2,49.9999952316283
288,180,44113,2,0,B|288:252|288:252|204:252|204:252,2,149.999985694885
232,76,45986,6,0,L|136:76,2,49.9999952316283
264,244,46923,1,0,0:0:0:0:
264,244,47157,2,0,B|228:304|236:344|236:344|180:344|144:372,2,199.999980926513
272,168,49265,5,0,0:0:0:0:
140,200,49734,2,0,L|64:200,2,49.9999952316283
40,104,50671,2,0,L|40:-4,2,99.9999904632566
24,256,52076,6,0,L|144:256,2,99.9999904632566
40,108,53481,2,0,P|96:96|104:72,1,49.9999952316283
164,112,53950,2,0,P|192:132|228:128,1,49.9999952316283
352,112,54652,2,0,P|404:148|396:248,1,149.999985694885
16,196,56760,6,0,P|72:204|96:168,2,99.9999904632566
8,52,58166,1,0,0:0:0:0:
144,28,58634,1,0,0:0:0:0:
276,64,59103,2,0,P|232:88|208:140,2,99.9999904632566
444,172,60508,5,0,0:0:0:0:
328,264,60976,2,0,L|240:264,2,49.9999952316283
424,376,61913,2,0,P|484:364|500:316,2,99.9999904632566
288,376,63319,6,0,L|184:344,1,99.9999904632566
188,192,64255,2,0,P|108:168|40:252,2,199.999980926513
324,100,66598,6,0,L|400:100,2,49.9999952316283
324,176,67300,2,0,L|324:256,1,49.9999952316283
184,240,68003,2,0,B|144:284|144:324|144:324|88:312|32:308,2,199.999980926513
100,160,70345,6,0,L|-36:160,2,99.9999904632566
156,8,71750,1,0,0:0:0:0:
296,76,72219,2,0,B|320:116|340:112|388:96,2,99.9999904632566
176,116,73624,5,0,0:0:0:0:
244,232,74093,2,0,L|312:232,2,49.9999952316283
124,272,75030,1,0,0:0:0:0:
236,336,75498,2,0,B|296:340|328:372|328:372|364:344|380:320|456:336,2,199.999980926513
104,288,77840,5,0,0:0:0:0:
48,136,78309,1,0,0:0:0:0:
188,72,78777,2,0,L|244:72,1,49.9999952316283
296,128,79246,2,0,B|228:172|220:200|220:200|172:176|116:188,2,199.999980926513
380,252,81588,2,0,B|260:252|260:252|260:360,2,199.999980926513
256,192,83695,12,0,85804,0:0:0:0:
20,188,86740,6,0,P|0:128|24:96,2,99.9999904632566
168,176,88145,1,0,0:0:0:0:
304,148,88614,2,0,B|380:160|412:148|412:148|392:200|420:244,2,199.999980926513
248,280,90956,5,0,0:0:0:0:
136,236,91425,2,0,P|116:188|60:156,2,99.9999904632566
224,160,92830,2,0,P|168:120|124:92,2,99.9999904632566
332,188,94235,6,0,B|392:192|424:216|424:216|468:192|528:192,2,199.999980926513
188,196,96577,1,0,0:0:0:0:
224,56,97046,2,0,L|336:56,1,99.9999904632566
432,216,97983,6,0,L|324:216,2,99.9999904632566
304,328,99388,2,0,L|236:328,2,49.9999952316283
420,200,100325,2,0,P|364:228|380:284,2,99.9999904632566
368,44,101730,2,0,P|308:44|284:4,2,99.9999904632566
396,248,103135,6,0,P|308:216|292:232,1,99.9999904632566
248,352,104072,1,0,0:0:0:0:
100,316,104541,2,0,L|-40:316,1,99.9999904632566
0,160,105478,2,0,B|36:96|28:68|28:68|80:72|140:40,2,199.999980926513
136,252,107820,6,0,L|240:252,2,99.9999904632566
136,108,109225,2,0,P|96:64|52:64,2,99.9999904632566
204,252,110630,5,0,0:0:0:0:
360,188,111099,2,0,P|324:144|264:128,1,99.9999904632566
132,204,112036,2,0,P|132:264|188:292,2,99.9999904632566
60,88,113441,6,0,L|60:168,2,49.9999952316283
240,96,114378,2,0,B|304:124|336:104|336:104|312:184|364:232,2,199.999980926513
