osu file format v14

[General]
AudioFilename: NuiXance.mp3
AudioLeadIn: 0
PreviewTime: 67718
Countdown: 0
SampleSet: None
StackLeniency: 0.7
Mode: 1
LetterboxInBreaks: 0
WidescreenStoryboard: 0

[Editor]
DistanceSpacing: 4.8
BeatDivisor: 6
GridSize: 4
TimelineZoom: 1.5

[Metadata]
Title:NuiXance
TitleUnicode:NuiXance
Artist:K.Rekii
ArtistUnicode:K.Rekii
Creator:KyouRekii87
Version:Irritability
Source:
Tags:hardstyle hardcore kyourekii original
BeatmapID:1929247
BeatmapSetID:923819

[Difficulty]
HPDrainRate:6
CircleSize:5
OverallDifficulty:7
ApproachRate:5
SliderMultiplier:1.4
SliderTickRate:1

[Events]
//Background and Video events
0,0,"volcano-hd-wallpapers-09755.jpg",0,0
//Break Periods
//Storyboard Layer 0 (Background)
//Storyboard Layer 1 (Fail)
//Storyboard Layer 2 (Pass)
//Storyboard Layer 3 (Foreground)
//Storyboard Sound Samples

[TimingPoints]
861,428.571428571429,4,1,0,100,1,0
7718,-90.9090909090909,4,1,0,100,0,0
12861,-90.0900900900901,4,1,0,100,0,0
12932,-89.2857142857143,4,1,0,100,0,0
13003,-88.4955752212389,4,1,0,100,0,0
13146,-87.719298245614,4,1,0,100,0,0
13289,-86.9565217391304,4,1,0,100,0,0
13361,-86.2068965517241,4,1,0,100,0,0
13432,-85.4700854700855,4,1,0,100,0,0
13575,-84.7457627118644,4,1,0,100,0,0
13718,-84.0336134453781,4,1,0,100,0,0
13789,-83.3333333333333,4,1,0,100,0,0
13861,-82.6446280991736,4,1,0,100,0,0
13932,-81.9672131147541,4,1,0,100,0,0
14003,-81.3008130081301,4,1,0,100,0,0
14075,-80.6451612903226,4,1,0,100,0,0
14146,-80,4,1,0,100,0,0
14218,-79.3650793650794,4,1,0,100,0,0
14289,-78.7401574803149,4,1,0,100,0,0
14361,-78.125,4,1,0,100,0,0
14432,-77.5193798449612,4,1,0,100,0,0
14503,-76.9230769230769,4,1,0,100,0,0
14575,-76.3358778625954,4,1,0,100,0,0
30003,-90.9090909090909,4,1,0,100,0,0
31718,-76.3358778625954,4,1,0,100,0,0
33432,-90.9090909090909,4,1,0,100,0,0
35146,-76.3358778625954,4,1,0,100,0,0
38575,-75.7575757575758,4,1,0,100,0,0
38861,-75.187969924812,4,1,0,100,0,0
39003,-74.6268656716418,4,1,0,100,0,0
39289,-74.0740740740741,4,1,0,100,0,0
39432,-73.5294117647059,4,1,0,100,0,0
39503,-72.992700729927,4,1,0,100,0,0
39575,-72.463768115942,4,1,0,100,0,0
39646,-71.9424460431655,4,1,0,100,0,0
39718,-71.4285714285714,4,1,0,100,0,0
39789,-70.9219858156028,4,1,0,100,0,0
39861,-70.4225352112676,4,1,0,100,0,0
39932,-69.9300699300699,4,1,0,100,0,0
40003,-69.4444444444444,4,1,0,100,0,0
40075,-68.9655172413793,4,1,0,100,0,0
40146,-68.4931506849315,4,1,0,100,0,0
40218,-68.0272108843537,4,1,0,100,0,0
40289,-50,4,1,0,100,0,0
42289,-71.4285714285714,4,1,0,100,0,0
52289,-81.3008130081301,4,1,0,100,0,0
54003,-80.6451612903226,4,1,0,100,0,0
54289,-80,4,1,0,100,0,0
54432,-79.3650793650794,4,1,0,100,0,0
54718,-78.7401574803149,4,1,0,100,0,0
54861,-78.125,4,1,0,100,0,0
54932,-77.5193798449612,4,1,0,100,0,0
55003,-76.9230769230769,4,1,0,100,0,0
55075,-76.3358778625954,4,1,0,100,0,0
55146,-75.7575757575758,4,1,0,100,0,0
55218,-75.187969924812,4,1,0,100,0,0
55289,-74.6268656716418,4,1,0,100,0,0
55361,-74.0740740740741,4,1,0,100,0,0
55432,-73.5294117647059,4,1,0,100,0,0
55503,-72.992700729927,4,1,0,100,0,0
55575,-72.463768115942,4,1,0,100,0,0
55646,-71.9424460431655,4,1,0,100,0,0
55718,-71.4285714285714,4,1,0,100,0,0
66003,-81.3008130081301,4,1,0,100,0,0
67718,-80.6451612903226,4,1,0,100,0,0
68003,-80,4,1,0,100,0,0
68146,-79.3650793650794,4,1,0,100,0,0
68432,-78.7401574803149,4,1,0,100,0,0
68575,-78.125,4,1,0,100,0,0
68646,-77.5193798449612,4,1,0,100,0,0
68718,-76.9230769230769,4,1,0,100,0,0
68789,-76.3358778625954,4,1,0,100,0,0
68861,-75.7575757575758,4,1,0,100,0,0
68932,-75.187969924812,4,1,0,100,0,0
69003,-74.6268656716418,4,1,0,100,0,0
69075,-74.0740740740741,4,1,0,100,0,0
69146,-73.5294117647059,4,1,0,100,0,0
69218,-72.992700729927,4,1,0,100,0,0
69289,-72.463768115942,4,1,0,100,0,0
69361,-71.9424460431655,4,1,0,100,0,0
69432,-71.4285714285714,4,1,0,100,0,1
82503,-70.9219858156028,4,1,0,100,0,1
82575,-70.4225352112676,4,1,0,100,0,1
82646,-69.9300699300699,4,1,0,100,0,1
82718,-69.4444444444444,4,1,0,100,0,1
82789,-68.9655172413793,4,1,0,100,0,1
82861,-68.4931506849315,4,1,0,100,0,1
82932,-68.0272108843537,4,1,0,100,0,1
83003,-67.5675675675676,4,1,0,100,0,1
83075,-67.1140939597315,4,1,0,100,0,1
83146,-66.6666666666667,4,1,0,100,0,1
96861,-66.6666666666667,4,1,0,100,0,0
97146,-71.4285714285714,4,1,0,100,0,0
107146,-81.3008130081301,4,1,0,100,0,0
108861,-80.6451612903226,4,1,0,100,0,0
108932,-80,4,1,0,100,0,0
109003,-79.3650793650794,4,1,0,100,0,0
109075,-78.7401574803149,4,1,0,100,0,0
109146,-78.125,4,1,0,100,0,0
109289,-77.5193798449612,4,1,0,100,0,0
109361,-76.9230769230769,4,1,0,100,0,0
109432,-76.3358778625954,4,1,0,100,0,0
109503,-75.7575757575758,4,1,0,100,0,0
109575,-75.187969924812,4,1,0,100,0,0
109718,-74.6268656716418,4,1,0,100,0,0
109789,-74.0740740740741,4,1,0,100,0,0
109861,-73.5294117647059,4,1,0,100,0,0
109932,-72.992700729927,4,1,0,100,0,0
110003,-72.463768115942,4,1,0,100,0,0
110075,-71.9424460431655,4,1,0,100,0,0
110146,-71.4285714285714,4,1,0,100,0,0
110218,-70.9219858156028,4,1,0,100,0,0
110289,-70.4225352112676,4,1,0,100,0,0
110361,-69.9300699300699,4,1,0,100,0,0
110432,-69.4444444444444,4,1,0,100,0,0
110575,-66.6666666666667,4,1,0,100,0,0

[HitObjects]
225,192,861,5,8,0:0:0:0:
225,192,1289,1,0,0:0:0:0:
225,192,1575,1,0,0:0:0:0:
225,192,1718,1,8,0:0:0:0:
225,192,2003,1,0,0:0:0:0:
225,192,2146,1,8,0:0:0:0:
225,192,2432,1,8,0:0:0:0:
225,192,2575,1,8,0:0:0:0:
225,192,3003,1,0,0:0:0:0:
225,192,3289,1,0,0:0:0:0:
225,192,3432,1,8,0:0:0:0:
225,192,3575,1,0,0:0:0:0:
157,151,3718,1,8,0:0:0:0:
225,192,3861,1,8,0:0:0:0:
225,192,4146,1,8,0:0:0:0:
225,192,4289,1,0,0:0:0:0:
225,192,4718,1,0,0:0:0:0:
225,192,5003,1,0,0:0:0:0:
225,192,5146,1,8,0:0:0:0:
225,192,5432,1,0,0:0:0:0:
225,192,5575,1,8,0:0:0:0:
225,192,5861,1,8,0:0:0:0:
225,192,6003,1,0,0:0:0:0:
225,192,6432,1,8,0:0:0:0:
225,192,6718,1,0,0:0:0:0:
225,192,6861,1,8,0:0:0:0:
225,192,7146,1,0,0:0:0:0:
242,185,7289,1,8,0:0:0:0:
225,192,7575,1,8,0:0:0:0:
225,192,7718,1,12,0:0:0:0:
157,151,8146,1,0,0:0:0:0:
157,151,8289,1,0,0:0:0:0:
157,151,8432,1,0,0:0:0:0:
157,151,8575,1,8,0:0:0:0:
157,151,8718,1,0,0:0:0:0:
157,151,8861,1,0,0:0:0:0:
157,151,9003,1,8,0:0:0:0:
157,151,9289,1,8,0:0:0:0:
157,151,9432,1,12,0:0:0:0:
157,151,9861,1,0,0:0:0:0:
157,151,10003,1,0,0:0:0:0:
157,151,10146,1,0,0:0:0:0:
157,151,10289,1,8,0:0:0:0:
157,151,10432,1,0,0:0:0:0:
157,151,10575,1,8,0:0:0:0:
157,151,10718,1,8,0:0:0:0:
157,151,11003,1,8,0:0:0:0:
157,151,11146,1,8,0:0:0:0:
157,151,11289,1,0,0:0:0:0:
157,151,11432,1,0,0:0:0:0:
157,151,11575,1,8,0:0:0:0:
157,151,11718,1,0,0:0:0:0:
157,151,11861,1,0,0:0:0:0:
157,151,12003,1,8,0:0:0:0:
157,151,12146,1,8,0:0:0:0:
157,151,12289,1,0,0:0:0:0:
157,151,12432,1,8,0:0:0:0:
157,151,12575,1,8,0:0:0:0:
157,151,12718,1,8,0:0:0:0:
296,210,12861,1,0,0:0:0:0:
296,210,12932,1,0,0:0:0:0:
93,143,13003,1,0,0:0:0:0:
93,143,13146,1,8,0:0:0:0:
296,210,13289,1,0,0:0:0:0:
296,210,13361,1,0,0:0:0:0:
296,210,13432,1,0,0:0:0:0:
355,166,13575,1,8,0:0:0:0:
335,134,13718,1,0,0:0:0:0:
335,134,13789,1,0,0:0:0:0:
335,134,13861,1,8,0:0:0:0:
335,134,13932,1,0,0:0:0:0:
335,134,14003,1,8,0:0:0:0:
335,134,14075,1,8,0:0:0:0:
335,134,14146,1,0,0:0:0:0:
335,134,14218,1,0,0:0:0:0:
335,134,14289,1,8,0:0:0:0:
335,134,14361,1,0,0:0:0:0:
335,134,14432,1,8,0:0:0:0:
335,134,14503,1,8,0:0:0:0:
335,134,14575,1,0,0:0:0:0:
346,230,14861,1,0,0:0:0:0:
346,230,15003,1,8,0:0:0:0:
346,230,15289,1,0,0:0:0:0:
346,230,15432,1,8,0:0:0:0:
346,230,15575,1,0,0:0:0:0:
346,230,15718,1,0,0:0:0:0:
346,230,15861,1,8,0:0:0:0:
346,230,16146,1,8,0:0:0:0:
346,230,16289,1,8,0:0:0:0:
346,230,16575,1,0,0:0:0:0:
346,230,16718,1,8,0:0:0:0:
346,230,17003,1,0,0:0:0:0:
346,230,17146,1,8,0:0:0:0:
346,230,17289,1,0,0:0:0:0:
346,230,17432,1,8,0:0:0:0:
346,230,17575,1,8,0:0:0:0:
346,230,17861,1,8,0:0:0:0:
346,230,18003,1,0,0:0:0:0:
346,230,18289,1,0,0:0:0:0:
346,230,18432,1,8,0:0:0:0:
346,230,18718,1,0,0:0:0:0:
346,230,18861,1,8,0:0:0:0:
346,230,19003,1,0,0:0:0:0:
346,230,19146,1,0,0:0:0:0:
346,230,19289,1,8,0:0:0:0:
346,230,19575,1,8,0:0:0:0:
346,230,19718,1,0,0:0:0:0:
346,230,20003,1,0,0:0:0:0:
346,230,20146,1,8,0:0:0:0:
346,230,20432,1,0,0:0:0:0:
346,230,20575,1,8,0:0:0:0:
346,230,20718,1,0,0:0:0:0:
346,230,20861,1,0,0:0:0:0:
346,230,21003,1,8,0:0:0:0:
346,230,21146,1,0,0:0:0:0:
346,230,21289,1,8,0:0:0:0:
346,230,21432,1,8,0:0:0:0:
346,230,21718,1,0,0:0:0:0:
346,230,21861,1,8,0:0:0:0:
346,230,22146,1,0,0:0:0:0:
346,230,22289,1,8,0:0:0:0:
346,230,22432,1,0,0:0:0:0:
346,230,22575,1,0,0:0:0:0:
346,230,22718,1,8,0:0:0:0:
346,230,23003,1,8,0:0:0:0:
346,230,23146,1,8,0:0:0:0:
346,230,23432,1,0,0:0:0:0:
346,230,23575,1,8,0:0:0:0:
346,230,23861,1,0,0:0:0:0:
346,230,24003,1,8,0:0:0:0:
346,230,24146,1,0,0:0:0:0:
346,230,24289,1,8,0:0:0:0:
346,230,24432,1,8,0:0:0:0:
346,230,24718,1,8,0:0:0:0:
346,230,24861,1,0,0:0:0:0:
346,230,25146,1,0,0:0:0:0:
346,230,25289,1,8,0:0:0:0:
346,230,25575,1,0,0:0:0:0:
346,230,25718,1,8,0:0:0:0:
346,230,25861,1,0,0:0:0:0:
346,230,26003,1,0,0:0:0:0:
346,230,26146,1,8,0:0:0:0:
346,230,26432,1,8,0:0:0:0:
218,207,26575,1,0,0:0:0:0:
218,207,26718,1,0,0:0:0:0:
218,207,26861,1,0,0:0:0:0:
218,207,27003,1,8,0:0:0:0:
218,207,27146,1,8,0:0:0:0:
218,207,27289,1,8,0:0:0:0:
330,115,27432,1,0,0:0:0:0:
330,115,27503,1,0,0:0:0:0:
330,115,27575,1,8,0:0:0:0:
330,115,27646,1,0,0:0:0:0:
330,115,27718,1,8,0:0:0:0:
330,115,27789,1,8,0:0:0:0:
330,115,27861,1,0,0:0:0:0:
330,115,27932,1,0,0:0:0:0:
330,115,28003,1,8,0:0:0:0:
330,115,28075,1,0,0:0:0:0:
330,115,28146,1,8,0:0:0:0:
330,115,28218,1,8,0:0:0:0:
330,115,28289,1,0,0:0:0:0:
349,159,28575,1,0,0:0:0:0:
349,159,28718,1,8,0:0:0:0:
349,159,29003,1,0,0:0:0:0:
349,159,29146,1,8,0:0:0:0:
349,159,29289,1,0,0:0:0:0:
349,159,29432,1,0,0:0:0:0:
349,159,29575,1,8,0:0:0:0:
349,159,29861,1,0,0:0:0:0:
251,151,30003,1,8,0:0:0:0:
251,151,30289,1,8,0:0:0:0:
251,151,30361,1,8,0:0:0:0:
251,151,30432,1,8,0:0:0:0:
251,151,30575,1,8,0:0:0:0:
251,151,30718,1,8,0:0:0:0:
251,151,30861,1,8,0:0:0:0:
251,151,31003,1,8,0:0:0:0:
251,151,31146,1,8,0:0:0:0:
251,151,31289,1,12,0:0:0:0:
330,115,31718,1,0,0:0:0:0:
349,159,32003,1,0,0:0:0:0:
349,159,32146,1,8,0:0:0:0:
349,159,32432,1,0,0:0:0:0:
349,159,32575,1,8,0:0:0:0:
349,159,32718,1,0,0:0:0:0:
349,159,32861,1,0,0:0:0:0:
349,159,33003,1,8,0:0:0:0:
349,159,33289,1,0,0:0:0:0:
251,151,33432,1,8,0:0:0:0:
251,151,33718,1,8,0:0:0:0:
251,151,33789,1,8,0:0:0:0:
251,151,33861,1,8,0:0:0:0:
251,151,34003,1,8,0:0:0:0:
251,151,34146,1,8,0:0:0:0:
251,151,34289,1,8,0:0:0:0:
251,151,34432,1,8,0:0:0:0:
251,151,34575,1,8,0:0:0:0:
251,151,34718,1,12,0:0:0:0:
352,138,35146,1,8,0:0:0:0:
352,138,35289,1,0,0:0:0:0:
352,138,35432,1,0,0:0:0:0:
352,138,35575,1,8,0:0:0:0:
352,138,35718,1,0,0:0:0:0:
352,138,35861,1,8,0:0:0:0:
352,138,36003,1,8,0:0:0:0:
352,138,36146,1,0,0:0:0:0:
352,138,36289,1,0,0:0:0:0:
352,138,36432,1,8,0:0:0:0:
352,138,36575,1,0,0:0:0:0:
352,138,36718,1,8,0:0:0:0:
352,138,36861,1,8,0:0:0:0:
352,138,37003,1,8,0:0:0:0:
352,138,37146,1,0,0:0:0:0:
352,138,37289,1,8,0:0:0:0:
352,138,37432,1,0,0:0:0:0:
352,138,37575,1,8,0:0:0:0:
352,138,37718,1,8,0:0:0:0:
352,138,37861,1,8,0:0:0:0:
352,138,38003,1,0,0:0:0:0:
352,138,38146,1,8,0:0:0:0:
352,138,38289,1,0,0:0:0:0:
352,138,38432,1,8,0:0:0:0:
317,169,38575,1,0,0:0:0:0:
317,169,38646,1,0,0:0:0:0:
317,169,38718,1,0,0:0:0:0:
317,169,38861,1,8,0:0:0:0:
317,169,39003,1,0,0:0:0:0:
317,169,39075,1,0,0:0:0:0:
317,169,39146,1,0,0:0:0:0:
317,169,39289,1,8,0:0:0:0:
317,169,39432,1,0,0:0:0:0:
317,169,39503,1,0,0:0:0:0:
317,169,39575,1,8,0:0:0:0:
317,169,39646,1,0,0:0:0:0:
317,169,39718,1,8,0:0:0:0:
317,169,39789,1,8,0:0:0:0:
317,169,39861,1,0,0:0:0:0:
317,169,39932,1,0,0:0:0:0:
317,169,40003,1,8,0:0:0:0:
317,169,40075,1,0,0:0:0:0:
317,169,40146,1,8,0:0:0:0:
317,169,40218,1,8,0:0:0:0:
256,192,40289,12,0,40932,0:0:0:0:
336,177,41146,5,12,0:0:0:0:
336,177,41575,1,12,0:0:0:0:
336,177,42003,1,4,0:0:0:0:
293,146,42289,1,8,0:0:0:0:
293,146,42361,1,8,0:0:0:0:
293,146,42432,1,8,0:0:0:0:
332,169,42575,1,0,0:0:0:0:
332,169,42718,1,0,0:0:0:0:
233,112,42861,1,8,0:0:0:0:
233,112,43003,1,0,0:0:0:0:
233,112,43146,1,0,0:0:0:0:
233,112,43289,1,8,0:0:0:0:
233,112,43361,1,8,0:0:0:0:
233,112,43432,1,8,0:0:0:0:
233,112,43575,1,0,0:0:0:0:
233,112,43718,1,8,0:0:0:0:
233,112,43789,1,0,0:0:0:0:
233,112,43861,1,0,0:0:0:0:
233,112,44003,1,0,0:0:0:0:
233,112,44146,1,8,0:0:0:0:
233,112,44218,1,8,0:0:0:0:
233,112,44289,1,0,0:0:0:0:
233,112,44432,1,0,0:0:0:0:
233,112,44575,1,8,0:0:0:0:
233,112,44646,1,8,0:0:0:0:
233,112,44718,1,0,0:0:0:0:
233,112,44789,1,0,0:0:0:0:
233,112,44861,1,0,0:0:0:0:
233,112,45003,1,12,0:0:0:0:
343,207,45432,1,12,0:0:0:0:
343,207,45575,1,0,0:0:0:0:
343,207,45646,1,0,0:0:0:0:
343,207,45718,1,0,0:0:0:0:
343,207,45861,1,8,0:0:0:0:
343,207,46003,1,0,0:0:0:0:
343,207,46146,1,8,0:0:0:0:
192,82,46289,1,8,0:0:0:0:
192,82,46361,1,8,0:0:0:0:
192,82,46432,1,8,0:0:0:0:
192,82,46575,1,0,0:0:0:0:
192,82,46718,1,8,0:0:0:0:
192,82,46789,1,8,0:0:0:0:
192,82,46861,1,0,0:0:0:0:
192,82,46932,1,0,0:0:0:0:
192,82,47003,1,0,0:0:0:0:
192,82,47146,1,8,0:0:0:0:
192,82,47289,1,0,0:0:0:0:
192,82,47361,1,0,0:0:0:0:
192,82,47432,1,0,0:0:0:0:
186,39,47575,1,8,0:0:0:0:
186,39,47646,1,8,0:0:0:0:
186,39,47718,1,0,0:0:0:0:
186,39,47861,1,0,0:0:0:0:
186,39,48003,1,8,0:0:0:0:
186,39,48075,1,8,0:0:0:0:
186,39,48146,1,8,0:0:0:0:
186,39,48218,1,0,0:0:0:0:
186,39,48289,1,0,0:0:0:0:
223,117,48361,1,0,0:0:0:0:
186,39,48432,1,8,0:0:0:0:
315,95,48861,1,12,0:0:0:0:
315,95,49003,1,8,0:0:0:0:
315,95,49075,1,8,0:0:0:0:
315,95,49146,1,8,0:0:0:0:
223,117,49289,1,0,0:0:0:0:
223,117,49432,1,8,0:0:0:0:
223,117,49503,1,8,0:0:0:0:
223,117,49575,1,8,0:0:0:0:
223,117,49718,1,8,0:0:0:0:
223,117,49789,1,8,0:0:0:0:
223,117,49861,1,0,0:0:0:0:
223,117,50003,1,0,0:0:0:0:
223,117,50146,1,8,0:0:0:0:
223,117,50218,1,8,0:0:0:0:
223,117,50289,1,0,0:0:0:0:
223,117,50432,1,0,0:0:0:0:
223,117,50575,1,8,0:0:0:0:
223,117,50646,1,8,0:0:0:0:
223,117,50718,1,8,0:0:0:0:
223,117,50789,1,8,0:0:0:0:
223,117,50861,1,0,0:0:0:0:
223,117,51003,1,8,0:0:0:0:
223,117,51075,1,8,0:0:0:0:
223,117,51146,1,0,0:0:0:0:
223,117,51218,1,0,0:0:0:0:
223,117,51289,1,0,0:0:0:0:
223,117,51432,1,8,0:0:0:0:
223,117,51503,1,8,0:0:0:0:
223,117,51575,1,8,0:0:0:0:
223,117,51646,1,0,0:0:0:0:
223,117,51718,1,0,0:0:0:0:
223,117,51789,1,0,0:0:0:0:
223,117,51861,1,8,0:0:0:0:
372,167,52289,1,12,0:0:0:0:
330,140,52432,1,0,0:0:0:0:
372,167,52575,1,12,0:0:0:0:
330,140,52718,1,0,0:0:0:0:
372,167,52861,1,12,0:0:0:0:
372,167,53146,1,4,0:0:0:0:
313,188,53289,1,0,0:0:0:0:
372,167,53432,1,12,0:0:0:0:
276,169,53575,1,0,0:0:0:0:
372,167,53718,1,12,0:0:0:0:
265,178,54003,1,0,0:0:0:0:
265,178,54075,1,0,0:0:0:0:
265,178,54146,1,0,0:0:0:0:
265,178,54289,1,8,0:0:0:0:
265,178,54432,1,0,0:0:0:0:
265,178,54503,1,0,0:0:0:0:
265,178,54575,1,0,0:0:0:0:
265,178,54718,1,8,0:0:0:0:
265,178,54861,1,0,0:0:0:0:
265,178,54932,1,0,0:0:0:0:
265,178,55003,1,8,0:0:0:0:
265,178,55075,1,0,0:0:0:0:
265,178,55146,1,8,0:0:0:0:
265,178,55218,1,8,0:0:0:0:
265,178,55289,1,0,0:0:0:0:
265,178,55361,1,0,0:0:0:0:
265,178,55432,1,8,0:0:0:0:
265,178,55503,1,0,0:0:0:0:
265,178,55575,1,8,0:0:0:0:
265,178,55718,1,4,0:0:0:0:
293,146,56003,1,8,0:0:0:0:
293,146,56075,1,8,0:0:0:0:
293,146,56146,1,8,0:0:0:0:
332,169,56289,1,0,0:0:0:0:
332,169,56432,1,0,0:0:0:0:
233,112,56575,1,8,0:0:0:0:
233,112,56718,1,0,0:0:0:0:
233,112,56861,1,0,0:0:0:0:
233,112,57003,1,8,0:0:0:0:
233,112,57075,1,8,0:0:0:0:
233,112,57146,1,8,0:0:0:0:
233,112,57289,1,0,0:0:0:0:
233,112,57432,1,8,0:0:0:0:
233,112,57503,1,0,0:0:0:0:
233,112,57575,1,0,0:0:0:0:
233,112,57718,1,0,0:0:0:0:
233,112,57861,1,8,0:0:0:0:
233,112,57932,1,8,0:0:0:0:
233,112,58003,1,0,0:0:0:0:
233,112,58146,1,0,0:0:0:0:
233,112,58289,1,8,0:0:0:0:
233,112,58361,1,8,0:0:0:0:
233,112,58432,1,0,0:0:0:0:
233,112,58503,1,0,0:0:0:0:
233,112,58575,1,0,0:0:0:0:
233,112,58718,1,12,0:0:0:0:
343,207,59146,1,12,0:0:0:0:
343,207,59289,1,0,0:0:0:0:
343,207,59361,1,0,0:0:0:0:
343,207,59432,1,0,0:0:0:0:
343,207,59575,1,8,0:0:0:0:
343,207,59718,1,0,0:0:0:0:
343,207,59861,1,8,0:0:0:0:
192,82,60003,1,8,0:0:0:0:
192,82,60075,1,8,0:0:0:0:
192,82,60146,1,8,0:0:0:0:
192,82,60289,1,0,0:0:0:0:
192,82,60432,1,8,0:0:0:0:
192,82,60503,1,8,0:0:0:0:
192,82,60575,1,0,0:0:0:0:
192,82,60646,1,0,0:0:0:0:
192,82,60718,1,0,0:0:0:0:
192,82,60861,1,8,0:0:0:0:
192,82,61003,1,0,0:0:0:0:
192,82,61075,1,0,0:0:0:0:
192,82,61146,1,0,0:0:0:0:
186,39,61289,1,8,0:0:0:0:
186,39,61361,1,8,0:0:0:0:
186,39,61432,1,0,0:0:0:0:
186,39,61575,1,0,0:0:0:0:
186,39,61718,1,8,0:0:0:0:
186,39,61789,1,8,0:0:0:0:
186,39,61861,1,8,0:0:0:0:
186,39,61932,1,0,0:0:0:0:
186,39,62003,1,0,0:0:0:0:
223,117,62075,1,0,0:0:0:0:
186,39,62146,1,8,0:0:0:0:
315,95,62575,1,12,0:0:0:0:
315,95,62718,1,8,0:0:0:0:
315,95,62789,1,8,0:0:0:0:
315,95,62861,1,8,0:0:0:0:
223,117,63003,1,0,0:0:0:0:
223,117,63146,1,8,0:0:0:0:
223,117,63218,1,8,0:0:0:0:
223,117,63289,1,8,0:0:0:0:
223,117,63432,1,8,0:0:0:0:
223,117,63503,1,8,0:0:0:0:
223,117,63575,1,0,0:0:0:0:
223,117,63718,1,0,0:0:0:0:
223,117,63861,1,8,0:0:0:0:
223,117,63932,1,8,0:0:0:0:
223,117,64003,1,0,0:0:0:0:
223,117,64146,1,0,0:0:0:0:
223,117,64289,1,8,0:0:0:0:
223,117,64361,1,8,0:0:0:0:
223,117,64432,1,8,0:0:0:0:
223,117,64503,1,8,0:0:0:0:
223,117,64575,1,0,0:0:0:0:
223,117,64718,1,8,0:0:0:0:
223,117,64789,1,8,0:0:0:0:
223,117,64861,1,0,0:0:0:0:
223,117,64932,1,0,0:0:0:0:
223,117,65003,1,0,0:0:0:0:
223,117,65146,1,8,0:0:0:0:
223,117,65218,1,8,0:0:0:0:
223,117,65289,1,8,0:0:0:0:
223,117,65361,1,0,0:0:0:0:
223,117,65432,1,0,0:0:0:0:
223,117,65503,1,0,0:0:0:0:
223,117,65575,1,8,0:0:0:0:
311,174,66003,1,0,0:0:0:0:
311,174,66146,1,0,0:0:0:0:
311,174,66289,1,0,0:0:0:0:
311,174,66432,1,8,0:0:0:0:
311,174,66575,1,0,0:0:0:0:
311,174,66718,1,0,0:0:0:0:
311,174,66861,1,8,0:0:0:0:
311,174,67003,1,0,0:0:0:0:
311,174,67146,1,8,0:0:0:0:
311,174,67289,1,8,0:0:0:0:
311,174,67432,1,0,0:0:0:0:
311,174,67575,1,8,0:0:0:0:
202,196,67718,1,0,0:0:0:0:
202,196,67789,1,0,0:0:0:0:
202,196,67861,1,0,0:0:0:0:
202,196,68003,1,8,0:0:0:0:
202,196,68146,1,0,0:0:0:0:
202,196,68218,1,0,0:0:0:0:
202,196,68289,1,0,0:0:0:0:
202,196,68432,1,8,0:0:0:0:
202,196,68575,1,0,0:0:0:0:
202,196,68646,1,0,0:0:0:0:
202,196,68718,1,8,0:0:0:0:
202,196,68789,1,0,0:0:0:0:
202,196,68861,1,8,0:0:0:0:
202,196,68932,1,8,0:0:0:0:
202,196,69003,1,0,0:0:0:0:
202,196,69075,1,0,0:0:0:0:
202,196,69146,1,8,0:0:0:0:
202,196,69218,1,0,0:0:0:0:
202,196,69289,1,8,0:0:0:0:
202,196,69361,1,8,0:0:0:0:
202,196,69432,1,0,0:0:0:0:
369,177,69718,1,0,0:0:0:0:
369,177,69861,1,8,0:0:0:0:
369,177,70003,1,0,0:0:0:0:
369,177,70146,1,8,0:0:0:0:
369,177,70289,1,8,0:0:0:0:
369,177,70432,1,0,0:0:0:0:
235,207,70503,1,0,0:0:0:0:
369,177,70575,1,0,0:0:0:0:
213,95,70718,1,8,0:0:0:0:
213,95,71003,1,0,0:0:0:0:
213,95,71146,1,0,0:0:0:0:
213,95,71432,1,0,0:0:0:0:
213,95,71575,1,8,0:0:0:0:
213,95,71718,1,0,0:0:0:0:
213,95,71861,1,0,0:0:0:0:
213,95,72003,1,8,0:0:0:0:
213,95,72146,1,0,0:0:0:0:
235,207,72218,1,0,0:0:0:0:
213,95,72289,1,8,0:0:0:0:
213,95,72432,1,8,0:0:0:0:
213,95,72718,1,0,0:0:0:0:
213,95,72861,1,8,0:0:0:0:
213,95,73146,1,0,0:0:0:0:
213,95,73289,1,8,0:0:0:0:
213,95,73432,1,0,0:0:0:0:
213,95,73575,1,0,0:0:0:0:
213,95,73718,1,8,0:0:0:0:
213,95,73861,1,0,0:0:0:0:
235,207,73932,1,8,0:0:0:0:
213,95,74003,1,8,0:0:0:0:
213,95,74146,1,8,0:0:0:0:
213,95,74432,1,8,0:0:0:0:
213,95,74575,1,0,0:0:0:0:
213,95,74861,1,0,0:0:0:0:
213,95,75003,1,8,0:0:0:0:
213,95,75146,1,0,0:0:0:0:
213,95,75289,1,0,0:0:0:0:
213,95,75432,1,8,0:0:0:0:
213,95,75575,1,0,0:0:0:0:
235,207,75646,1,0,0:0:0:0:
213,95,75718,1,8,0:0:0:0:
213,95,75861,1,0,0:0:0:0:
213,95,76146,1,8,0:0:0:0:
213,95,76289,1,8,0:0:0:0:
369,177,76575,1,0,0:0:0:0:
369,177,76718,1,8,0:0:0:0:
369,177,76861,1,0,0:0:0:0:
369,177,77003,1,8,0:0:0:0:
369,177,77146,1,8,0:0:0:0:
369,177,77289,1,0,0:0:0:0:
235,207,77361,1,0,0:0:0:0:
369,177,77432,1,0,0:0:0:0:
213,95,77575,1,8,0:0:0:0:
213,95,77861,1,0,0:0:0:0:
213,95,78003,1,0,0:0:0:0:
213,95,78289,1,0,0:0:0:0:
213,95,78432,1,8,0:0:0:0:
213,95,78575,1,0,0:0:0:0:
213,95,78718,1,0,0:0:0:0:
213,95,78861,1,8,0:0:0:0:
213,95,79003,1,0,0:0:0:0:
235,207,79075,1,0,0:0:0:0:
213,95,79146,1,8,0:0:0:0:
213,95,79289,1,8,0:0:0:0:
213,95,79575,1,0,0:0:0:0:
213,95,79718,1,8,0:0:0:0:
377,171,79861,1,0,0:0:0:0:
377,171,80003,1,0,0:0:0:0:
377,171,80146,1,8,0:0:0:0:
377,171,80289,1,0,0:0:0:0:
377,171,80432,1,8,0:0:0:0:
377,171,80575,1,8,0:0:0:0:
377,171,80718,1,0,0:0:0:0:
377,171,80861,1,8,0:0:0:0:
377,171,81003,1,8,0:0:0:0:
377,171,81146,1,8,0:0:0:0:
377,171,81289,1,0,0:0:0:0:
275,165,81432,1,0,0:0:0:0:
275,165,81503,1,0,0:0:0:0:
275,165,81575,1,0,0:0:0:0:
275,165,81718,1,8,0:0:0:0:
275,165,81861,1,0,0:0:0:0:
275,165,81932,1,0,0:0:0:0:
275,165,82003,1,0,0:0:0:0:
275,165,82146,1,8,0:0:0:0:
275,165,82289,1,0,0:0:0:0:
275,165,82361,1,0,0:0:0:0:
275,165,82432,1,8,0:0:0:0:
275,165,82503,1,0,0:0:0:0:
275,165,82575,1,8,0:0:0:0:
275,165,82646,1,8,0:0:0:0:
275,165,82718,1,0,0:0:0:0:
275,165,82789,1,0,0:0:0:0:
275,165,82861,1,8,0:0:0:0:
275,165,82932,1,0,0:0:0:0:
275,165,83003,1,8,0:0:0:0:
275,165,83075,1,8,0:0:0:0:
275,165,83146,1,0,0:0:0:0:
351,88,83432,1,0,0:0:0:0:
351,88,83575,1,8,0:0:0:0:
351,88,83718,1,0,0:0:0:0:
351,88,83861,1,0,0:0:0:0:
351,88,84003,1,8,0:0:0:0:
351,88,84075,1,0,0:0:0:0:
351,88,84146,1,0,0:0:0:0:
351,88,84289,1,8,0:0:0:0:
351,88,84432,1,8,0:0:0:0:
351,88,84503,1,8,0:0:0:0:
351,88,84575,1,0,0:0:0:0:
351,88,84718,1,8,0:0:0:0:
351,88,84861,1,8,0:0:0:0:
351,88,85146,1,0,0:0:0:0:
351,88,85289,1,8,0:0:0:0:
351,88,85432,1,0,0:0:0:0:
351,88,85575,1,8,0:0:0:0:
351,88,85718,1,8,0:0:0:0:
351,88,85789,1,8,0:0:0:0:
351,88,85861,1,0,0:0:0:0:
351,88,86003,1,8,0:0:0:0:
351,88,86146,1,8,0:0:0:0:
351,88,86218,1,0,0:0:0:0:
351,88,86289,1,8,0:0:0:0:
351,88,86432,1,8,0:0:0:0:
351,88,86575,1,0,0:0:0:0:
351,88,86861,1,0,0:0:0:0:
351,88,87003,1,8,0:0:0:0:
351,88,87146,1,0,0:0:0:0:
351,88,87289,1,0,0:0:0:0:
351,88,87432,1,8,0:0:0:0:
351,88,87503,1,0,0:0:0:0:
351,88,87575,1,0,0:0:0:0:
351,88,87718,1,8,0:0:0:0:
351,88,87861,1,8,0:0:0:0:
351,88,87932,1,8,0:0:0:0:
351,88,88003,1,0,0:0:0:0:
351,88,88146,1,8,0:0:0:0:
351,88,88289,1,0,0:0:0:0:
351,88,88575,1,0,0:0:0:0:
351,88,88718,1,8,0:0:0:0:
351,88,88861,1,0,0:0:0:0:
351,88,89003,1,0,0:0:0:0:
351,88,89146,1,8,0:0:0:0:
351,88,89218,1,0,0:0:0:0:
351,88,89289,1,0,0:0:0:0:
351,88,89432,1,8,0:0:0:0:
351,88,89575,1,8,0:0:0:0:
351,88,89646,1,8,0:0:0:0:
351,88,89718,1,0,0:0:0:0:
351,88,89861,1,8,0:0:0:0:
351,88,90003,1,8,0:0:0:0:
278,130,90146,1,0,0:0:0:0:
351,88,90289,1,0,0:0:0:0:
351,88,90432,1,8,0:0:0:0:
351,88,90575,1,0,0:0:0:0:
294,122,90718,1,8,0:0:0:0:
351,88,90861,1,8,0:0:0:0:
351,88,90932,1,0,0:0:0:0:
351,88,91003,1,0,0:0:0:0:
351,88,91146,1,8,0:0:0:0:
351,88,91289,1,8,0:0:0:0:
351,88,91361,1,8,0:0:0:0:
351,88,91432,1,0,0:0:0:0:
351,88,91575,1,8,0:0:0:0:
351,88,91718,1,8,0:0:0:0:
277,130,91861,1,0,0:0:0:0:
351,88,92003,1,0,0:0:0:0:
351,88,92146,1,8,0:0:0:0:
351,88,92289,1,0,0:0:0:0:
351,88,92432,1,8,0:0:0:0:
351,88,92575,1,8,0:0:0:0:
351,88,92646,1,8,0:0:0:0:
351,88,92718,1,0,0:0:0:0:
351,88,92861,1,8,0:0:0:0:
351,88,93003,1,8,0:0:0:0:
351,88,93075,1,0,0:0:0:0:
351,88,93146,1,8,0:0:0:0:
351,88,93289,1,8,0:0:0:0:
351,88,93432,1,0,0:0:0:0:
312,188,93503,1,0,0:0:0:0:
312,188,93575,1,0,0:0:0:0:
192,93,93718,1,8,0:0:0:0:
192,93,93861,1,0,0:0:0:0:
192,93,93932,1,0,0:0:0:0:
192,93,94003,1,0,0:0:0:0:
192,93,94146,1,8,0:0:0:0:
192,93,94289,1,0,0:0:0:0:
192,93,94361,1,0,0:0:0:0:
192,93,94432,1,8,0:0:0:0:
245,153,94503,1,0,0:0:0:0:
192,93,94575,1,8,0:0:0:0:
192,93,94718,1,0,0:0:0:0:
192,93,94789,1,0,0:0:0:0:
192,93,94861,1,8,0:0:0:0:
245,153,94932,1,0,0:0:0:0:
192,93,95003,1,8,0:0:0:0:
382,195,95146,1,0,0:0:0:0:
382,195,95218,1,0,0:0:0:0:
382,195,95289,1,8,0:0:0:0:
382,195,95361,1,0,0:0:0:0:
382,195,95432,1,8,0:0:0:0:
382,195,95503,1,8,0:0:0:0:
382,195,95575,1,0,0:0:0:0:
382,195,95646,1,0,0:0:0:0:
382,195,95718,1,8,0:0:0:0:
382,195,95789,1,0,0:0:0:0:
382,195,95861,1,8,0:0:0:0:
382,195,95932,1,8,0:0:0:0:
382,195,96003,1,0,0:0:0:0:
382,195,96075,1,0,0:0:0:0:
382,195,96146,1,8,0:0:0:0:
382,195,96218,1,8,0:0:0:0:
382,195,96289,1,0,0:0:0:0:
382,195,96361,1,8,0:0:0:0:
382,195,96432,1,0,0:0:0:0:
382,195,96503,1,0,0:0:0:0:
382,195,96575,1,8,0:0:0:0:
382,195,96646,1,8,0:0:0:0:
382,195,96718,1,0,0:0:0:0:
382,195,96789,1,8,0:0:0:0:
382,195,96861,1,0,0:0:0:0:
293,146,97146,1,8,0:0:0:0:
293,146,97218,1,8,0:0:0:0:
293,146,97289,1,8,0:0:0:0:
332,169,97432,1,0,0:0:0:0:
332,169,97575,1,0,0:0:0:0:
233,112,97718,1,8,0:0:0:0:
233,112,97861,1,0,0:0:0:0:
233,112,98003,1,0,0:0:0:0:
233,112,98146,1,8,0:0:0:0:
233,112,98218,1,8,0:0:0:0:
233,112,98289,1,8,0:0:0:0:
233,112,98432,1,0,0:0:0:0:
233,112,98575,1,8,0:0:0:0:
233,112,98646,1,0,0:0:0:0:
233,112,98718,1,0,0:0:0:0:
233,112,98861,1,0,0:0:0:0:
233,112,99003,1,8,0:0:0:0:
233,112,99075,1,8,0:0:0:0:
233,112,99146,1,0,0:0:0:0:
233,112,99289,1,0,0:0:0:0:
233,112,99432,1,8,0:0:0:0:
233,112,99503,1,8,0:0:0:0:
233,112,99575,1,0,0:0:0:0:
233,112,99646,1,0,0:0:0:0:
233,112,99718,1,0,0:0:0:0:
233,112,99861,1,12,0:0:0:0:
343,207,100289,1,12,0:0:0:0:
343,207,100432,1,0,0:0:0:0:
343,207,100503,1,0,0:0:0:0:
343,207,100575,1,0,0:0:0:0:
343,207,100718,1,8,0:0:0:0:
343,207,100861,1,0,0:0:0:0:
343,207,101003,1,8,0:0:0:0:
192,82,101146,1,8,0:0:0:0:
192,82,101218,1,8,0:0:0:0:
192,82,101289,1,8,0:0:0:0:
192,82,101432,1,0,0:0:0:0:
192,82,101575,1,8,0:0:0:0:
192,82,101646,1,8,0:0:0:0:
192,82,101718,1,0,0:0:0:0:
192,82,101789,1,0,0:0:0:0:
192,82,101861,1,0,0:0:0:0:
192,82,102003,1,8,0:0:0:0:
192,82,102146,1,0,0:0:0:0:
192,82,102218,1,0,0:0:0:0:
192,82,102289,1,0,0:0:0:0:
186,39,102432,1,8,0:0:0:0:
186,39,102503,1,8,0:0:0:0:
186,39,102575,1,0,0:0:0:0:
186,39,102718,1,0,0:0:0:0:
186,39,102861,1,8,0:0:0:0:
186,39,102932,1,8,0:0:0:0:
186,39,103003,1,8,0:0:0:0:
186,39,103075,1,0,0:0:0:0:
186,39,103146,1,0,0:0:0:0:
223,117,103218,1,0,0:0:0:0:
186,39,103289,1,8,0:0:0:0:
315,95,103718,1,12,0:0:0:0:
315,95,103861,1,8,0:0:0:0:
315,95,103932,1,8,0:0:0:0:
315,95,104003,1,8,0:0:0:0:
223,117,104146,1,0,0:0:0:0:
223,117,104289,1,8,0:0:0:0:
223,117,104361,1,8,0:0:0:0:
223,117,104432,1,8,0:0:0:0:
223,117,104575,1,8,0:0:0:0:
223,117,104646,1,8,0:0:0:0:
223,117,104718,1,0,0:0:0:0:
223,117,104861,1,0,0:0:0:0:
223,117,105003,1,8,0:0:0:0:
223,117,105075,1,8,0:0:0:0:
223,117,105146,1,0,0:0:0:0:
223,117,105289,1,0,0:0:0:0:
223,117,105432,1,8,0:0:0:0:
223,117,105503,1,8,0:0:0:0:
223,117,105575,1,8,0:0:0:0:
223,117,105646,1,8,0:0:0:0:
223,117,105718,1,0,0:0:0:0:
223,117,105861,1,8,0:0:0:0:
223,117,105932,1,8,0:0:0:0:
223,117,106003,1,0,0:0:0:0:
223,117,106075,1,0,0:0:0:0:
223,117,106146,1,0,0:0:0:0:
223,117,106289,1,8,0:0:0:0:
223,117,106361,1,8,0:0:0:0:
223,117,106432,1,8,0:0:0:0:
223,117,106503,1,0,0:0:0:0:
223,117,106575,1,0,0:0:0:0:
223,117,106646,1,0,0:0:0:0:
223,117,106718,1,8,0:0:0:0:
372,167,107146,1,12,0:0:0:0:
330,140,107289,1,0,0:0:0:0:
372,167,107432,1,12,0:0:0:0:
330,140,107575,1,0,0:0:0:0:
372,167,107718,1,12,0:0:0:0:
372,167,108003,1,4,0:0:0:0:
313,188,108146,1,0,0:0:0:0:
372,167,108289,1,12,0:0:0:0:
276,169,108432,1,0,0:0:0:0:
372,167,108575,1,12,0:0:0:0:
265,178,108861,1,0,0:0:0:0:
265,178,108932,1,0,0:0:0:0:
265,178,109003,1,8,0:0:0:0:
302,239,109075,1,0,0:0:0:0:
265,178,109146,1,8,0:0:0:0:
265,178,109289,1,0,0:0:0:0:
265,178,109361,1,0,0:0:0:0:
265,178,109432,1,8,0:0:0:0:
302,239,109503,1,0,0:0:0:0:
265,178,109575,1,8,0:0:0:0:
265,178,109718,1,0,0:0:0:0:
265,178,109789,1,0,0:0:0:0:
265,178,109861,1,8,0:0:0:0:
265,178,109932,1,0,0:0:0:0:
265,178,110003,1,8,0:0:0:0:
265,178,110075,1,8,0:0:0:0:
265,178,110146,1,0,0:0:0:0:
265,178,110218,1,0,0:0:0:0:
265,178,110289,1,8,0:0:0:0:
265,178,110361,1,0,0:0:0:0:
265,178,110432,1,8,0:0:0:0:
265,178,110575,1,4,0:0:0:0:
