osu file format v14

[General]
AudioFilename: 269_2.mp3
AudioLeadIn: 0
PreviewTime: 32973
Countdown: 0
SampleSet: None
StackLeniency: 0.7
Mode: 1
LetterboxInBreaks: 0
WidescreenStoryboard: 1

[Editor]
DistanceSpacing: 0.8
BeatDivisor: 2
GridSize: 8
TimelineZoom: 2.799999

[Metadata]
Title:Buffet Rush 269
TitleUnicode:Buffet Rush 269
Artist:K.Rekii
ArtistUnicode:K.Rekii
Creator:monkeydluffy3u4
Version:Peckish
Source:
Tags:
BeatmapID:1292876
BeatmapSetID:612224

[Difficulty]
HPDrainRate:6
CircleSize:5
OverallDifficulty:5
ApproachRate:5
SliderMultiplier:1.1
SliderTickRate:1

[Events]
//Background and Video events
Video,795,"BFRush269LowQ.avi"
0,0,"BFRush269_1366768.jpg",0,0
//Break Periods
2,47486,53223
2,86742,92480
//Storyboard Layer 0 (Background)
//Storyboard Layer 1 (Fail)
//Storyboard Layer 2 (Pass)
//Storyboard Layer 3 (Foreground)
//Storyboard Sound Samples

[TimingPoints]
892,223.048327137546,4,1,0,30,1,0
892,-133.333333333333,4,1,0,30,0,0
8921,-100,4,1,0,30,0,0
47287,-133.333333333333,4,1,0,30,0,0
54423,-117.647058823529,4,1,0,30,0,0
64237,-100,4,1,0,30,0,0
65129,-100,4,1,0,30,0,1
86543,-133.333333333333,4,1,0,30,0,0
93680,-133.333333333333,4,1,0,30,0,0
94572,-133.333333333333,4,1,0,30,0,0

[HitObjects]
424,272,892,5,12,0:0:0:0:
424,272,1561,1,8,0:0:0:0:
424,272,1784,1,0,0:0:0:0:
424,272,2676,1,8,0:0:0:0:
424,272,3345,1,0,0:0:0:0:
424,272,3568,1,8,0:0:0:0:
424,272,4014,1,0,0:0:0:0:
424,272,4460,1,8,0:0:0:0:
424,272,5129,1,8,0:0:0:0:
424,272,5352,1,0,0:0:0:0:
424,272,6245,1,8,0:0:0:0:
424,272,7137,1,8,0:0:0:0:
424,272,7583,1,8,0:0:0:0:
424,272,8921,1,0,0:0:0:0:
424,272,9144,1,0,0:0:0:0:
424,272,9367,1,0,0:0:0:0:
416,272,9590,1,0,0:0:0:0:
416,272,9702,1,0,0:0:0:0:
416,272,9813,1,8,0:0:0:0:
272,208,10036,1,8,0:0:0:0:
192,184,10371,1,0,0:0:0:0:
192,184,10483,1,8,0:0:0:0:
272,208,10817,1,0,0:0:0:0:
224,32,11040,1,0,0:0:0:0:
272,208,11152,1,8,0:0:0:0:
280,104,11375,1,0,0:0:0:0:
272,208,11598,1,8,0:0:0:0:
272,208,11821,1,8,0:0:0:0:
272,208,12155,1,0,0:0:0:0:
272,208,12267,1,8,0:0:0:0:
280,104,12602,1,8,0:0:0:0:
280,104,12825,1,8,0:0:0:0:
280,104,12936,1,0,0:0:0:0:
280,104,13159,1,8,0:0:0:0:
280,104,13382,1,8,0:0:0:0:
280,104,13605,1,8,0:0:0:0:
280,104,13940,1,0,0:0:0:0:
280,104,14051,1,8,0:0:0:0:
280,104,14386,1,0,0:0:0:0:
280,104,14609,1,0,0:0:0:0:
280,104,14720,1,8,0:0:0:0:
280,104,14944,1,0,0:0:0:0:
280,104,15167,1,8,0:0:0:0:
280,104,15390,1,8,0:0:0:0:
280,104,15724,1,0,0:0:0:0:
280,104,15836,1,8,0:0:0:0:
280,104,16170,1,8,0:0:0:0:
280,104,16393,1,8,0:0:0:0:
280,104,16505,1,0,0:0:0:0:
280,104,16728,1,8,0:0:0:0:
280,104,16951,1,8,0:0:0:0:
280,104,17174,1,8,0:0:0:0:
280,104,17286,1,0,0:0:0:0:
280,104,17509,1,0,0:0:0:0:
280,104,17620,1,8,0:0:0:0:
280,104,17955,1,0,0:0:0:0:
280,104,18178,1,0,0:0:0:0:
280,104,18289,1,8,0:0:0:0:
280,104,18512,1,0,0:0:0:0:
280,104,18735,1,8,0:0:0:0:
280,104,18958,1,8,0:0:0:0:
280,104,19070,1,0,0:0:0:0:
280,104,19293,1,0,0:0:0:0:
280,104,19405,1,8,0:0:0:0:
280,104,19628,1,8,0:0:0:0:
280,104,19851,1,8,0:0:0:0:
280,104,20074,1,0,0:0:0:0:
280,104,20297,1,8,0:0:0:0:
280,104,20520,1,8,0:0:0:0:
280,104,20743,1,8,0:0:0:0:
280,104,20854,1,0,0:0:0:0:
280,104,21077,1,0,0:0:0:0:
280,104,21189,1,8,0:0:0:0:
280,104,21523,1,0,0:0:0:0:
280,104,21747,1,0,0:0:0:0:
280,104,21858,1,8,0:0:0:0:
280,104,22081,1,0,0:0:0:0:
280,104,22304,1,8,0:0:0:0:
280,104,22527,1,8,0:0:0:0:
280,104,22639,1,0,0:0:0:0:
280,104,22862,1,0,0:0:0:0:
280,104,22973,1,8,0:0:0:0:
280,104,23196,1,8,0:0:0:0:
160,120,23419,1,8,0:0:0:0:
152,104,23642,1,0,0:0:0:0:
152,104,23865,1,8,0:0:0:0:
160,136,24089,1,0,0:0:0:0:
160,136,24423,1,8,0:0:0:0:
160,136,24646,1,0,0:0:0:0:
160,136,24758,1,8,0:0:0:0:
160,136,24981,1,8,0:0:0:0:
160,144,25204,1,0,0:0:0:0:
160,144,25427,1,0,0:0:0:0:
160,144,25650,1,8,0:0:0:0:
160,144,25873,1,8,0:0:0:0:
160,144,26096,1,0,0:0:0:0:
160,144,26319,1,8,0:0:0:0:
160,144,26542,1,0,0:0:0:0:
160,144,26765,1,8,0:0:0:0:
160,144,26988,1,8,0:0:0:0:
160,144,27211,1,0,0:0:0:0:
160,144,27323,1,0,0:0:0:0:
160,144,27434,1,8,0:0:0:0:
160,144,27657,1,0,0:0:0:0:
256,192,27992,1,8,0:0:0:0:
256,184,28215,1,0,0:0:0:0:
256,184,28326,1,8,0:0:0:0:
256,184,28549,1,0,0:0:0:0:
256,184,28773,1,8,0:0:0:0:
256,184,28996,1,0,0:0:0:0:
256,184,29219,1,8,0:0:0:0:
256,184,29442,1,8,0:0:0:0:
256,184,29665,1,0,0:0:0:0:
256,184,29888,1,8,0:0:0:0:
256,184,30111,1,8,0:0:0:0:
256,184,30334,1,0,0:0:0:0:
256,184,30445,1,0,0:0:0:0:
256,184,30557,1,0,0:0:0:0:
256,184,30780,1,8,0:0:0:0:
256,184,30891,1,8,0:0:0:0:
256,184,31003,1,8,0:0:0:0:
80,168,31226,2,0,L|528:168,1,440
288,176,32564,1,0,0:0:0:0:
288,176,32787,1,0,0:0:0:0:
288,176,32899,1,0,0:0:0:0:
288,176,33010,1,8,0:0:0:0:
288,176,33234,1,0,0:0:0:0:
288,176,33345,1,8,0:0:0:0:
288,176,33680,1,8,0:0:0:0:
288,176,33903,1,8,0:0:0:0:
288,176,34126,1,0,0:0:0:0:
288,176,34237,1,0,0:0:0:0:
288,176,34349,1,8,0:0:0:0:
288,176,34572,1,8,0:0:0:0:
288,176,34795,1,0,0:0:0:0:
288,176,35018,1,8,0:0:0:0:
288,176,35241,1,0,0:0:0:0:
288,176,35464,1,8,0:0:0:0:
288,176,35687,1,8,0:0:0:0:
288,176,35910,1,0,0:0:0:0:
288,176,36133,1,8,0:0:0:0:
288,176,36245,1,8,0:0:0:0:
288,176,36356,1,0,0:0:0:0:
280,208,36579,1,8,0:0:0:0:
280,208,36802,1,0,0:0:0:0:
280,208,36914,1,8,0:0:0:0:
280,208,37248,1,8,0:0:0:0:
280,208,37471,1,8,0:0:0:0:
280,208,37694,1,0,0:0:0:0:
288,152,37806,1,0,0:0:0:0:
280,208,37918,1,8,0:0:0:0:
288,152,38141,1,8,0:0:0:0:
288,152,38364,1,0,0:0:0:0:
288,152,38587,1,8,0:0:0:0:
288,152,38810,1,0,0:0:0:0:
288,152,39033,1,8,0:0:0:0:
272,160,39256,1,0,0:0:0:0:
272,160,39479,1,8,0:0:0:0:
288,152,39702,1,8,0:0:0:0:
288,152,39813,1,8,0:0:0:0:
288,152,39925,1,0,0:0:0:0:
288,176,40148,1,8,0:0:0:0:
288,176,40372,1,0,0:0:0:0:
288,176,40483,1,8,0:0:0:0:
288,176,40818,1,8,0:0:0:0:
288,176,41041,1,8,0:0:0:0:
288,176,41264,1,0,0:0:0:0:
288,176,41375,1,0,0:0:0:0:
288,176,41487,1,8,0:0:0:0:
288,176,41710,1,8,0:0:0:0:
288,176,41933,1,0,0:0:0:0:
288,176,42156,1,8,0:0:0:0:
288,176,42379,1,0,0:0:0:0:
288,176,42602,1,8,0:0:0:0:
288,176,42825,1,8,0:0:0:0:
288,176,43048,1,0,0:0:0:0:
288,176,43271,1,8,0:0:0:0:
288,176,43383,1,8,0:0:0:0:
288,176,43494,1,0,0:0:0:0:
280,208,43717,1,8,0:0:0:0:
280,208,43940,1,0,0:0:0:0:
280,208,44052,1,8,0:0:0:0:
280,208,44386,1,8,0:0:0:0:
280,208,44609,1,8,0:0:0:0:
280,208,44832,1,0,0:0:0:0:
288,152,44944,1,0,0:0:0:0:
280,208,45056,1,8,0:0:0:0:
288,152,45279,1,8,0:0:0:0:
288,152,45502,1,0,0:0:0:0:
288,152,45725,1,8,0:0:0:0:
288,152,45948,1,0,0:0:0:0:
288,152,46171,1,8,0:0:0:0:
272,160,46394,1,0,0:0:0:0:
272,160,46617,1,8,0:0:0:0:
288,152,46840,1,0,0:0:0:0:
288,152,46952,1,0,0:0:0:0:
288,152,47063,1,8,0:0:0:0:
336,184,47286,1,12,0:0:0:0:
256,192,54423,5,0,0:0:0:0:
256,192,54758,1,8,0:0:0:0:
256,192,54981,1,8,0:0:0:0:
256,192,55315,1,0,0:0:0:0:
256,192,55650,1,8,0:0:0:0:
256,192,55873,1,8,0:0:0:0:
256,192,56207,1,0,0:0:0:0:
256,192,56542,1,8,0:0:0:0:
256,192,56765,1,8,0:0:0:0:
256,192,57100,1,0,0:0:0:0:
256,192,57546,1,8,0:0:0:0:
264,184,57992,1,0,0:0:0:0:
264,184,58326,1,8,0:0:0:0:
264,184,58549,1,8,0:0:0:0:
264,184,58884,1,0,0:0:0:0:
264,184,59219,1,8,0:0:0:0:
264,184,59442,1,8,0:0:0:0:
264,184,59776,1,0,0:0:0:0:
264,184,60111,1,8,0:0:0:0:
264,184,60334,1,8,0:0:0:0:
264,184,60668,1,0,0:0:0:0:
264,184,61115,1,8,0:0:0:0:
264,184,61561,1,12,0:0:0:0:
248,192,64237,1,0,0:0:0:0:
248,192,64460,1,0,0:0:0:0:
248,192,64683,1,0,0:0:0:0:
248,192,64906,1,0,0:0:0:0:
248,192,65018,1,0,0:0:0:0:
248,192,65129,1,8,0:0:0:0:
248,192,65352,1,0,0:0:0:0:
248,192,65464,1,8,0:0:0:0:
248,192,65687,1,0,0:0:0:0:
248,192,65799,1,8,0:0:0:0:
256,200,66022,1,0,0:0:0:0:
256,200,66245,1,0,0:0:0:0:
256,200,66468,1,8,0:0:0:0:
256,200,66691,1,8,0:0:0:0:
256,200,66914,1,0,0:0:0:0:
256,200,67137,1,8,0:0:0:0:
256,200,67360,1,8,0:0:0:0:
256,200,67471,1,8,0:0:0:0:
256,200,67583,1,0,0:0:0:0:
256,200,67806,1,8,0:0:0:0:
256,200,68029,1,8,0:0:0:0:
256,200,68252,1,0,0:0:0:0:
256,200,68364,1,0,0:0:0:0:
256,200,68475,1,8,0:0:0:0:
256,200,68698,1,0,0:0:0:0:
256,200,68921,1,8,0:0:0:0:
256,72,69256,1,0,0:0:0:0:
256,72,69367,1,8,0:0:0:0:
256,72,69590,1,0,0:0:0:0:
256,72,69813,1,0,0:0:0:0:
256,72,70036,1,8,0:0:0:0:
256,72,70260,1,8,0:0:0:0:
256,72,70483,1,0,0:0:0:0:
256,72,70706,1,8,0:0:0:0:
256,72,70929,1,8,0:0:0:0:
256,72,71040,1,8,0:0:0:0:
256,72,71152,1,0,0:0:0:0:
256,72,71375,1,8,0:0:0:0:
256,72,71598,1,8,0:0:0:0:
256,72,71821,1,0,0:0:0:0:
256,72,71932,1,0,0:0:0:0:
256,72,72044,1,8,0:0:0:0:
256,72,72267,1,12,0:0:0:0:
248,192,72490,1,0,0:0:0:0:
248,192,72602,1,8,0:0:0:0:
248,192,72825,1,0,0:0:0:0:
248,192,72937,1,8,0:0:0:0:
256,200,73160,1,0,0:0:0:0:
256,200,73383,1,0,0:0:0:0:
256,200,73606,1,8,0:0:0:0:
256,200,73829,1,8,0:0:0:0:
256,200,74052,1,0,0:0:0:0:
256,200,74275,1,8,0:0:0:0:
256,200,74498,1,8,0:0:0:0:
256,200,74609,1,8,0:0:0:0:
256,200,74721,1,0,0:0:0:0:
256,200,74944,1,8,0:0:0:0:
256,200,75167,1,8,0:0:0:0:
256,200,75390,1,0,0:0:0:0:
256,200,75502,1,0,0:0:0:0:
256,200,75613,1,8,0:0:0:0:
256,200,75836,1,0,0:0:0:0:
256,200,76059,1,8,0:0:0:0:
256,72,76394,1,0,0:0:0:0:
256,72,76505,1,8,0:0:0:0:
256,72,76728,1,0,0:0:0:0:
256,72,76951,1,0,0:0:0:0:
256,72,77174,1,8,0:0:0:0:
256,72,77398,1,8,0:0:0:0:
256,72,77621,1,0,0:0:0:0:
256,72,77844,1,8,0:0:0:0:
256,72,78067,1,8,0:0:0:0:
256,72,78178,1,8,0:0:0:0:
256,72,78290,1,0,0:0:0:0:
256,72,78513,1,8,0:0:0:0:
256,72,78736,1,8,0:0:0:0:
256,72,78959,1,0,0:0:0:0:
256,72,79070,1,0,0:0:0:0:
256,72,79182,1,8,0:0:0:0:
256,72,79405,1,12,0:0:0:0:
256,192,82081,1,8,0:0:0:0:
256,192,82527,1,8,0:0:0:0:
256,192,82973,1,8,0:0:0:0:
256,192,83531,1,8,0:0:0:0:
256,192,83642,1,8,0:0:0:0:
256,200,83865,1,0,0:0:0:0:
256,200,84089,1,0,0:0:0:0:
256,200,84312,1,8,0:0:0:0:
256,200,84535,1,8,0:0:0:0:
256,200,84758,1,0,0:0:0:0:
256,200,84981,1,8,0:0:0:0:
256,200,85204,1,0,0:0:0:0:
256,200,85427,1,8,0:0:0:0:
256,200,85650,1,8,0:0:0:0:
256,200,85873,1,0,0:0:0:0:
256,200,86096,1,8,0:0:0:0:
256,200,86207,1,8,0:0:0:0:
256,200,86319,1,0,0:0:0:0:
256,200,86542,1,12,0:0:0:0:
256,200,93680,5,8,0:0:0:0:
