osu file format v14

[General]
AudioFilename: audio.mp3
AudioLeadIn: 0
PreviewTime: 46281
Countdown: 0
SampleSet: Normal
StackLeniency: 0.7
Mode: 3
LetterboxInBreaks: 0
SpecialStyle: 0
WidescreenStoryboard: 0

[Editor]
DistanceSpacing: 2
BeatDivisor: 4
GridSize: 4
TimelineZoom: 1.4

[Metadata]
Title:K.A.o.s
TitleUnicode:K.A.o.s
Artist:K.A
ArtistUnicode:K.A
Creator:Kernaus
Version:HD
Source:
Tags:brutal death metal instrumental puxtu
BeatmapID:972659
BeatmapSetID:445964

[Difficulty]
HPDrainRate:7
CircleSize:4
OverallDifficulty:6.5
ApproachRate:5
SliderMultiplier:1.4
SliderTickRate:1

[Events]
//Background and Video events
0,0,"Nisoku.Hokou.full.1756301.jpg",0,0
//Break Periods
//Storyboard Layer 0 (Background)
//Storyboard Layer 1 (Fail)
//Storyboard Layer 2 (Pass)
//Storyboard Layer 3 (Foreground)
//Storyboard Sound Samples

[TimingPoints]
16281,300,4,1,1,15,1,0
25881,-100,4,1,1,15,0,1
35481,-100,4,1,1,15,0,0
195081,-100,4,1,1,15,0,1
214281,-100,4,1,1,15,0,0

[HitObjects]
64,192,16281,5,6,0:0:0:0:
192,192,16281,1,6,0:0:0:0:
320,192,16281,1,6,0:0:0:0:
64,192,18381,1,6,0:0:0:0:
192,192,18381,1,6,0:0:0:0:
448,192,18531,1,6,0:0:0:0:
320,192,18531,1,6,0:0:0:0:
320,192,19881,1,6,0:0:0:0:
448,192,19881,1,6,0:0:0:0:
64,192,19881,128,6,21081:0:0:0:0:
192,192,21081,1,4,0:0:0:0:
320,192,21081,1,6,0:0:0:0:
448,192,21081,1,6,0:0:0:0:
320,192,21381,1,8,0:0:0:0:
448,192,21381,1,8,0:0:0:0:
192,192,21456,1,8,0:0:0:0:
320,192,21531,1,8,0:0:0:0:
448,192,21606,1,8,0:0:0:0:
64,192,21681,1,0,0:0:0:0:
320,192,21756,1,0,0:0:0:0:
448,192,21831,1,0,0:0:0:0:
192,192,21906,1,0,0:0:0:0:
64,192,21981,1,0,0:0:0:0:
192,192,22056,1,0,0:0:0:0:
320,192,22131,1,0,0:0:0:0:
448,192,22206,1,0,0:0:0:0:
64,192,22281,1,8,0:0:0:0:
192,192,22281,1,8,0:0:0:0:
320,192,22356,1,8,0:0:0:0:
192,192,22431,1,8,0:0:0:0:
64,192,22506,1,0,0:0:0:0:
320,192,22581,1,0,0:0:0:0:
192,192,22656,1,0,0:0:0:0:
448,192,22731,1,0,0:0:0:0:
320,192,22806,1,0,0:0:0:0:
64,192,22881,1,0,0:0:0:0:
192,192,22956,1,0,0:0:0:0:
320,192,23031,1,0,0:0:0:0:
448,192,23106,1,0,0:0:0:0:
192,192,23181,1,6,0:0:0:0:
64,192,23181,1,6,0:0:0:0:
320,192,23331,1,6,0:0:0:0:
192,192,23331,1,6,0:0:0:0:
64,192,23481,1,4,0:0:0:0:
320,192,23481,128,4,24531:0:0:0:0:
448,192,23481,1,4,0:0:0:0:
64,192,24531,1,6,0:0:0:0:
192,192,24531,1,6,0:0:0:0:
448,192,24531,1,6,0:0:0:0:
448,192,25281,1,8,0:0:0:0:
320,192,25356,1,8,0:0:0:0:
192,192,25431,1,8,0:0:0:0:
64,192,25506,1,8,0:0:0:0:
448,192,25581,1,8,0:0:0:0:
320,192,25656,1,8,0:0:0:0:
192,192,25731,1,8,0:0:0:0:
64,192,25806,1,8,0:0:0:0:
320,192,25881,1,0,0:0:0:0:
448,192,25881,1,0,0:0:0:0:
192,192,26031,1,0,0:0:0:0:
64,192,26031,1,0,0:0:0:0:
448,192,26181,1,0,0:0:0:0:
192,192,26181,1,0,0:0:0:0:
448,192,26331,1,0,0:0:0:0:
64,192,26331,1,0,0:0:0:0:
192,192,26481,1,0,0:0:0:0:
320,192,26481,1,0,0:0:0:0:
192,192,26631,1,0,0:0:0:0:
64,192,26631,1,0,0:0:0:0:
448,192,26781,1,0,0:0:0:0:
320,192,26781,1,0,0:0:0:0:
320,192,26931,1,0,0:0:0:0:
64,192,26931,1,0,0:0:0:0:
448,192,27081,1,0,0:0:0:0:
320,192,27081,1,0,0:0:0:0:
64,192,27231,1,0,0:0:0:0:
192,192,27231,1,0,0:0:0:0:
192,192,27381,1,0,0:0:0:0:
448,192,27381,1,0,0:0:0:0:
64,192,27531,1,0,0:0:0:0:
448,192,27531,1,0,0:0:0:0:
320,192,27681,1,0,0:0:0:0:
192,192,27681,1,0,0:0:0:0:
64,192,27831,1,0,0:0:0:0:
192,192,27831,1,0,0:0:0:0:
320,192,27981,1,0,0:0:0:0:
448,192,27981,1,0,0:0:0:0:
64,192,28131,1,0,0:0:0:0:
320,192,28131,1,0,0:0:0:0:
320,192,28281,1,0,0:0:0:0:
448,192,28281,1,0,0:0:0:0:
192,192,28431,1,0,0:0:0:0:
64,192,28431,1,0,0:0:0:0:
448,192,28581,1,0,0:0:0:0:
192,192,28581,1,0,0:0:0:0:
448,192,28731,1,0,0:0:0:0:
64,192,28731,1,0,0:0:0:0:
192,192,28881,1,0,0:0:0:0:
320,192,28881,1,0,0:0:0:0:
192,192,29031,1,0,0:0:0:0:
64,192,29031,1,0,0:0:0:0:
448,192,29181,1,0,0:0:0:0:
320,192,29181,1,0,0:0:0:0:
320,192,29331,1,0,0:0:0:0:
64,192,29331,1,0,0:0:0:0:
448,192,29481,1,0,0:0:0:0:
320,192,29481,1,0,0:0:0:0:
64,192,29631,1,0,0:0:0:0:
192,192,29631,1,0,0:0:0:0:
192,192,29781,1,0,0:0:0:0:
448,192,29781,1,0,0:0:0:0:
64,192,29931,1,0,0:0:0:0:
448,192,29931,1,0,0:0:0:0:
320,192,30081,1,0,0:0:0:0:
192,192,30081,1,0,0:0:0:0:
64,192,30231,1,0,0:0:0:0:
192,192,30231,1,0,0:0:0:0:
320,192,30381,1,0,0:0:0:0:
448,192,30381,1,0,0:0:0:0:
64,192,30531,1,0,0:0:0:0:
192,192,30531,1,0,0:0:0:0:
320,192,30681,1,6,0:0:0:0:
448,192,30681,1,6,0:0:0:0:
192,192,30831,1,0,0:0:0:0:
64,192,30831,1,0,0:0:0:0:
448,192,30981,1,0,0:0:0:0:
192,192,30981,1,0,0:0:0:0:
448,192,31131,1,0,0:0:0:0:
64,192,31131,1,0,0:0:0:0:
192,192,31281,1,0,0:0:0:0:
320,192,31281,1,0,0:0:0:0:
192,192,31431,1,0,0:0:0:0:
64,192,31431,1,0,0:0:0:0:
448,192,31581,1,0,0:0:0:0:
320,192,31581,1,0,0:0:0:0:
320,192,31731,1,0,0:0:0:0:
64,192,31731,1,0,0:0:0:0:
448,192,31881,1,0,0:0:0:0:
320,192,31881,1,0,0:0:0:0:
64,192,32031,1,0,0:0:0:0:
192,192,32031,1,0,0:0:0:0:
192,192,32181,1,0,0:0:0:0:
448,192,32181,1,0,0:0:0:0:
64,192,32331,1,0,0:0:0:0:
448,192,32331,1,0,0:0:0:0:
320,192,32481,1,0,0:0:0:0:
192,192,32481,1,0,0:0:0:0:
64,192,32631,1,0,0:0:0:0:
192,192,32631,1,0,0:0:0:0:
320,192,32781,1,0,0:0:0:0:
448,192,32781,1,0,0:0:0:0:
64,192,32931,1,0,0:0:0:0:
320,192,32931,1,0,0:0:0:0:
320,192,33081,1,0,0:0:0:0:
448,192,33081,1,0,0:0:0:0:
192,192,33231,1,0,0:0:0:0:
64,192,33231,1,0,0:0:0:0:
448,192,33381,1,0,0:0:0:0:
192,192,33381,1,0,0:0:0:0:
448,192,33531,1,0,0:0:0:0:
64,192,33531,1,0,0:0:0:0:
192,192,33681,1,0,0:0:0:0:
320,192,33681,1,0,0:0:0:0:
192,192,33831,1,0,0:0:0:0:
64,192,33831,1,0,0:0:0:0:
448,192,33981,1,0,0:0:0:0:
320,192,33981,1,0,0:0:0:0:
320,192,34131,1,0,0:0:0:0:
64,192,34131,1,0,0:0:0:0:
448,192,34281,1,0,0:0:0:0:
320,192,34281,1,0,0:0:0:0:
64,192,34431,1,0,0:0:0:0:
192,192,34431,1,0,0:0:0:0:
192,192,34581,1,0,0:0:0:0:
448,192,34581,1,0,0:0:0:0:
64,192,34731,1,0,0:0:0:0:
448,192,34731,1,0,0:0:0:0:
320,192,34881,1,0,0:0:0:0:
192,192,34881,1,0,0:0:0:0:
64,192,35031,1,8,0:0:0:0:
192,192,35106,1,8,0:0:0:0:
320,192,35181,1,8,0:0:0:0:
64,192,35256,1,8,0:0:0:0:
448,192,35331,1,0,0:0:0:0:
320,192,35406,1,0,0:0:0:0:
192,192,35481,1,0,0:0:0:0:
64,192,35631,1,8,0:0:0:0:
320,192,35631,1,8,0:0:0:0:
192,192,35781,1,0,0:0:0:0:
448,192,35931,1,8,0:0:0:0:
64,192,35931,1,8,0:0:0:0:
320,192,36081,1,0,0:0:0:0:
192,192,36231,1,8,0:0:0:0:
448,192,36231,1,8,0:0:0:0:
320,192,36381,1,0,0:0:0:0:
64,192,36531,1,8,0:0:0:0:
192,192,36531,1,8,0:0:0:0:
448,192,36681,1,0,0:0:0:0:
320,192,36831,1,8,0:0:0:0:
192,192,36831,1,8,0:0:0:0:
64,192,36981,1,0,0:0:0:0:
448,192,37131,1,8,0:0:0:0:
192,192,37131,1,8,0:0:0:0:
320,192,37281,1,0,0:0:0:0:
64,192,37431,1,8,0:0:0:0:
192,192,37431,1,8,0:0:0:0:
320,192,37581,1,0,0:0:0:0:
448,192,37731,1,8,0:0:0:0:
192,192,37731,1,8,0:0:0:0:
320,192,37881,1,0,0:0:0:0:
64,192,38031,1,8,0:0:0:0:
192,192,38031,1,8,0:0:0:0:
320,192,38181,1,0,0:0:0:0:
448,192,38331,1,8,0:0:0:0:
192,192,38331,1,8,0:0:0:0:
320,192,38481,1,0,0:0:0:0:
64,192,38631,1,8,0:0:0:0:
192,192,38631,1,8,0:0:0:0:
448,192,38781,1,0,0:0:0:0:
192,192,38931,1,8,0:0:0:0:
320,192,38931,1,8,0:0:0:0:
64,192,39081,1,0,0:0:0:0:
448,192,39231,1,8,0:0:0:0:
192,192,39231,1,8,0:0:0:0:
320,192,39381,1,0,0:0:0:0:
64,192,39531,1,8,0:0:0:0:
192,192,39531,1,8,0:0:0:0:
320,192,39681,1,0,0:0:0:0:
192,192,39756,1,0,0:0:0:0:
64,192,39831,1,0,0:0:0:0:
320,192,39831,1,0,0:0:0:0:
448,192,39981,1,0,0:0:0:0:
320,192,40131,1,8,0:0:0:0:
192,192,40131,1,8,0:0:0:0:
64,192,40281,1,6,0:0:0:0:
448,192,40281,1,6,0:0:0:0:
192,192,40431,1,8,0:0:0:0:
320,192,40431,1,8,0:0:0:0:
448,192,40581,1,0,0:0:0:0:
64,192,40731,1,8,0:0:0:0:
320,192,40731,1,8,0:0:0:0:
192,192,40881,1,0,0:0:0:0:
448,192,41031,1,8,0:0:0:0:
320,192,41031,1,8,0:0:0:0:
192,192,41181,1,0,0:0:0:0:
64,192,41331,1,8,0:0:0:0:
448,192,41331,1,8,0:0:0:0:
320,192,41481,1,0,0:0:0:0:
192,192,41631,1,8,0:0:0:0:
448,192,41631,1,8,0:0:0:0:
64,192,41781,1,0,0:0:0:0:
320,192,41931,1,8,0:0:0:0:
448,192,41931,1,8,0:0:0:0:
192,192,42081,1,0,0:0:0:0:
64,192,42231,1,8,0:0:0:0:
320,192,42231,1,8,0:0:0:0:
448,192,42381,1,0,0:0:0:0:
192,192,42531,1,8,0:0:0:0:
320,192,42531,1,8,0:0:0:0:
64,192,42681,1,0,0:0:0:0:
448,192,42831,1,8,0:0:0:0:
320,192,42831,1,8,0:0:0:0:
192,192,42981,1,0,0:0:0:0:
448,192,43131,1,8,0:0:0:0:
64,192,43131,1,8,0:0:0:0:
320,192,43281,1,0,0:0:0:0:
192,192,43431,1,8,0:0:0:0:
64,192,43431,1,8,0:0:0:0:
320,192,43581,1,0,0:0:0:0:
64,192,43731,1,8,0:0:0:0:
448,192,43731,1,8,0:0:0:0:
192,192,43881,1,0,0:0:0:0:
448,192,44031,1,8,0:0:0:0:
64,192,44031,1,8,0:0:0:0:
320,192,44181,1,0,0:0:0:0:
192,192,44331,1,8,0:0:0:0:
448,192,44331,1,8,0:0:0:0:
320,192,44481,1,0,0:0:0:0:
64,192,44631,1,8,0:0:0:0:
192,192,44631,1,8,0:0:0:0:
320,192,44781,1,8,0:0:0:0:
192,192,44931,1,8,0:0:0:0:
448,192,44931,1,8,0:0:0:0:
64,192,45081,1,6,0:0:0:0:
448,192,45081,1,6,0:0:0:0:
64,192,45681,1,4,0:0:0:0:
448,192,45681,1,4,0:0:0:0:
64,192,46281,1,0,0:0:0:0:
192,192,46356,1,0,0:0:0:0:
320,192,46431,1,0,0:0:0:0:
448,192,46506,1,0,0:0:0:0:
64,192,46581,1,0,0:0:0:0:
192,192,46656,1,0,0:0:0:0:
320,192,46731,1,0,0:0:0:0:
448,192,46806,1,0,0:0:0:0:
192,192,46881,1,0,0:0:0:0:
448,192,47031,1,8,0:0:0:0:
64,192,47031,1,8,0:0:0:0:
192,192,47181,1,0,0:0:0:0:
320,192,47331,1,8,0:0:0:0:
64,192,47331,1,8,0:0:0:0:
448,192,47481,128,0,47556:0:0:0:0:
64,192,47631,1,8,0:0:0:0:
192,192,47631,1,8,0:0:0:0:
448,192,47781,1,0,0:0:0:0:
64,192,47931,1,8,0:0:0:0:
320,192,47931,1,8,0:0:0:0:
192,192,48081,128,0,48156:0:0:0:0:
320,192,48231,1,8,0:0:0:0:
64,192,48231,1,8,0:0:0:0:
192,192,48381,1,0,0:0:0:0:
320,192,48531,1,8,0:0:0:0:
448,192,48531,1,8,0:0:0:0:
64,192,48681,1,4,0:0:0:0:
192,192,48681,1,4,0:0:0:0:
448,192,48756,1,0,0:0:0:0:
320,192,48831,1,0,0:0:0:0:
192,192,48906,1,0,0:0:0:0:
64,192,48981,1,0,0:0:0:0:
448,192,49056,1,0,0:0:0:0:
320,192,49131,1,0,0:0:0:0:
192,192,49206,1,0,0:0:0:0:
64,192,49281,1,0,0:0:0:0:
192,192,49431,1,8,0:0:0:0:
448,192,49431,1,8,0:0:0:0:
320,192,49581,1,0,0:0:0:0:
192,192,49731,1,8,0:0:0:0:
64,192,49731,1,8,0:0:0:0:
320,192,49881,128,0,49956:0:0:0:0:
192,192,50031,1,8,0:0:0:0:
448,192,50031,1,8,0:0:0:0:
64,192,50181,1,0,0:0:0:0:
320,192,50331,1,8,0:0:0:0:
192,192,50331,1,8,0:0:0:0:
448,192,50481,128,0,50556:0:0:0:0:
64,192,50631,1,8,0:0:0:0:
320,192,50631,1,8,0:0:0:0:
192,192,50781,1,0,0:0:0:0:
320,192,50931,1,8,0:0:0:0:
64,192,50931,1,8,0:0:0:0:
192,192,51081,1,4,0:0:0:0:
448,192,51081,1,4,0:0:0:0:
64,192,51156,1,0,0:0:0:0:
320,192,51231,1,0,0:0:0:0:
448,192,51306,1,0,0:0:0:0:
64,192,51381,1,0,0:0:0:0:
192,192,51456,1,0,0:0:0:0:
320,192,51531,1,0,0:0:0:0:
448,192,51606,1,0,0:0:0:0:
64,192,51681,1,0,0:0:0:0:
192,192,51831,1,8,0:0:0:0:
448,192,51831,1,8,0:0:0:0:
64,192,51981,1,0,0:0:0:0:
448,192,52131,1,8,0:0:0:0:
320,192,52131,1,8,0:0:0:0:
192,192,52281,128,0,52356:0:0:0:0:
64,192,52431,1,8,0:0:0:0:
448,192,52431,1,8,0:0:0:0:
448,192,52581,1,0,0:0:0:0:
320,192,52731,1,8,0:0:0:0:
64,192,52731,1,8,0:0:0:0:
448,192,52881,128,0,52956:0:0:0:0:
320,192,53031,1,8,0:0:0:0:
192,192,53031,1,8,0:0:0:0:
64,192,53181,1,0,0:0:0:0:
448,192,53331,1,8,0:0:0:0:
320,192,53331,1,8,0:0:0:0:
64,192,53481,1,4,0:0:0:0:
320,192,53481,1,4,0:0:0:0:
192,192,53556,1,0,0:0:0:0:
64,192,53631,1,0,0:0:0:0:
448,192,53781,128,0,53931:0:0:0:0:
320,192,53781,1,8,0:0:0:0:
192,192,54081,128,0,54231:0:0:0:0:
64,192,54081,1,8,0:0:0:0:
320,192,54381,128,0,54531:0:0:0:0:
448,192,54381,1,8,0:0:0:0:
192,192,54531,128,0,54681:0:0:0:0:
320,192,54681,1,8,0:0:0:0:
320,192,54981,128,0,55131:0:0:0:0:
192,192,54981,1,8,0:0:0:0:
448,192,55281,128,0,55431:0:0:0:0:
192,192,55281,1,8,0:0:0:0:
448,192,55581,1,8,0:0:0:0:
320,192,55656,1,8,0:0:0:0:
192,192,55731,1,8,0:0:0:0:
64,192,55806,1,8,0:0:0:0:
448,192,55881,1,4,0:0:0:0:
320,192,55881,1,4,0:0:0:0:
192,192,55956,1,0,0:0:0:0:
64,192,56031,1,0,0:0:0:0:
448,192,56106,1,0,0:0:0:0:
320,192,56181,1,0,0:0:0:0:
192,192,56256,1,0,0:0:0:0:
64,192,56331,1,0,0:0:0:0:
448,192,56406,1,0,0:0:0:0:
192,192,56481,1,0,0:0:0:0:
64,192,56631,1,8,0:0:0:0:
448,192,56631,1,8,0:0:0:0:
192,192,56781,1,0,0:0:0:0:
448,192,56931,1,8,0:0:0:0:
320,192,56931,1,8,0:0:0:0:
192,192,57081,128,0,57156:0:0:0:0:
64,192,57231,1,8,0:0:0:0:
320,192,57231,1,8,0:0:0:0:
448,192,57381,1,0,0:0:0:0:
320,192,57531,1,8,0:0:0:0:
192,192,57531,1,8,0:0:0:0:
64,192,57681,128,0,57756:0:0:0:0:
448,192,57831,1,8,0:0:0:0:
192,192,57831,1,8,0:0:0:0:
320,192,57981,1,0,0:0:0:0:
64,192,58131,1,8,0:0:0:0:
192,192,58131,1,8,0:0:0:0:
320,192,58281,1,4,0:0:0:0:
448,192,58281,1,4,0:0:0:0:
192,192,58356,1,0,0:0:0:0:
64,192,58431,1,0,0:0:0:0:
320,192,58506,1,0,0:0:0:0:
448,192,58581,1,0,0:0:0:0:
320,192,58656,1,0,0:0:0:0:
192,192,58731,1,0,0:0:0:0:
64,192,58806,1,0,0:0:0:0:
320,192,58881,1,0,0:0:0:0:
448,192,59031,1,8,0:0:0:0:
192,192,59031,1,8,0:0:0:0:
320,192,59181,1,0,0:0:0:0:
64,192,59331,1,8,0:0:0:0:
448,192,59331,1,8,0:0:0:0:
192,192,59481,128,0,59556:0:0:0:0:
320,192,59631,1,8,0:0:0:0:
448,192,59631,1,8,0:0:0:0:
64,192,59781,1,0,0:0:0:0:
448,192,59931,1,8,0:0:0:0:
192,192,59931,1,8,0:0:0:0:
320,192,60081,128,0,60156:0:0:0:0:
64,192,60231,1,8,0:0:0:0:
192,192,60231,1,8,0:0:0:0:
448,192,60381,1,0,0:0:0:0:
64,192,60531,1,8,0:0:0:0:
320,192,60531,1,8,0:0:0:0:
64,192,60681,1,4,0:0:0:0:
448,192,60681,1,4,0:0:0:0:
192,192,60756,1,0,0:0:0:0:
320,192,60831,1,0,0:0:0:0:
448,192,60906,1,0,0:0:0:0:
64,192,60981,1,0,0:0:0:0:
192,192,61056,1,0,0:0:0:0:
320,192,61131,1,0,0:0:0:0:
448,192,61206,1,0,0:0:0:0:
64,192,61281,1,0,0:0:0:0:
448,192,61431,1,8,0:0:0:0:
320,192,61431,1,8,0:0:0:0:
192,192,61581,1,0,0:0:0:0:
64,192,61731,1,8,0:0:0:0:
320,192,61731,1,8,0:0:0:0:
192,192,61881,128,0,61956:0:0:0:0:
64,192,62031,1,8,0:0:0:0:
448,192,62031,1,8,0:0:0:0:
320,192,62181,1,0,0:0:0:0:
192,192,62331,1,8,0:0:0:0:
64,192,62331,1,8,0:0:0:0:
448,192,62481,128,0,62556:0:0:0:0:
192,192,62631,1,8,0:0:0:0:
64,192,62631,1,8,0:0:0:0:
448,192,62781,1,0,0:0:0:0:
192,192,62931,1,8,0:0:0:0:
320,192,62931,1,8,0:0:0:0:
64,192,63081,1,4,0:0:0:0:
448,192,63081,1,4,0:0:0:0:
192,192,63156,1,0,0:0:0:0:
320,192,63231,1,0,0:0:0:0:
192,192,63381,128,0,63531:0:0:0:0:
64,192,63381,1,8,0:0:0:0:
448,192,63681,128,0,63831:0:0:0:0:
320,192,63681,1,8,0:0:0:0:
320,192,63981,128,0,64131:0:0:0:0:
64,192,63981,1,8,0:0:0:0:
192,192,64131,128,0,64281:0:0:0:0:
448,192,64281,1,8,0:0:0:0:
320,192,64356,1,8,0:0:0:0:
192,192,64431,1,8,0:0:0:0:
64,192,64506,1,8,0:0:0:0:
448,192,64581,1,8,0:0:0:0:
320,192,64656,1,8,0:0:0:0:
192,192,64731,1,8,0:0:0:0:
64,192,64806,1,8,0:0:0:0:
192,192,64881,1,0,0:0:0:0:
320,192,64956,1,0,0:0:0:0:
64,192,65031,1,0,0:0:0:0:
192,192,65106,1,0,0:0:0:0:
320,192,65181,1,0,0:0:0:0:
64,192,65256,1,0,0:0:0:0:
192,192,65331,1,0,0:0:0:0:
320,192,65406,1,0,0:0:0:0:
448,192,65481,1,6,0:0:0:0:
192,192,65781,1,2,0:0:0:0:
448,192,66081,1,2,0:0:0:0:
64,192,66381,1,2,0:0:0:0:
320,192,66681,1,12,0:0:0:0:
192,192,66756,1,12,0:0:0:0:
448,192,66831,1,12,0:0:0:0:
64,192,66906,1,12,0:0:0:0:
320,192,66981,1,12,0:0:0:0:
192,192,67056,1,12,0:0:0:0:
448,192,67131,1,12,0:0:0:0:
64,192,67206,1,12,0:0:0:0:
320,192,67281,1,12,0:0:0:0:
448,192,67281,1,0,0:0:0:0:
320,192,67881,1,6,0:0:0:0:
448,192,67881,1,6,0:0:0:0:
192,192,67956,1,0,0:0:0:0:
64,192,68031,1,0,0:0:0:0:
320,192,68106,1,0,0:0:0:0:
192,192,68181,1,0,0:0:0:0:
320,192,68256,1,0,0:0:0:0:
448,192,68331,1,0,0:0:0:0:
192,192,68406,1,0,0:0:0:0:
64,192,68481,1,8,0:0:0:0:
192,192,68556,1,0,0:0:0:0:
320,192,68631,1,0,0:0:0:0:
448,192,68706,1,0,0:0:0:0:
64,192,68781,1,0,0:0:0:0:
320,192,68856,1,0,0:0:0:0:
192,192,68931,1,0,0:0:0:0:
64,192,69006,1,0,0:0:0:0:
320,192,69081,1,8,0:0:0:0:
448,192,69081,1,8,0:0:0:0:
192,192,69231,1,0,0:0:0:0:
64,192,69381,1,0,0:0:0:0:
448,192,69531,1,0,0:0:0:0:
192,192,69681,1,8,0:0:0:0:
320,192,69681,1,8,0:0:0:0:
64,192,69831,1,0,0:0:0:0:
192,192,69981,1,0,0:0:0:0:
320,192,70131,1,0,0:0:0:0:
448,192,70281,1,4,0:0:0:0:
64,192,70281,1,4,0:0:0:0:
192,192,70356,1,0,0:0:0:0:
320,192,70431,1,0,0:0:0:0:
448,192,70506,1,0,0:0:0:0:
192,192,70581,1,0,0:0:0:0:
320,192,70656,1,0,0:0:0:0:
448,192,70731,1,0,0:0:0:0:
320,192,70806,1,0,0:0:0:0:
192,192,70881,1,8,0:0:0:0:
64,192,70956,1,0,0:0:0:0:
192,192,71031,1,0,0:0:0:0:
320,192,71106,1,0,0:0:0:0:
448,192,71181,1,0,0:0:0:0:
192,192,71256,1,0,0:0:0:0:
64,192,71331,1,0,0:0:0:0:
192,192,71406,1,0,0:0:0:0:
320,192,71481,1,8,0:0:0:0:
448,192,71481,1,8,0:0:0:0:
192,192,71631,1,0,0:0:0:0:
64,192,71781,1,0,0:0:0:0:
448,192,71931,1,0,0:0:0:0:
320,192,72081,1,8,0:0:0:0:
64,192,72081,1,8,0:0:0:0:
192,192,72231,1,0,0:0:0:0:
320,192,72381,1,0,0:0:0:0:
64,192,72531,1,0,0:0:0:0:
448,192,72681,1,4,0:0:0:0:
320,192,72681,1,4,0:0:0:0:
192,192,72756,1,0,0:0:0:0:
64,192,72831,1,0,0:0:0:0:
192,192,72906,1,0,0:0:0:0:
320,192,72981,1,0,0:0:0:0:
448,192,73056,1,0,0:0:0:0:
64,192,73131,1,0,0:0:0:0:
192,192,73206,1,0,0:0:0:0:
320,192,73281,1,8,0:0:0:0:
448,192,73356,1,0,0:0:0:0:
64,192,73431,1,0,0:0:0:0:
320,192,73506,1,0,0:0:0:0:
448,192,73581,1,0,0:0:0:0:
192,192,73656,1,0,0:0:0:0:
320,192,73731,1,0,0:0:0:0:
64,192,73806,1,0,0:0:0:0:
192,192,73881,1,8,0:0:0:0:
448,192,73881,1,8,0:0:0:0:
64,192,74031,1,0,0:0:0:0:
192,192,74181,1,0,0:0:0:0:
448,192,74331,1,0,0:0:0:0:
64,192,74481,1,8,0:0:0:0:
320,192,74481,1,8,0:0:0:0:
192,192,74631,1,0,0:0:0:0:
448,192,74781,1,0,0:0:0:0:
192,192,74931,1,0,0:0:0:0:
448,192,75081,1,4,0:0:0:0:
64,192,75081,1,4,0:0:0:0:
192,192,75156,1,0,0:0:0:0:
320,192,75231,1,0,0:0:0:0:
448,192,75306,1,0,0:0:0:0:
192,192,75381,1,0,0:0:0:0:
64,192,75456,1,0,0:0:0:0:
320,192,75531,1,0,0:0:0:0:
448,192,75606,1,0,0:0:0:0:
320,192,75681,1,8,0:0:0:0:
192,192,75756,1,0,0:0:0:0:
64,192,75831,1,0,0:0:0:0:
448,192,75906,1,0,0:0:0:0:
320,192,75981,1,0,0:0:0:0:
64,192,76056,1,0,0:0:0:0:
448,192,76131,1,0,0:0:0:0:
320,192,76206,1,0,0:0:0:0:
192,192,76281,1,8,0:0:0:0:
64,192,76356,1,8,0:0:0:0:
192,192,76431,1,8,0:0:0:0:
320,192,76506,1,8,0:0:0:0:
448,192,76581,1,8,0:0:0:0:
320,192,76656,1,0,0:0:0:0:
192,192,76731,1,0,0:0:0:0:
64,192,76806,1,0,0:0:0:0:
320,192,76881,1,4,0:0:0:0:
448,192,76881,1,4,0:0:0:0:
192,192,77181,1,0,0:0:0:0:
64,192,77481,1,4,0:0:0:0:
320,192,77481,1,4,0:0:0:0:
448,192,77556,1,0,0:0:0:0:
320,192,77631,1,0,0:0:0:0:
192,192,77706,1,0,0:0:0:0:
64,192,77781,1,0,0:0:0:0:
192,192,77856,1,0,0:0:0:0:
320,192,77931,1,0,0:0:0:0:
448,192,78006,1,0,0:0:0:0:
192,192,78081,1,0,0:0:0:0:
448,192,78231,1,8,0:0:0:0:
320,192,78231,1,8,0:0:0:0:
192,192,78381,1,0,0:0:0:0:
448,192,78531,1,8,0:0:0:0:
64,192,78531,1,8,0:0:0:0:
320,192,78681,128,0,78756:0:0:0:0:
64,192,78831,1,8,0:0:0:0:
192,192,78831,1,8,0:0:0:0:
448,192,78981,1,0,0:0:0:0:
192,192,79131,1,8,0:0:0:0:
320,192,79131,1,8,0:0:0:0:
64,192,79281,128,0,79356:0:0:0:0:
320,192,79431,1,8,0:0:0:0:
448,192,79431,1,8,0:0:0:0:
192,192,79581,1,0,0:0:0:0:
320,192,79731,1,8,0:0:0:0:
64,192,79731,1,8,0:0:0:0:
320,192,79881,1,4,0:0:0:0:
448,192,79881,1,4,0:0:0:0:
192,192,79956,1,0,0:0:0:0:
64,192,80031,1,0,0:0:0:0:
448,192,80106,1,0,0:0:0:0:
320,192,80181,1,0,0:0:0:0:
192,192,80256,1,0,0:0:0:0:
64,192,80331,1,0,0:0:0:0:
192,192,80406,1,0,0:0:0:0:
320,192,80481,1,0,0:0:0:0:
448,192,80631,1,8,0:0:0:0:
192,192,80631,1,8,0:0:0:0:
320,192,80781,1,0,0:0:0:0:
64,192,80931,1,8,0:0:0:0:
192,192,80931,1,8,0:0:0:0:
320,192,81081,128,0,81156:0:0:0:0:
64,192,81231,1,8,0:0:0:0:
192,192,81231,1,8,0:0:0:0:
320,192,81381,1,0,0:0:0:0:
64,192,81531,1,8,0:0:0:0:
448,192,81531,1,8,0:0:0:0:
320,192,81681,128,0,81756:0:0:0:0:
64,192,81831,1,8,0:0:0:0:
448,192,81831,1,8,0:0:0:0:
192,192,81981,1,0,0:0:0:0:
320,192,82131,1,8,0:0:0:0:
64,192,82131,1,8,0:0:0:0:
320,192,82281,1,4,0:0:0:0:
448,192,82281,1,4,0:0:0:0:
192,192,82356,1,0,0:0:0:0:
64,192,82431,1,0,0:0:0:0:
192,192,82506,1,0,0:0:0:0:
320,192,82581,1,0,0:0:0:0:
64,192,82656,1,0,0:0:0:0:
192,192,82731,1,0,0:0:0:0:
320,192,82806,1,0,0:0:0:0:
448,192,82881,1,0,0:0:0:0:
192,192,83031,1,8,0:0:0:0:
320,192,83031,1,8,0:0:0:0:
64,192,83181,1,0,0:0:0:0:
320,192,83331,1,8,0:0:0:0:
192,192,83331,1,8,0:0:0:0:
448,192,83481,128,0,83556:0:0:0:0:
64,192,83631,1,8,0:0:0:0:
320,192,83631,1,8,0:0:0:0:
448,192,83781,1,0,0:0:0:0:
64,192,83931,1,8,0:0:0:0:
192,192,83931,1,8,0:0:0:0:
320,192,84081,128,0,84156:0:0:0:0:
192,192,84231,1,8,0:0:0:0:
64,192,84231,1,8,0:0:0:0:
320,192,84381,1,0,0:0:0:0:
192,192,84531,1,8,0:0:0:0:
448,192,84531,1,8,0:0:0:0:
64,192,84681,1,4,0:0:0:0:
320,192,84681,1,4,0:0:0:0:
192,192,84756,1,0,0:0:0:0:
448,192,84831,1,0,0:0:0:0:
320,192,84981,128,0,85131:0:0:0:0:
64,192,84981,1,8,0:0:0:0:
448,192,85281,128,0,85431:0:0:0:0:
192,192,85281,1,8,0:0:0:0:
320,192,85581,128,0,85731:0:0:0:0:
64,192,85581,1,8,0:0:0:0:
192,192,85731,128,0,85881:0:0:0:0:
448,192,85881,1,8,0:0:0:0:
320,192,86031,1,8,0:0:0:0:
64,192,86031,1,8,0:0:0:0:
320,192,86181,128,0,86331:0:0:0:0:
192,192,86181,1,8,0:0:0:0:
448,192,86481,1,0,0:0:0:0:
192,192,86556,1,0,0:0:0:0:
64,192,86631,1,0,0:0:0:0:
192,192,86706,1,0,0:0:0:0:
320,192,86781,1,0,0:0:0:0:
448,192,86856,1,0,0:0:0:0:
320,192,86931,1,0,0:0:0:0:
192,192,87006,1,0,0:0:0:0:
448,192,87081,1,8,0:0:0:0:
64,192,87156,1,8,0:0:0:0:
448,192,87231,1,0,0:0:0:0:
192,192,87306,1,0,0:0:0:0:
320,192,87381,1,0,0:0:0:0:
192,192,87456,1,0,0:0:0:0:
64,192,87531,1,8,0:0:0:0:
448,192,87606,1,8,0:0:0:0:
64,192,87681,1,0,0:0:0:0:
320,192,87756,1,0,0:0:0:0:
192,192,87831,1,0,0:0:0:0:
320,192,87906,1,0,0:0:0:0:
64,192,87981,1,8,0:0:0:0:
448,192,88056,1,8,0:0:0:0:
64,192,88131,1,0,0:0:0:0:
320,192,88206,1,0,0:0:0:0:
192,192,88281,1,0,0:0:0:0:
320,192,88356,1,0,0:0:0:0:
64,192,88431,1,8,0:0:0:0:
448,192,88506,1,8,0:0:0:0:
64,192,88581,1,0,0:0:0:0:
320,192,88656,1,0,0:0:0:0:
192,192,88731,1,0,0:0:0:0:
320,192,88806,1,0,0:0:0:0:
64,192,88881,1,0,0:0:0:0:
448,192,88956,1,0,0:0:0:0:
64,192,89031,1,0,0:0:0:0:
192,192,89106,1,0,0:0:0:0:
448,192,89181,1,8,0:0:0:0:
320,192,89181,1,8,0:0:0:0:
64,192,89481,1,0,0:0:0:0:
192,192,89556,1,0,0:0:0:0:
448,192,89631,1,0,0:0:0:0:
192,192,89781,1,0,0:0:0:0:
64,192,89856,1,0,0:0:0:0:
320,192,89931,1,0,0:0:0:0:
448,192,90081,1,0,0:0:0:0:
320,192,90156,1,0,0:0:0:0:
192,192,90231,1,0,0:0:0:0:
64,192,90381,1,0,0:0:0:0:
192,192,90456,1,0,0:0:0:0:
448,192,90531,1,0,0:0:0:0:
192,192,90681,1,0,0:0:0:0:
64,192,90681,1,0,0:0:0:0:
64,192,91881,1,0,0:0:0:0:
448,192,91956,1,0,0:0:0:0:
320,192,92031,1,0,0:0:0:0:
64,192,92181,1,0,0:0:0:0:
320,192,92256,1,0,0:0:0:0:
448,192,92331,1,0,0:0:0:0:
320,192,92481,1,0,0:0:0:0:
192,192,92556,1,0,0:0:0:0:
64,192,92631,1,0,0:0:0:0:
448,192,92781,1,0,0:0:0:0:
64,192,92856,1,0,0:0:0:0:
192,192,92931,1,0,0:0:0:0:
192,192,93081,1,8,0:0:0:0:
448,192,93081,1,8,0:0:0:0:
192,192,93231,1,8,0:0:0:0:
320,192,93231,1,8,0:0:0:0:
64,192,93381,1,8,0:0:0:0:
448,192,93381,1,8,0:0:0:0:
320,192,93531,1,8,0:0:0:0:
192,192,93531,1,8,0:0:0:0:
448,192,93681,1,8,0:0:0:0:
64,192,93681,1,8,0:0:0:0:
448,192,93831,1,8,0:0:0:0:
192,192,93831,1,8,0:0:0:0:
64,192,93981,1,8,0:0:0:0:
320,192,93981,1,8,0:0:0:0:
320,192,94131,1,8,0:0:0:0:
448,192,94131,1,8,0:0:0:0:
64,192,94281,1,0,0:0:0:0:
448,192,94356,1,0,0:0:0:0:
320,192,94431,1,0,0:0:0:0:
64,192,94581,1,0,0:0:0:0:
192,192,94656,1,0,0:0:0:0:
320,192,94731,1,0,0:0:0:0:
192,192,94881,1,0,0:0:0:0:
320,192,94956,1,0,0:0:0:0:
448,192,95031,1,0,0:0:0:0:
192,192,95181,1,0,0:0:0:0:
448,192,95256,1,0,0:0:0:0:
320,192,95331,1,0,0:0:0:0:
64,192,95481,1,0,0:0:0:0:
192,192,95556,1,0,0:0:0:0:
320,192,95631,1,0,0:0:0:0:
64,192,95781,1,0,0:0:0:0:
192,192,95856,1,0,0:0:0:0:
320,192,95931,1,0,0:0:0:0:
320,192,96081,1,0,0:0:0:0:
64,192,96156,1,0,0:0:0:0:
192,192,96231,1,0,0:0:0:0:
64,192,96381,1,0,0:0:0:0:
320,192,96456,1,0,0:0:0:0:
448,192,96531,1,0,0:0:0:0:
64,192,96681,1,0,0:0:0:0:
448,192,96756,1,0,0:0:0:0:
320,192,96831,1,0,0:0:0:0:
64,192,96981,1,0,0:0:0:0:
192,192,97056,1,0,0:0:0:0:
320,192,97131,1,0,0:0:0:0:
320,192,97281,1,0,0:0:0:0:
64,192,97356,1,0,0:0:0:0:
192,192,97431,1,0,0:0:0:0:
192,192,97581,1,0,0:0:0:0:
320,192,97656,1,0,0:0:0:0:
448,192,97731,1,0,0:0:0:0:
192,192,97881,1,8,0:0:0:0:
320,192,97956,1,8,0:0:0:0:
64,192,98031,1,8,0:0:0:0:
320,192,98106,1,8,0:0:0:0:
192,192,98181,1,0,0:0:0:0:
64,192,98256,1,0,0:0:0:0:
320,192,98331,1,0,0:0:0:0:
192,192,98406,1,0,0:0:0:0:
320,192,98481,1,0,0:0:0:0:
448,192,98481,1,0,0:0:0:0:
320,192,99081,1,0,0:0:0:0:
192,192,99156,1,0,0:0:0:0:
64,192,99231,1,0,0:0:0:0:
320,192,99306,1,0,0:0:0:0:
448,192,99381,1,0,0:0:0:0:
192,192,99456,1,0,0:0:0:0:
64,192,99531,1,0,0:0:0:0:
448,192,99606,1,0,0:0:0:0:
192,192,99681,1,8,0:0:0:0:
64,192,99681,1,8,0:0:0:0:
320,192,99831,1,0,0:0:0:0:
64,192,99981,1,0,0:0:0:0:
320,192,100131,128,0,100431:0:0:0:0:
448,192,100131,1,0,0:0:0:0:
192,192,100431,1,0,0:0:0:0:
64,192,100581,1,0,0:0:0:0:
320,192,100731,1,0,0:0:0:0:
448,192,100881,1,8,0:0:0:0:
64,192,100881,1,8,0:0:0:0:
192,192,101031,1,0,0:0:0:0:
320,192,101181,1,0,0:0:0:0:
64,192,101331,1,0,0:0:0:0:
320,192,101481,1,0,0:0:0:0:
192,192,101556,1,0,0:0:0:0:
64,192,101631,1,0,0:0:0:0:
448,192,101706,1,0,0:0:0:0:
320,192,101781,1,0,0:0:0:0:
192,192,101856,1,0,0:0:0:0:
320,192,101931,1,0,0:0:0:0:
448,192,102006,1,0,0:0:0:0:
192,192,102081,1,8,0:0:0:0:
64,192,102081,1,8,0:0:0:0:
320,192,102231,1,0,0:0:0:0:
448,192,102381,1,0,0:0:0:0:
320,192,102531,128,0,102831:0:0:0:0:
192,192,102831,1,8,0:0:0:0:
64,192,102831,1,8,0:0:0:0:
320,192,102981,1,0,0:0:0:0:
64,192,103131,1,0,0:0:0:0:
192,192,103281,1,8,0:0:0:0:
448,192,103281,1,8,0:0:0:0:
64,192,103431,1,0,0:0:0:0:
320,192,103581,1,0,0:0:0:0:
64,192,103731,1,0,0:0:0:0:
320,192,103881,1,8,0:0:0:0:
192,192,103956,1,8,0:0:0:0:
320,192,104031,1,8,0:0:0:0:
192,192,104181,1,8,0:0:0:0:
320,192,104256,1,8,0:0:0:0:
192,192,104331,1,8,0:0:0:0:
64,192,104481,1,4,0:0:0:0:
192,192,104481,1,4,0:0:0:0:
448,192,104631,1,4,0:0:0:0:
64,192,104631,1,4,0:0:0:0:
192,192,104781,1,10,0:0:0:0:
320,192,104781,1,10,0:0:0:0:
64,192,104931,1,4,0:0:0:0:
192,192,104931,1,4,0:0:0:0:
320,192,105381,1,0,0:0:0:0:
448,192,105381,1,0,0:0:0:0:
192,192,105531,1,0,0:0:0:0:
64,192,105531,1,0,0:0:0:0:
448,192,105681,1,0,0:0:0:0:
320,192,105756,1,0,0:0:0:0:
192,192,105831,1,0,0:0:0:0:
64,192,105906,1,0,0:0:0:0:
320,192,105981,1,0,0:0:0:0:
448,192,106056,1,0,0:0:0:0:
192,192,106131,1,0,0:0:0:0:
64,192,106206,1,0,0:0:0:0:
448,192,106281,1,0,0:0:0:0:
192,192,106356,1,0,0:0:0:0:
320,192,106431,1,0,0:0:0:0:
448,192,106506,1,0,0:0:0:0:
64,192,106581,1,0,0:0:0:0:
192,192,106656,1,0,0:0:0:0:
320,192,106731,1,0,0:0:0:0:
448,192,106806,1,0,0:0:0:0:
192,192,106881,1,8,0:0:0:0:
64,192,106881,1,8,0:0:0:0:
320,192,107031,1,0,0:0:0:0:
64,192,107181,1,4,0:0:0:0:
192,192,107181,1,4,0:0:0:0:
448,192,107331,1,4,0:0:0:0:
320,192,107331,1,4,0:0:0:0:
192,192,107781,1,0,0:0:0:0:
320,192,107931,1,0,0:0:0:0:
448,192,108081,1,0,0:0:0:0:
320,192,108156,1,0,0:0:0:0:
192,192,108231,1,0,0:0:0:0:
64,192,108306,1,0,0:0:0:0:
448,192,108381,1,0,0:0:0:0:
320,192,108681,1,4,0:0:0:0:
192,192,108681,1,4,0:0:0:0:
64,192,108831,1,0,0:0:0:0:
448,192,108981,1,0,0:0:0:0:
192,192,109131,1,0,0:0:0:0:
64,192,109281,1,8,0:0:0:0:
448,192,109281,1,8,0:0:0:0:
320,192,109431,1,0,0:0:0:0:
64,192,109581,1,0,0:0:0:0:
448,192,109581,1,0,0:0:0:0:
192,192,109731,1,0,0:0:0:0:
320,192,109731,128,0,111081:0:0:0:0:
192,192,110181,1,0,0:0:0:0:
448,192,110331,1,0,0:0:0:0:
64,192,110481,1,8,0:0:0:0:
192,192,110481,1,8,0:0:0:0:
448,192,110631,1,0,0:0:0:0:
192,192,110781,1,0,0:0:0:0:
192,192,111081,1,4,0:0:0:0:
64,192,111081,1,4,0:0:0:0:
320,192,111231,1,0,0:0:0:0:
448,192,111381,1,0,0:0:0:0:
192,192,111531,1,0,0:0:0:0:
448,192,111681,1,8,0:0:0:0:
64,192,111681,1,8,0:0:0:0:
320,192,111831,1,0,0:0:0:0:
192,192,111981,1,0,0:0:0:0:
320,192,112131,128,0,113481:0:0:0:0:
64,192,112131,1,0,0:0:0:0:
448,192,112581,1,0,0:0:0:0:
192,192,112731,1,0,0:0:0:0:
448,192,112881,1,8,0:0:0:0:
64,192,112881,1,8,0:0:0:0:
192,192,113031,1,0,0:0:0:0:
448,192,113181,1,0,0:0:0:0:
448,192,113481,1,4,0:0:0:0:
192,192,113481,1,4,0:0:0:0:
64,192,113631,1,0,0:0:0:0:
448,192,113781,1,0,0:0:0:0:
64,192,113931,1,0,0:0:0:0:
192,192,114081,1,8,0:0:0:0:
448,192,114081,1,8,0:0:0:0:
64,192,114231,1,0,0:0:0:0:
448,192,114381,1,0,0:0:0:0:
320,192,114531,128,0,115881:0:0:0:0:
64,192,114531,1,0,0:0:0:0:
448,192,114981,1,0,0:0:0:0:
64,192,115131,1,0,0:0:0:0:
448,192,115281,1,8,0:0:0:0:
192,192,115281,1,8,0:0:0:0:
64,192,115431,1,0,0:0:0:0:
448,192,115581,1,0,0:0:0:0:
64,192,115881,1,4,0:0:0:0:
448,192,115881,1,4,0:0:0:0:
320,192,116031,1,0,0:0:0:0:
64,192,116181,1,0,0:0:0:0:
448,192,116331,1,0,0:0:0:0:
64,192,116481,1,8,0:0:0:0:
320,192,116481,1,8,0:0:0:0:
448,192,116631,1,0,0:0:0:0:
192,192,116781,1,0,0:0:0:0:
448,192,116931,128,0,118281:0:0:0:0:
64,192,118281,1,0,0:0:0:0:
320,192,118281,1,0,0:0:0:0:
192,192,118431,1,0,0:0:0:0:
320,192,118431,1,0,0:0:0:0:
320,192,118581,1,0,0:0:0:0:
64,192,118581,1,0,0:0:0:0:
320,192,118731,1,0,0:0:0:0:
448,192,118731,1,0,0:0:0:0:
448,192,118881,1,0,0:0:0:0:
64,192,118881,1,0,0:0:0:0:
192,192,119031,1,0,0:0:0:0:
320,192,119031,1,0,0:0:0:0:
192,192,119181,1,0,0:0:0:0:
64,192,119181,1,0,0:0:0:0:
448,192,119331,1,0,0:0:0:0:
320,192,119331,1,0,0:0:0:0:
192,192,119481,1,0,0:0:0:0:
64,192,119481,1,0,0:0:0:0:
320,192,119631,1,0,0:0:0:0:
448,192,119631,1,0,0:0:0:0:
192,192,119781,1,0,0:0:0:0:
320,192,119781,1,0,0:0:0:0:
64,192,119931,1,0,0:0:0:0:
448,192,119931,1,0,0:0:0:0:
448,192,120081,1,0,0:0:0:0:
320,192,120081,1,0,0:0:0:0:
320,192,120231,1,0,0:0:0:0:
64,192,120231,1,0,0:0:0:0:
448,192,120381,1,0,0:0:0:0:
192,192,120381,1,0,0:0:0:0:
192,192,120531,1,0,0:0:0:0:
64,192,120531,1,0,0:0:0:0:
448,192,120681,1,0,0:0:0:0:
320,192,120681,1,0,0:0:0:0:
320,192,120831,1,0,0:0:0:0:
192,192,120831,1,0,0:0:0:0:
192,192,120981,1,0,0:0:0:0:
64,192,120981,1,0,0:0:0:0:
192,192,121131,1,0,0:0:0:0:
320,192,121131,1,0,0:0:0:0:
64,192,121281,1,0,0:0:0:0:
320,192,121281,1,0,0:0:0:0:
448,192,121431,1,0,0:0:0:0:
320,192,121431,1,0,0:0:0:0:
320,192,121581,1,0,0:0:0:0:
192,192,121581,1,0,0:0:0:0:
64,192,121731,1,0,0:0:0:0:
192,192,121731,1,0,0:0:0:0:
448,192,121881,1,0,0:0:0:0:
320,192,121881,1,0,0:0:0:0:
320,192,122031,1,0,0:0:0:0:
64,192,122031,1,0,0:0:0:0:
448,192,122181,1,0,0:0:0:0:
192,192,122181,1,0,0:0:0:0:
64,192,122331,1,0,0:0:0:0:
320,192,122331,1,0,0:0:0:0:
448,192,122481,1,0,0:0:0:0:
320,192,122481,1,0,0:0:0:0:
320,192,122631,1,0,0:0:0:0:
192,192,122631,1,0,0:0:0:0:
64,192,122781,1,0,0:0:0:0:
320,192,122781,1,0,0:0:0:0:
448,192,122931,1,0,0:0:0:0:
192,192,122931,1,0,0:0:0:0:
448,192,123081,1,4,0:0:0:0:
64,192,123081,1,4,0:0:0:0:
320,192,123156,1,0,0:0:0:0:
192,192,123231,1,0,0:0:0:0:
64,192,123306,1,0,0:0:0:0:
192,192,123381,1,0,0:0:0:0:
320,192,123456,1,0,0:0:0:0:
448,192,123531,1,0,0:0:0:0:
320,192,123606,1,0,0:0:0:0:
192,192,123681,1,0,0:0:0:0:
64,192,123756,1,0,0:0:0:0:
320,192,123831,1,0,0:0:0:0:
448,192,123906,1,0,0:0:0:0:
320,192,123981,1,0,0:0:0:0:
192,192,124056,1,0,0:0:0:0:
64,192,124131,1,0,0:0:0:0:
320,192,124206,1,0,0:0:0:0:
192,192,124281,1,0,0:0:0:0:
448,192,124356,1,0,0:0:0:0:
320,192,124431,1,0,0:0:0:0:
64,192,124506,1,0,0:0:0:0:
192,192,124581,1,0,0:0:0:0:
320,192,124656,1,0,0:0:0:0:
64,192,124731,1,0,0:0:0:0:
448,192,124806,1,0,0:0:0:0:
320,192,124881,1,0,0:0:0:0:
64,192,124956,1,0,0:0:0:0:
320,192,125031,1,0,0:0:0:0:
192,192,125106,1,0,0:0:0:0:
64,192,125181,1,0,0:0:0:0:
320,192,125256,1,0,0:0:0:0:
448,192,125331,1,0,0:0:0:0:
64,192,125406,1,0,0:0:0:0:
192,192,125481,1,0,0:0:0:0:
320,192,125556,1,0,0:0:0:0:
448,192,125631,1,0,0:0:0:0:
192,192,125706,1,0,0:0:0:0:
64,192,125781,1,0,0:0:0:0:
320,192,125856,1,0,0:0:0:0:
448,192,125931,1,0,0:0:0:0:
192,192,126006,1,0,0:0:0:0:
64,192,126081,1,0,0:0:0:0:
320,192,126156,1,0,0:0:0:0:
448,192,126231,1,0,0:0:0:0:
64,192,126306,1,0,0:0:0:0:
320,192,126381,1,0,0:0:0:0:
192,192,126456,1,0,0:0:0:0:
64,192,126531,1,0,0:0:0:0:
448,192,126606,1,0,0:0:0:0:
192,192,126681,1,8,0:0:0:0:
448,192,126756,1,8,0:0:0:0:
64,192,126831,1,8,0:0:0:0:
320,192,126906,1,8,0:0:0:0:
192,192,126981,1,0,0:0:0:0:
64,192,127056,1,0,0:0:0:0:
320,192,127131,1,8,0:0:0:0:
448,192,127206,1,8,0:0:0:0:
192,192,127281,1,8,0:0:0:0:
64,192,127356,1,0,0:0:0:0:
448,192,127431,1,8,0:0:0:0:
320,192,127506,1,8,0:0:0:0:
64,192,127581,1,8,0:0:0:0:
320,192,127656,1,0,0:0:0:0:
448,192,127731,1,0,0:0:0:0:
320,192,127806,1,0,0:0:0:0:
64,192,127881,1,4,0:0:0:0:
192,192,127881,1,4,0:0:0:0:
320,192,127956,1,0,0:0:0:0:
448,192,128031,1,0,0:0:0:0:
192,192,128106,1,0,0:0:0:0:
64,192,128181,1,0,0:0:0:0:
320,192,128256,1,0,0:0:0:0:
448,192,128331,1,0,0:0:0:0:
192,192,128406,1,0,0:0:0:0:
64,192,128481,1,8,0:0:0:0:
192,192,128556,1,0,0:0:0:0:
448,192,128631,1,0,0:0:0:0:
320,192,128706,1,0,0:0:0:0:
64,192,128781,1,0,0:0:0:0:
192,192,128856,1,0,0:0:0:0:
320,192,128931,1,0,0:0:0:0:
64,192,129006,1,0,0:0:0:0:
192,192,129081,1,0,0:0:0:0:
448,192,129156,1,0,0:0:0:0:
64,192,129231,1,0,0:0:0:0:
192,192,129306,1,0,0:0:0:0:
320,192,129381,1,0,0:0:0:0:
448,192,129456,1,0,0:0:0:0:
192,192,129531,1,0,0:0:0:0:
320,192,129606,1,0,0:0:0:0:
64,192,129681,1,8,0:0:0:0:
320,192,129756,1,0,0:0:0:0:
192,192,129831,1,0,0:0:0:0:
448,192,129906,1,0,0:0:0:0:
320,192,129981,1,0,0:0:0:0:
192,192,130056,1,0,0:0:0:0:
64,192,130131,1,0,0:0:0:0:
320,192,130206,1,0,0:0:0:0:
448,192,130281,1,6,0:0:0:0:
192,192,130356,1,0,0:0:0:0:
64,192,130431,1,0,0:0:0:0:
320,192,130506,1,0,0:0:0:0:
448,192,130581,1,0,0:0:0:0:
192,192,130656,1,0,0:0:0:0:
64,192,130731,1,0,0:0:0:0:
448,192,130806,1,0,0:0:0:0:
320,192,130881,1,8,0:0:0:0:
192,192,130956,1,0,0:0:0:0:
64,192,131031,1,0,0:0:0:0:
192,192,131106,1,0,0:0:0:0:
448,192,131181,1,0,0:0:0:0:
320,192,131256,1,0,0:0:0:0:
192,192,131331,1,0,0:0:0:0:
448,192,131406,1,0,0:0:0:0:
64,192,131481,1,0,0:0:0:0:
192,192,131556,1,0,0:0:0:0:
448,192,131631,1,0,0:0:0:0:
320,192,131706,1,0,0:0:0:0:
192,192,131781,1,0,0:0:0:0:
64,192,131856,1,0,0:0:0:0:
192,192,131931,1,0,0:0:0:0:
448,192,132006,1,0,0:0:0:0:
64,192,132081,1,8,0:0:0:0:
320,192,132156,1,0,0:0:0:0:
192,192,132231,1,0,0:0:0:0:
448,192,132306,1,0,0:0:0:0:
320,192,132381,1,0,0:0:0:0:
192,192,132456,1,0,0:0:0:0:
64,192,132531,1,0,0:0:0:0:
320,192,132606,1,0,0:0:0:0:
448,192,132681,1,14,0:0:0:0:
64,192,132756,1,0,0:0:0:0:
320,192,132831,1,0,0:0:0:0:
192,192,132906,1,0,0:0:0:0:
448,192,132981,1,0,0:0:0:0:
192,192,133056,1,0,0:0:0:0:
320,192,133131,1,0,0:0:0:0:
64,192,133206,1,0,0:0:0:0:
192,192,133281,1,8,0:0:0:0:
320,192,133356,1,0,0:0:0:0:
448,192,133431,1,0,0:0:0:0:
192,192,133506,1,0,0:0:0:0:
448,192,133581,1,0,0:0:0:0:
320,192,133656,1,0,0:0:0:0:
64,192,133731,1,0,0:0:0:0:
192,192,133806,1,0,0:0:0:0:
448,192,133881,1,0,0:0:0:0:
320,192,133956,1,0,0:0:0:0:
192,192,134031,1,0,0:0:0:0:
448,192,134106,1,0,0:0:0:0:
64,192,134181,1,0,0:0:0:0:
192,192,134256,1,0,0:0:0:0:
448,192,134331,1,0,0:0:0:0:
320,192,134406,1,0,0:0:0:0:
64,192,134481,1,8,0:0:0:0:
320,192,134556,1,0,0:0:0:0:
192,192,134631,1,0,0:0:0:0:
448,192,134706,1,0,0:0:0:0:
64,192,134781,1,0,0:0:0:0:
320,192,134856,1,0,0:0:0:0:
448,192,134931,1,0,0:0:0:0:
192,192,135006,1,0,0:0:0:0:
320,192,135081,1,0,0:0:0:0:
64,192,135156,1,0,0:0:0:0:
192,192,135231,1,0,0:0:0:0:
320,192,135306,1,0,0:0:0:0:
64,192,135381,1,0,0:0:0:0:
192,192,135456,1,0,0:0:0:0:
448,192,135531,1,0,0:0:0:0:
64,192,135606,1,0,0:0:0:0:
320,192,135681,1,8,0:0:0:0:
64,192,135756,1,0,0:0:0:0:
192,192,135831,1,0,0:0:0:0:
448,192,135906,1,0,0:0:0:0:
192,192,135981,1,0,0:0:0:0:
64,192,136056,1,0,0:0:0:0:
320,192,136131,1,0,0:0:0:0:
448,192,136206,1,0,0:0:0:0:
192,192,136281,1,0,0:0:0:0:
64,192,136356,1,0,0:0:0:0:
320,192,136431,1,0,0:0:0:0:
192,192,136506,1,0,0:0:0:0:
448,192,136581,1,0,0:0:0:0:
64,192,136656,1,0,0:0:0:0:
320,192,136731,1,0,0:0:0:0:
448,192,136806,1,0,0:0:0:0:
192,192,136881,1,0,0:0:0:0:
64,192,136956,1,0,0:0:0:0:
320,192,137031,1,0,0:0:0:0:
192,192,137106,1,0,0:0:0:0:
448,192,137181,1,0,0:0:0:0:
64,192,137256,1,0,0:0:0:0:
192,192,137331,1,0,0:0:0:0:
320,192,137406,1,0,0:0:0:0:
64,192,137481,1,0,0:0:0:0:
192,192,137481,1,0,0:0:0:0:
192,192,138081,128,0,138381:0:0:0:0:
320,192,138381,128,0,138681:0:0:0:0:
448,192,138681,128,0,138981:0:0:0:0:
64,192,138981,128,0,139281:0:0:0:0:
320,192,139281,128,0,139881:0:0:0:0:
64,192,140181,128,0,140481:0:0:0:0:
320,192,140481,128,0,140781:0:0:0:0:
64,192,140781,128,0,141081:0:0:0:0:
192,192,141081,128,0,141381:0:0:0:0:
64,192,141381,128,0,141681:0:0:0:0:
320,192,141681,1,0,0:0:0:0:
448,192,141681,1,0,0:0:0:0:
192,192,141981,1,0,0:0:0:0:
320,192,141981,1,0,0:0:0:0:
64,192,142281,1,0,0:0:0:0:
192,192,142281,1,0,0:0:0:0:
192,192,142881,128,0,143181:0:0:0:0:
320,192,143181,128,0,143481:0:0:0:0:
448,192,143481,128,0,143781:0:0:0:0:
64,192,143781,128,0,144081:0:0:0:0:
320,192,144081,128,0,144681:0:0:0:0:
64,192,144681,1,8,0:0:0:0:
448,192,144681,1,8,0:0:0:0:
192,192,144881,1,8,0:0:0:0:
448,192,144881,1,8,0:0:0:0:
64,192,145081,1,8,0:0:0:0:
320,192,145081,1,8,0:0:0:0:
192,192,145281,1,8,0:0:0:0:
448,192,145281,1,8,0:0:0:0:
192,192,145481,1,8,0:0:0:0:
320,192,145481,1,8,0:0:0:0:
64,192,145681,1,8,0:0:0:0:
192,192,145681,1,8,0:0:0:0:
320,192,145881,1,6,0:0:0:0:
448,192,145881,1,6,0:0:0:0:
192,192,146481,128,0,146781:0:0:0:0:
320,192,146781,128,0,147081:0:0:0:0:
448,192,147081,128,0,147381:0:0:0:0:
64,192,147381,128,0,147681:0:0:0:0:
320,192,147681,128,0,148281:0:0:0:0:
64,192,148581,128,0,148881:0:0:0:0:
320,192,148881,128,0,149181:0:0:0:0:
64,192,149181,128,0,149481:0:0:0:0:
192,192,149481,128,0,149781:0:0:0:0:
64,192,149781,128,0,150081:0:0:0:0:
448,192,150081,1,0,0:0:0:0:
320,192,150081,1,0,0:0:0:0:
320,192,150381,1,0,0:0:0:0:
192,192,150381,1,0,0:0:0:0:
64,192,150681,1,0,0:0:0:0:
192,192,150681,1,0,0:0:0:0:
192,192,151281,128,0,151581:0:0:0:0:
320,192,151581,128,0,151881:0:0:0:0:
448,192,151881,128,0,152181:0:0:0:0:
64,192,152181,128,0,152481:0:0:0:0:
320,192,152481,128,0,153081:0:0:0:0:
64,192,153081,1,8,0:0:0:0:
448,192,153081,1,8,0:0:0:0:
64,192,153281,1,8,0:0:0:0:
320,192,153281,1,8,0:0:0:0:
320,192,153481,1,8,0:0:0:0:
192,192,153481,1,8,0:0:0:0:
192,192,153681,1,8,0:0:0:0:
448,192,153681,1,8,0:0:0:0:
64,192,153881,1,8,0:0:0:0:
320,192,153881,1,8,0:0:0:0:
192,192,154081,1,8,0:0:0:0:
448,192,154081,1,8,0:0:0:0:
64,192,154281,1,6,0:0:0:0:
320,192,154281,1,6,0:0:0:0:
192,192,154431,1,0,0:0:0:0:
320,192,154581,1,0,0:0:0:0:
64,192,154731,1,0,0:0:0:0:
448,192,154881,1,0,0:0:0:0:
64,192,155031,1,0,0:0:0:0:
320,192,155181,1,0,0:0:0:0:
64,192,155331,1,0,0:0:0:0:
192,192,155481,1,8,0:0:0:0:
448,192,155481,1,8,0:0:0:0:
320,192,155631,1,0,0:0:0:0:
448,192,155781,1,0,0:0:0:0:
64,192,155931,1,0,0:0:0:0:
192,192,156081,1,0,0:0:0:0:
320,192,156231,1,0,0:0:0:0:
64,192,156381,1,0,0:0:0:0:
448,192,156531,1,8,0:0:0:0:
320,192,156531,1,8,0:0:0:0:
64,192,156681,1,4,0:0:0:0:
320,192,156681,1,4,0:0:0:0:
448,192,156831,1,0,0:0:0:0:
64,192,156981,1,8,0:0:0:0:
192,192,156981,1,8,0:0:0:0:
320,192,157131,1,8,0:0:0:0:
448,192,157131,1,8,0:0:0:0:
192,192,157281,1,0,0:0:0:0:
64,192,157431,1,0,0:0:0:0:
192,192,157581,1,0,0:0:0:0:
320,192,157731,1,0,0:0:0:0:
192,192,157881,1,8,0:0:0:0:
448,192,157881,1,8,0:0:0:0:
64,192,158031,1,0,0:0:0:0:
448,192,158181,1,0,0:0:0:0:
320,192,158331,1,8,0:0:0:0:
192,192,158331,1,8,0:0:0:0:
64,192,158481,1,0,0:0:0:0:
192,192,158631,1,0,0:0:0:0:
320,192,158781,1,8,0:0:0:0:
448,192,158781,1,8,0:0:0:0:
64,192,158931,1,8,0:0:0:0:
192,192,158931,1,8,0:0:0:0:
192,192,159081,1,6,0:0:0:0:
448,192,159081,1,6,0:0:0:0:
320,192,159231,1,0,0:0:0:0:
64,192,159381,1,0,0:0:0:0:
192,192,159531,1,0,0:0:0:0:
320,192,159681,1,0,0:0:0:0:
192,192,159831,1,8,0:0:0:0:
64,192,159831,1,8,0:0:0:0:
320,192,159981,1,0,0:0:0:0:
448,192,160131,1,0,0:0:0:0:
320,192,160281,1,8,0:0:0:0:
64,192,160281,1,8,0:0:0:0:
448,192,160431,1,0,0:0:0:0:
64,192,160581,1,0,0:0:0:0:
320,192,160731,1,0,0:0:0:0:
64,192,160881,1,0,0:0:0:0:
448,192,161031,1,8,0:0:0:0:
192,192,161031,1,8,0:0:0:0:
64,192,161181,1,0,0:0:0:0:
448,192,161331,1,0,0:0:0:0:
64,192,161481,1,8,0:0:0:0:
320,192,161481,1,8,0:0:0:0:
192,192,161631,1,0,0:0:0:0:
64,192,161781,1,0,0:0:0:0:
320,192,161931,1,0,0:0:0:0:
192,192,162081,1,0,0:0:0:0:
448,192,162231,1,0,0:0:0:0:
192,192,162381,1,0,0:0:0:0:
448,192,162531,1,0,0:0:0:0:
320,192,162681,1,8,0:0:0:0:
64,192,162756,1,8,0:0:0:0:
320,192,162831,1,8,0:0:0:0:
192,192,162906,1,8,0:0:0:0:
448,192,162981,1,8,0:0:0:0:
192,192,163131,1,0,0:0:0:0:
64,192,163131,1,0,0:0:0:0:
320,192,163281,1,0,0:0:0:0:
448,192,163281,1,0,0:0:0:0:
64,192,163431,1,0,0:0:0:0:
320,192,163431,1,0,0:0:0:0:
192,192,163581,1,0,0:0:0:0:
448,192,163581,1,0,0:0:0:0:
320,192,163731,1,0,0:0:0:0:
64,192,163731,1,0,0:0:0:0:
192,192,163881,1,0,0:0:0:0:
448,192,163881,1,0,0:0:0:0:
64,192,164031,1,0,0:0:0:0:
192,192,164181,1,0,0:0:0:0:
320,192,164331,1,0,0:0:0:0:
64,192,164481,1,0,0:0:0:0:
192,192,164631,1,8,0:0:0:0:
448,192,164631,1,8,0:0:0:0:
320,192,164781,1,0,0:0:0:0:
64,192,164931,1,0,0:0:0:0:
448,192,165081,1,8,0:0:0:0:
192,192,165081,1,8,0:0:0:0:
64,192,165231,1,0,0:0:0:0:
320,192,165381,1,0,0:0:0:0:
64,192,165531,1,0,0:0:0:0:
192,192,165681,1,0,0:0:0:0:
448,192,165831,1,0,0:0:0:0:
64,192,165981,1,0,0:0:0:0:
448,192,166131,1,0,0:0:0:0:
64,192,166281,1,8,0:0:0:0:
320,192,166281,1,8,0:0:0:0:
448,192,166431,1,0,0:0:0:0:
320,192,166581,1,0,0:0:0:0:
64,192,166731,1,0,0:0:0:0:
448,192,166881,1,0,0:0:0:0:
64,192,167031,1,8,0:0:0:0:
192,192,167031,1,8,0:0:0:0:
320,192,167181,1,0,0:0:0:0:
448,192,167331,1,0,0:0:0:0:
192,192,167481,1,8,0:0:0:0:
320,192,167481,1,8,0:0:0:0:
64,192,167631,1,0,0:0:0:0:
448,192,167781,1,0,0:0:0:0:
320,192,167931,1,8,0:0:0:0:
64,192,167931,1,8,0:0:0:0:
448,192,168081,1,0,0:0:0:0:
192,192,168231,1,0,0:0:0:0:
320,192,168381,1,0,0:0:0:0:
448,192,168531,1,0,0:0:0:0:
320,192,168681,1,6,0:0:0:0:
64,192,168681,1,6,0:0:0:0:
192,192,168831,1,0,0:0:0:0:
448,192,168981,1,0,0:0:0:0:
320,192,169131,1,0,0:0:0:0:
192,192,169281,1,0,0:0:0:0:
448,192,169431,1,8,0:0:0:0:
64,192,169431,1,8,0:0:0:0:
320,192,169581,1,0,0:0:0:0:
192,192,169731,1,0,0:0:0:0:
64,192,169881,1,8,0:0:0:0:
320,192,169881,1,8,0:0:0:0:
448,192,170031,1,0,0:0:0:0:
320,192,170181,1,0,0:0:0:0:
192,192,170331,1,0,0:0:0:0:
320,192,170481,1,0,0:0:0:0:
64,192,170631,1,0,0:0:0:0:
192,192,170781,1,0,0:0:0:0:
320,192,170931,1,0,0:0:0:0:
448,192,171081,1,0,0:0:0:0:
192,192,171081,1,0,0:0:0:0:
64,192,171156,1,0,0:0:0:0:
448,192,171231,1,0,0:0:0:0:
192,192,171306,1,0,0:0:0:0:
320,192,171381,1,0,0:0:0:0:
64,192,171456,1,0,0:0:0:0:
320,192,171531,1,0,0:0:0:0:
192,192,171606,1,0,0:0:0:0:
64,192,171681,1,0,0:0:0:0:
320,192,171756,1,0,0:0:0:0:
448,192,171831,1,0,0:0:0:0:
64,192,171906,1,0,0:0:0:0:
320,192,171981,1,0,0:0:0:0:
64,192,172056,1,0,0:0:0:0:
448,192,172131,1,0,0:0:0:0:
192,192,172206,1,0,0:0:0:0:
64,192,172281,1,0,0:0:0:0:
192,192,172356,1,0,0:0:0:0:
320,192,172431,1,0,0:0:0:0:
64,192,172506,1,0,0:0:0:0:
448,192,172581,1,0,0:0:0:0:
320,192,172656,1,0,0:0:0:0:
64,192,172731,1,0,0:0:0:0:
192,192,172806,1,0,0:0:0:0:
448,192,172881,1,0,0:0:0:0:
192,192,172956,1,0,0:0:0:0:
320,192,173031,1,0,0:0:0:0:
448,192,173106,1,0,0:0:0:0:
64,192,173106,1,0,0:0:0:0:
192,192,173181,1,0,0:0:0:0:
320,192,173256,1,0,0:0:0:0:
448,192,173331,1,0,0:0:0:0:
192,192,173406,1,0,0:0:0:0:
320,192,173481,1,0,0:0:0:0:
448,192,173481,1,0,0:0:0:0:
192,192,173631,1,0,0:0:0:0:
448,192,173781,1,0,0:0:0:0:
192,192,173931,1,0,0:0:0:0:
64,192,174081,1,0,0:0:0:0:
448,192,174231,1,8,0:0:0:0:
320,192,174231,1,8,0:0:0:0:
192,192,174381,1,0,0:0:0:0:
64,192,174531,1,0,0:0:0:0:
448,192,174681,1,8,0:0:0:0:
192,192,174681,1,8,0:0:0:0:
320,192,174831,1,0,0:0:0:0:
64,192,174981,1,0,0:0:0:0:
448,192,175131,1,0,0:0:0:0:
64,192,175281,1,0,0:0:0:0:
320,192,175431,1,0,0:0:0:0:
192,192,175581,1,0,0:0:0:0:
64,192,175731,1,0,0:0:0:0:
448,192,175881,1,6,0:0:0:0:
320,192,175881,1,6,0:0:0:0:
64,192,176031,1,0,0:0:0:0:
448,192,176181,1,0,0:0:0:0:
320,192,176331,1,0,0:0:0:0:
64,192,176481,1,0,0:0:0:0:
192,192,176631,1,8,0:0:0:0:
448,192,176631,1,8,0:0:0:0:
320,192,176781,1,0,0:0:0:0:
64,192,176931,1,8,0:0:0:0:
192,192,176931,1,8,0:0:0:0:
448,192,177081,1,0,0:0:0:0:
64,192,177231,1,0,0:0:0:0:
448,192,177381,1,0,0:0:0:0:
192,192,177531,1,0,0:0:0:0:
448,192,177681,1,0,0:0:0:0:
320,192,177831,1,0,0:0:0:0:
192,192,177981,1,0,0:0:0:0:
448,192,178131,1,0,0:0:0:0:
64,192,178281,1,6,0:0:0:0:
320,192,178281,1,6,0:0:0:0:
192,192,178431,1,0,0:0:0:0:
448,192,178581,1,0,0:0:0:0:
64,192,178731,1,0,0:0:0:0:
192,192,178881,1,0,0:0:0:0:
448,192,179031,1,8,0:0:0:0:
320,192,179031,1,8,0:0:0:0:
64,192,179181,1,0,0:0:0:0:
320,192,179331,1,0,0:0:0:0:
64,192,179481,1,8,0:0:0:0:
448,192,179481,1,8,0:0:0:0:
320,192,179631,1,0,0:0:0:0:
192,192,179781,1,0,0:0:0:0:
320,192,179931,1,8,0:0:0:0:
448,192,179931,1,8,0:0:0:0:
64,192,180081,1,0,0:0:0:0:
192,192,180231,1,0,0:0:0:0:
64,192,180381,1,0,0:0:0:0:
192,192,180531,1,0,0:0:0:0:
320,192,180681,1,6,0:0:0:0:
64,192,180681,1,6,0:0:0:0:
448,192,180831,1,0,0:0:0:0:
192,192,180981,1,0,0:0:0:0:
320,192,181131,1,8,0:0:0:0:
64,192,181131,1,8,0:0:0:0:
192,192,181281,1,0,0:0:0:0:
448,192,181431,1,8,0:0:0:0:
320,192,181431,1,8,0:0:0:0:
64,192,181581,1,0,0:0:0:0:
192,192,181731,1,0,0:0:0:0:
64,192,181881,1,0,0:0:0:0:
448,192,181881,1,0,0:0:0:0:
320,192,181956,1,0,0:0:0:0:
192,192,182031,1,0,0:0:0:0:
64,192,182106,1,0,0:0:0:0:
192,192,182181,1,0,0:0:0:0:
320,192,182256,1,0,0:0:0:0:
448,192,182331,1,0,0:0:0:0:
320,192,182406,1,0,0:0:0:0:
192,192,182481,1,0,0:0:0:0:
64,192,182556,1,0,0:0:0:0:
192,192,182631,1,0,0:0:0:0:
320,192,182706,1,0,0:0:0:0:
448,192,182781,1,0,0:0:0:0:
320,192,182856,1,0,0:0:0:0:
192,192,182931,1,0,0:0:0:0:
64,192,183006,1,0,0:0:0:0:
320,192,183081,1,6,0:0:0:0:
448,192,183081,1,6,0:0:0:0:
64,192,183231,1,0,0:0:0:0:
192,192,183381,1,0,0:0:0:0:
320,192,183531,1,0,0:0:0:0:
64,192,183681,1,0,0:0:0:0:
192,192,183831,1,8,0:0:0:0:
320,192,183831,1,8,0:0:0:0:
64,192,183981,1,0,0:0:0:0:
448,192,184131,1,0,0:0:0:0:
192,192,184281,1,8,0:0:0:0:
320,192,184281,1,8,0:0:0:0:
448,192,184431,1,0,0:0:0:0:
64,192,184581,1,0,0:0:0:0:
192,192,184731,1,0,0:0:0:0:
448,192,184881,1,0,0:0:0:0:
64,192,185031,1,0,0:0:0:0:
448,192,185181,1,0,0:0:0:0:
320,192,185331,1,0,0:0:0:0:
64,192,185481,1,6,0:0:0:0:
192,192,185481,1,6,0:0:0:0:
448,192,185631,1,0,0:0:0:0:
64,192,185781,1,0,0:0:0:0:
192,192,185931,1,0,0:0:0:0:
320,192,186081,1,0,0:0:0:0:
64,192,186231,1,8,0:0:0:0:
448,192,186231,1,8,0:0:0:0:
192,192,186381,1,8,0:0:0:0:
320,192,186381,1,8,0:0:0:0:
64,192,186531,1,8,0:0:0:0:
448,192,186531,1,8,0:0:0:0:
320,192,186681,1,0,0:0:0:0:
448,192,186831,1,0,0:0:0:0:
320,192,186981,1,0,0:0:0:0:
192,192,187131,1,0,0:0:0:0:
448,192,187281,1,0,0:0:0:0:
192,192,187431,1,0,0:0:0:0:
192,192,187581,1,0,0:0:0:0:
448,192,187731,1,0,0:0:0:0:
320,192,187881,1,6,0:0:0:0:
192,192,187881,1,6,0:0:0:0:
448,192,188031,1,0,0:0:0:0:
192,192,188181,1,0,0:0:0:0:
64,192,188331,1,0,0:0:0:0:
448,192,188481,1,0,0:0:0:0:
320,192,188631,1,8,0:0:0:0:
192,192,188631,1,8,0:0:0:0:
64,192,188781,1,0,0:0:0:0:
448,192,188931,1,0,0:0:0:0:
192,192,189081,1,8,0:0:0:0:
320,192,189081,1,8,0:0:0:0:
64,192,189231,1,0,0:0:0:0:
192,192,189381,1,0,0:0:0:0:
448,192,189531,1,8,0:0:0:0:
320,192,189531,1,8,0:0:0:0:
64,192,189681,1,0,0:0:0:0:
320,192,189831,1,0,0:0:0:0:
448,192,189981,1,0,0:0:0:0:
192,192,190131,1,0,0:0:0:0:
64,192,190281,1,6,0:0:0:0:
448,192,190281,1,6,0:0:0:0:
192,192,190431,1,0,0:0:0:0:
320,192,190581,1,0,0:0:0:0:
448,192,190731,1,0,0:0:0:0:
64,192,190731,1,0,0:0:0:0:
320,192,190881,1,0,0:0:0:0:
192,192,191031,1,0,0:0:0:0:
320,192,191181,1,0,0:0:0:0:
192,192,191331,1,8,0:0:0:0:
64,192,191331,1,8,0:0:0:0:
320,192,191481,1,0,0:0:0:0:
192,192,191556,1,0,0:0:0:0:
64,192,191631,1,0,0:0:0:0:
320,192,191706,1,0,0:0:0:0:
448,192,191781,1,0,0:0:0:0:
192,192,191856,1,0,0:0:0:0:
64,192,191931,1,0,0:0:0:0:
192,192,192006,1,0,0:0:0:0:
320,192,192081,1,0,0:0:0:0:
448,192,192156,1,0,0:0:0:0:
320,192,192231,1,0,0:0:0:0:
192,192,192306,1,0,0:0:0:0:
64,192,192381,1,0,0:0:0:0:
192,192,192456,1,0,0:0:0:0:
320,192,192531,1,0,0:0:0:0:
448,192,192606,1,0,0:0:0:0:
192,192,192681,1,0,0:0:0:0:
64,192,192681,1,0,0:0:0:0:
64,192,193881,1,4,0:0:0:0:
448,192,193881,1,4,0:0:0:0:
64,192,194031,1,4,0:0:0:0:
448,192,194031,1,4,0:0:0:0:
448,192,194181,1,4,0:0:0:0:
64,192,194181,1,4,0:0:0:0:
64,192,194331,1,4,0:0:0:0:
448,192,194331,1,4,0:0:0:0:
448,192,194481,1,4,0:0:0:0:
64,192,194481,1,4,0:0:0:0:
64,192,195081,1,0,0:0:0:0:
448,192,195081,1,0,0:0:0:0:
448,192,195231,1,0,0:0:0:0:
192,192,195231,1,0,0:0:0:0:
320,192,195381,1,0,0:0:0:0:
448,192,195381,1,0,0:0:0:0:
64,192,195531,1,0,0:0:0:0:
192,192,195531,1,0,0:0:0:0:
192,192,195681,1,0,0:0:0:0:
448,192,195681,1,0,0:0:0:0:
448,192,195831,1,0,0:0:0:0:
64,192,195831,1,0,0:0:0:0:
192,192,195981,1,0,0:0:0:0:
320,192,195981,1,0,0:0:0:0:
64,192,196131,1,0,0:0:0:0:
448,192,196131,1,0,0:0:0:0:
448,192,196281,1,0,0:0:0:0:
320,192,196281,1,0,0:0:0:0:
320,192,196431,1,0,0:0:0:0:
192,192,196431,1,0,0:0:0:0:
192,192,196581,1,0,0:0:0:0:
64,192,196581,1,0,0:0:0:0:
64,192,196731,1,0,0:0:0:0:
320,192,196731,1,0,0:0:0:0:
320,192,196881,1,0,0:0:0:0:
448,192,196881,1,0,0:0:0:0:
64,192,197031,1,0,0:0:0:0:
192,192,197031,1,0,0:0:0:0:
448,192,197181,1,0,0:0:0:0:
64,192,197181,1,0,0:0:0:0:
320,192,197331,1,0,0:0:0:0:
448,192,197331,1,0,0:0:0:0:
192,192,197481,1,0,0:0:0:0:
64,192,197481,1,0,0:0:0:0:
320,192,197631,1,0,0:0:0:0:
192,192,197631,1,0,0:0:0:0:
448,192,197781,1,0,0:0:0:0:
320,192,197781,1,0,0:0:0:0:
192,192,197931,1,0,0:0:0:0:
64,192,197931,1,0,0:0:0:0:
320,192,198081,1,0,0:0:0:0:
448,192,198081,1,0,0:0:0:0:
192,192,198231,1,0,0:0:0:0:
64,192,198231,1,0,0:0:0:0:
448,192,198381,1,0,0:0:0:0:
64,192,198381,1,0,0:0:0:0:
192,192,198531,1,0,0:0:0:0:
320,192,198531,1,0,0:0:0:0:
64,192,198681,1,0,0:0:0:0:
320,192,198681,1,0,0:0:0:0:
448,192,198831,1,0,0:0:0:0:
320,192,198831,1,0,0:0:0:0:
64,192,198981,1,0,0:0:0:0:
192,192,198981,1,0,0:0:0:0:
192,192,199131,1,0,0:0:0:0:
320,192,199131,1,0,0:0:0:0:
64,192,199281,1,0,0:0:0:0:
448,192,199281,1,0,0:0:0:0:
448,192,199431,1,0,0:0:0:0:
192,192,199431,1,0,0:0:0:0:
192,192,199581,1,0,0:0:0:0:
320,192,199581,1,0,0:0:0:0:
192,192,199731,1,0,0:0:0:0:
64,192,199731,1,0,0:0:0:0:
448,192,199881,1,0,0:0:0:0:
64,192,199881,1,0,0:0:0:0:
448,192,200031,1,0,0:0:0:0:
192,192,200031,1,0,0:0:0:0:
64,192,200181,1,0,0:0:0:0:
448,192,200181,1,0,0:0:0:0:
320,192,200331,1,0,0:0:0:0:
192,192,200331,1,0,0:0:0:0:
448,192,200481,1,0,0:0:0:0:
192,192,200481,1,0,0:0:0:0:
64,192,200631,1,0,0:0:0:0:
320,192,200631,1,0,0:0:0:0:
64,192,200781,1,0,0:0:0:0:
448,192,200781,1,0,0:0:0:0:
192,192,200931,1,0,0:0:0:0:
320,192,200931,1,0,0:0:0:0:
64,192,201081,1,0,0:0:0:0:
320,192,201081,1,0,0:0:0:0:
448,192,201231,1,0,0:0:0:0:
64,192,201231,1,0,0:0:0:0:
192,192,201381,1,0,0:0:0:0:
448,192,201381,1,0,0:0:0:0:
320,192,201531,1,0,0:0:0:0:
64,192,201531,1,0,0:0:0:0:
448,192,201681,1,0,0:0:0:0:
192,192,201681,1,0,0:0:0:0:
64,192,201831,1,0,0:0:0:0:
192,192,201831,1,0,0:0:0:0:
320,192,201981,1,0,0:0:0:0:
448,192,201981,1,0,0:0:0:0:
448,192,202131,1,0,0:0:0:0:
192,192,202131,1,0,0:0:0:0:
448,192,202281,1,0,0:0:0:0:
64,192,202281,1,0,0:0:0:0:
320,192,202431,1,0,0:0:0:0:
192,192,202431,1,0,0:0:0:0:
64,192,202581,1,0,0:0:0:0:
320,192,202581,1,0,0:0:0:0:
448,192,202731,1,0,0:0:0:0:
192,192,202731,1,0,0:0:0:0:
320,192,202881,1,0,0:0:0:0:
192,192,202881,1,0,0:0:0:0:
448,192,203031,1,0,0:0:0:0:
64,192,203031,1,0,0:0:0:0:
448,192,203181,1,0,0:0:0:0:
64,192,203181,1,0,0:0:0:0:
320,192,203331,1,0,0:0:0:0:
192,192,203331,1,0,0:0:0:0:
192,192,203481,1,0,0:0:0:0:
448,192,203481,1,0,0:0:0:0:
64,192,203556,1,0,0:0:0:0:
448,192,203631,1,0,0:0:0:0:
64,192,203706,1,0,0:0:0:0:
448,192,203781,1,0,0:0:0:0:
64,192,203856,1,0,0:0:0:0:
448,192,203931,1,0,0:0:0:0:
64,192,204006,1,0,0:0:0:0:
448,192,204081,1,0,0:0:0:0:
320,192,204156,1,0,0:0:0:0:
192,192,204231,1,0,0:0:0:0:
320,192,204306,1,0,0:0:0:0:
192,192,204381,1,0,0:0:0:0:
320,192,204456,1,0,0:0:0:0:
192,192,204531,1,0,0:0:0:0:
320,192,204606,1,0,0:0:0:0:
64,192,204681,1,8,0:0:0:0:
448,192,204681,1,8,0:0:0:0:
192,192,204831,1,8,0:0:0:0:
320,192,204831,1,8,0:0:0:0:
448,192,204981,1,8,0:0:0:0:
64,192,204981,1,8,0:0:0:0:
192,192,205131,1,8,0:0:0:0:
320,192,205131,1,8,0:0:0:0:
64,192,205281,1,8,0:0:0:0:
320,192,205281,1,8,0:0:0:0:
448,192,205431,1,8,0:0:0:0:
320,192,205431,1,8,0:0:0:0:
192,192,205581,1,8,0:0:0:0:
448,192,205581,1,8,0:0:0:0:
192,192,205731,1,8,0:0:0:0:
64,192,205731,1,8,0:0:0:0:
320,192,205881,1,8,0:0:0:0:
448,192,205881,1,8,0:0:0:0:
64,192,206031,1,8,0:0:0:0:
448,192,206031,1,8,0:0:0:0:
192,192,206181,1,8,0:0:0:0:
320,192,206181,1,8,0:0:0:0:
320,192,206331,1,8,0:0:0:0:
448,192,206331,1,8,0:0:0:0:
192,192,206481,1,8,0:0:0:0:
64,192,206481,1,8,0:0:0:0:
192,192,206631,1,8,0:0:0:0:
320,192,206631,1,8,0:0:0:0:
448,192,206781,1,8,0:0:0:0:
64,192,206781,1,8,0:0:0:0:
448,192,206931,1,8,0:0:0:0:
192,192,206931,1,8,0:0:0:0:
64,192,207081,1,8,0:0:0:0:
320,192,207081,1,8,0:0:0:0:
448,192,207231,1,8,0:0:0:0:
192,192,207231,1,8,0:0:0:0:
192,192,207381,1,8,0:0:0:0:
320,192,207381,1,8,0:0:0:0:
64,192,207531,1,8,0:0:0:0:
448,192,207531,1,8,0:0:0:0:
192,192,207681,1,8,0:0:0:0:
448,192,207681,1,8,0:0:0:0:
320,192,207831,1,8,0:0:0:0:
64,192,207831,1,8,0:0:0:0:
192,192,207981,1,8,0:0:0:0:
448,192,207981,1,8,0:0:0:0:
64,192,208131,1,8,0:0:0:0:
320,192,208131,1,8,0:0:0:0:
192,192,208281,1,8,0:0:0:0:
64,192,208281,1,8,0:0:0:0:
448,192,208431,1,8,0:0:0:0:
192,192,208431,1,8,0:0:0:0:
64,192,208581,1,8,0:0:0:0:
320,192,208581,1,8,0:0:0:0:
448,192,208731,1,8,0:0:0:0:
192,192,208731,1,8,0:0:0:0:
192,192,208881,1,8,0:0:0:0:
320,192,208881,1,8,0:0:0:0:
320,192,209031,1,8,0:0:0:0:
64,192,209031,1,8,0:0:0:0:
448,192,209181,1,8,0:0:0:0:
64,192,209181,1,8,0:0:0:0:
320,192,209331,1,8,0:0:0:0:
192,192,209331,1,8,0:0:0:0:
64,192,209481,1,0,0:0:0:0:
320,192,209481,1,0,0:0:0:0:
192,192,209556,1,0,0:0:0:0:
320,192,209631,1,0,0:0:0:0:
448,192,209706,1,0,0:0:0:0:
320,192,209781,1,0,0:0:0:0:
64,192,209856,1,0,0:0:0:0:
192,192,209931,1,0,0:0:0:0:
320,192,210006,1,0,0:0:0:0:
448,192,210081,1,0,0:0:0:0:
192,192,210156,1,0,0:0:0:0:
320,192,210231,1,0,0:0:0:0:
64,192,210306,1,0,0:0:0:0:
192,192,210381,1,0,0:0:0:0:
448,192,210456,1,0,0:0:0:0:
64,192,210531,1,0,0:0:0:0:
192,192,210606,1,0,0:0:0:0:
448,192,210681,1,0,0:0:0:0:
192,192,210756,1,0,0:0:0:0:
448,192,210831,1,0,0:0:0:0:
320,192,210906,1,0,0:0:0:0:
64,192,210981,1,0,0:0:0:0:
320,192,211056,1,0,0:0:0:0:
448,192,211131,1,0,0:0:0:0:
320,192,211206,1,0,0:0:0:0:
64,192,211281,1,0,0:0:0:0:
320,192,211356,1,0,0:0:0:0:
64,192,211431,1,0,0:0:0:0:
192,192,211506,1,0,0:0:0:0:
448,192,211581,1,0,0:0:0:0:
320,192,211656,1,0,0:0:0:0:
64,192,211731,1,0,0:0:0:0:
320,192,211806,1,0,0:0:0:0:
192,192,211881,1,0,0:0:0:0:
448,192,212031,1,8,0:0:0:0:
320,192,212031,1,8,0:0:0:0:
64,192,212181,1,8,0:0:0:0:
192,192,212181,1,8,0:0:0:0:
64,192,212331,1,8,0:0:0:0:
448,192,212331,1,8,0:0:0:0:
192,192,212481,1,8,0:0:0:0:
320,192,212481,1,8,0:0:0:0:
448,192,212631,1,8,0:0:0:0:
192,192,212631,1,8,0:0:0:0:
320,192,212781,1,8,0:0:0:0:
64,192,212781,1,8,0:0:0:0:
320,192,212931,1,8,0:0:0:0:
192,192,212931,1,8,0:0:0:0:
448,192,213081,1,8,0:0:0:0:
64,192,213081,1,8,0:0:0:0:
192,192,213231,1,8,0:0:0:0:
320,192,213231,1,8,0:0:0:0:
320,192,213381,1,8,0:0:0:0:
448,192,213381,1,8,0:0:0:0:
192,192,213531,1,8,0:0:0:0:
320,192,213531,1,8,0:0:0:0:
192,192,213681,1,8,0:0:0:0:
64,192,213681,1,8,0:0:0:0:
320,192,213831,1,8,0:0:0:0:
192,192,213831,1,8,0:0:0:0:
320,192,213981,1,8,0:0:0:0:
448,192,213981,1,8,0:0:0:0:
192,192,214131,1,8,0:0:0:0:
320,192,214131,1,8,0:0:0:0:
64,192,214281,128,0,214731:0:0:0:0:
320,192,214281,128,0,214731:0:0:0:0:
448,192,214806,1,0,0:0:0:0:
192,192,214881,1,0,0:0:0:0:
64,192,214881,1,0,0:0:0:0:
