osu file format v14

[General]
AudioFilename: kuripurin.mp3
AudioLeadIn: 0
PreviewTime: 64678
Countdown: 0
SampleSet: Soft
StackLeniency: 0.7
Mode: 0
LetterboxInBreaks: 0
WidescreenStoryboard: 0

[Editor]
DistanceSpacing: 1
BeatDivisor: 6
GridSize: 32
TimelineZoom: 1.6

[Metadata]
Title:Inyeongeurim
TitleUnicode:인연그림
Artist:K-Run feat. kuripurin
ArtistUnicode:K-Run feat. 밤푸딩
Creator:Finshie
Version:Akitoshi's Easy
Source:그래도 봄은 온다
Tags:TyrantsEye2014 Akitoshi Misaka 10032 가랑 시노바 정해권 light novel Left Corinn
BeatmapID:1128041
BeatmapSetID:513993

[Difficulty]
HPDrainRate:2
CircleSize:3
OverallDifficulty:2
ApproachRate:3
SliderMultiplier:0.8
SliderTickRate:1

[Events]
//Background and Video events
0,0,"bgggggggggggggggggg.jpg",0,0
//Break Periods
2,30044,33738
//Storyboard Layer 0 (Background)
//Storyboard Layer 1 (Fail)
//Storyboard Layer 2 (Pass)
//Storyboard Layer 3 (Foreground)
//Storyboard Sound Samples

[TimingPoints]
6012,666.666666666667,4,2,2,40,1,0
6012,-50,4,2,2,40,0,0
19345,333.333333333333,4,2,1,60,1,0
64678,-100,4,2,1,80,0,1
80678,-100,4,2,1,80,0,0
88678,-100,4,2,1,80,0,1
96678,-100,4,2,1,80,0,0
99178,-100,4,2,1,40,0,0

[Colours]
Combo1 : 255,0,255
Combo2 : 179,138,118
Combo3 : 196,98,0
Combo4 : 53,53,255

[HitObjects]
242,117,6012,6,0,P|286:93|395:132,1,160,6|2,0:0|0:0,0:0:0:0:
389,281,7345,2,0,P|345:305|236:266,1,160,2|2,0:0|0:0,0:0:0:0:
159,191,8512,6,0,B|76:188|76:188|0:227,2,160,2|2|2,0:0|0:0|0:0,0:0:0:0:
278,196,10345,2,0,P|291:241|291:291,2,80,2|0|2,0:0|0:0|0:0,0:0:0:0:
220,139,11345,6,0,P|278:114|342:145,2,120,2|2|0,0:0|0:0|0:0,0:0:0:0:
159,191,12678,2,0,L|39:195,2,120,2|2|0,0:0|0:0|0:0,0:0:0:0:
220,139,14012,6,0,P|240:193|204:258,1,120,2|2,0:0|0:0,0:0:0:0:
147,288,14845,1,2,0:0:0:0:
67,288,15178,2,0,B|39:196|39:196|70:88,1,200,2|0,0:0|0:0,0:0:0:0:
217,40,16678,6,0,P|276:40|329:81,1,120,2|2,0:0|0:0,0:0:0:0:
365,143,17512,1,2,0:0:0:0:
337,217,17845,2,0,B|298:223|298:223|245:218,1,80,2|0,0:0|0:0,0:0:0:0:
178,208,18512,2,0,P|142:251|136:323,1,120,2|0,0:0|0:0,0:0:0:0:
194,364,19345,6,0,B|252:372|252:372|317:362,1,120,6|8,0:0|0:0,0:0:0:0:
390,341,20178,1,8,0:0:0:0:
427,270,20511,2,0,L|413:137,1,120,2|8,0:0|0:0,0:0:0:0:
390,74,21344,2,0,P|347:59|298:66,1,80,2|8,0:0|0:0,0:0:0:0:
243,100,22011,6,0,B|184:112|184:112|120:104,1,120,2|8,0:0|0:0,0:0:0:0:
45,91,22844,1,8,0:0:0:0:
2,159,23178,2,0,P|-5:199|36:282,1,120,2|8,0:0|0:0,0:0:0:0:
95,306,24011,1,2,0:0:0:0:
185,227,24511,6,0,B|264:214|264:214|350:247,1,160,6|8,0:0|0:0,0:0:0:0:
412,274,25511,1,8,0:0:0:0:
477,227,25844,2,0,P|483:168|458:101,1,120,2|8,0:0|0:0,0:0:0:0:
402,60,26678,2,0,L|318:59,1,80,2|8,0:0|0:0,0:0:0:0:
242,66,27344,6,0,B|226:124|226:124|235:195,1,120,2|8,0:0|0:0,0:0:0:0:
252,261,28178,1,8,0:0:0:0:
308,317,28511,1,6,0:0:0:0:
256,192,28678,12,2,29844,0:0:0:0:
124,159,35178,6,0,L|249:154,1,120,6|8,0:0|0:0,0:0:0:0:
323,150,36011,2,0,P|340:187|340:236,1,80,8|0,0:0|0:0,0:0:0:0:
309,298,36678,2,0,P|252:315|184:292,1,120,0|0,3:0|0:0,0:0:0:0:
124,159,37844,6,0,B|118:114|118:114|124:76|157:52,1,120,6|8,0:0|0:0,0:0:0:0:
233,30,38678,1,8,0:0:0:0:
345,70,39178,2,0,L|344:159,1,80,6|8,0:0|0:0,0:0:0:0:
287,206,39844,2,0,L|286:295,1,80,6|8,0:0|0:0,0:0:0:0:
342,342,40511,6,0,P|412:352|466:325,1,120,6|8,0:0|0:0,0:0:0:0:
498,264,41344,2,0,B|502:223|502:223|492:178,1,80,2|8,0:0|0:0,0:0:0:0:
460,112,42011,2,0,P|420:104|376:112,1,80,2|8,0:0|0:0,0:0:0:0:
313,152,42678,1,2,0:0:0:0:
220,227,43178,6,0,L|89:221,1,120,6|8,0:0|0:0,0:0:0:0:
20,214,44011,1,2,0:0:0:0:
11,94,44511,2,0,P|52:69|133:68,1,120,2|8,0:0|0:0,0:0:0:0:
198,90,45344,1,2,0:0:0:0:
293,162,45844,6,0,L|296:288,1,120,6|8,0:0|0:0,0:0:0:0:
341,347,46678,2,0,P|377:354|436:340,1,80,2|8,0:0|0:0,0:0:0:0:
440,270,47344,2,0,P|478:293|497:366,2,120,2|2|8,0:0|0:0|0:0,0:0:0:0:
364,244,48678,6,0,L|356:156,1,80,2|8,0:0|0:0,0:0:0:0:
351,84,49344,2,0,P|307:70|262:77,1,80,2|8,0:0|0:0,0:0:0:0:
210,122,50011,2,0,L|87:117,1,120,2|8,0:0|0:0,0:0:0:0:
9,116,50844,1,8,0:0:0:0:
1,195,51178,6,0,P|12:257|141:305,1,200,6|8,0:0|0:0,0:0:0:0:
274,246,52678,2,0,B|330:245|330:245|370:266|370:266|441:265,1,160,2|8,0:0|0:0,0:0:0:0:
487,210,53678,1,2,0:0:0:0:
477,130,54011,6,0,P|431:87|331:79,1,160,2|8,0:0|0:0,0:0:0:0:
262,104,55011,1,2,0:0:0:0:
213,167,55344,2,0,L|227:297,2,120,2|2|8,0:0|0:0|0:0,0:0:0:0:
164,102,56678,6,0,P|97:104|24:163,1,160,6|4,0:0|0:0,0:0:0:0:
84,308,58011,2,0,P|151:306|224:247,1,160,0|4,3:0|0:0,0:0:0:0:
280,101,59344,6,0,P|323:87|394:102,1,120,6|6,0:0|0:0,0:0:0:0:
480,185,60344,2,0,L|476:314,1,120,6|6,0:0|0:0,0:0:0:0:
374,368,61344,1,6,0:0:0:0:
276,298,61844,6,0,P|226:265|82:283,1,200,6|0,0:0|0:0,0:0:0:0:
11,186,63178,2,0,L|17:57,1,120,6|6,0:0|0:0,0:0:0:0:
91,37,64011,2,0,P|129:34|177:51,1,80,2|4,0:0|0:0,0:0:0:0:
219,108,64678,6,0,L|381:94,1,160,6|2,0:0|0:0,0:0:0:0:
445,138,65678,1,8,0:0:0:0:
495,199,66011,2,0,P|500:244|489:289,1,80,2|8,0:0|0:0,0:0:0:0:
442,339,66678,2,0,P|397:344|352:333,1,80,2|8,0:0|0:0,0:0:0:0:
299,289,67344,6,0,B|237:281|237:281|178:287,1,120,6|2,0:0|0:0,0:0:0:0:
101,305,68178,1,2,0:0:0:0:
30,267,68511,2,0,P|18:211|44:141,1,120,6|8,0:0|0:0,0:0:0:0:
107,117,69344,2,0,L|189:121,1,80,2|8,0:0|0:0,0:0:0:0:
257,158,70011,6,0,L|382:149,2,120,6|2|8,0:0|0:0|0:0,0:0:0:0:
193,207,71344,2,0,P|188:250|207:297,1,80,2|8,0:0|0:0,0:0:0:0:
258,337,72011,2,0,P|301:342|348:323,1,80,2|8,0:0|0:0,0:0:0:0:
383,266,72678,6,0,L|509:274,2,120,2|2|8,0:0|0:0|0:0,0:0:0:0:
304,251,74011,2,0,B|268:175|322:170|289:83,1,160,6|6,0:0|0:0,0:0:0:0:
236,38,75011,1,8,0:0:0:0:
156,48,75344,6,0,P|115:105|112:199,1,160,6|2,0:0|0:0,0:0:0:0:
130,270,76344,1,8,0:0:0:0:
175,336,76678,2,0,L|310:327,1,120,2|2,0:0|0:0,0:0:0:0:
374,320,77511,1,2,0:0:0:0:
443,279,77844,6,0,P|456:224|420:121,1,160,6|2,0:0|0:0,0:0:0:0:
366,73,78844,1,2,0:0:0:0:
290,45,79178,2,0,L|154:51,1,120,6|8,0:0|0:0,0:0:0:0:
99,86,80011,2,0,P|86:133|94:174,1,80,2|8,0:0|0:0,0:0:0:0:
146,219,80678,6,0,L|315:212,1,160,6|8,0:0|0:0,0:0:0:0:
311,372,82011,2,0,L|142:379,1,160,6|8,0:0|0:0,0:0:0:0:
30,273,83344,6,0,P|19:201|62:123,1,160,6|8,0:0|0:0,0:0:0:0:
198,49,84678,2,0,B|256:45|256:45|303:66|303:66|365:62,1,160,6|8,0:0|0:0,0:0:0:0:
479,160,86011,6,0,P|497:216|484:278,1,120,6|2,0:0|0:0,0:0:0:0:
433,335,86844,1,2,0:0:0:0:
358,304,87178,2,0,P|311:297|269:303,1,80,8|8,0:0|0:0,0:0:0:0:
200,317,87844,2,0,B|137:325|137:325|79:303,1,120,8|0,0:0|3:0,0:0:0:0:
32,243,88678,6,0,P|27:202|37:163,1,80,6|8,0:0|0:0,0:0:0:0:
79,98,89344,1,2,0:0:0:0:
181,35,89844,2,0,B|243:27|243:27|315:46,1,120,2|8,0:0|0:0,0:0:0:0:
358,95,90678,2,0,P|365:136|358:175,1,80,2|8,0:0|0:0,0:0:0:0:
314,240,91344,6,0,P|314:293|351:352,1,120,2|2,0:0|0:0,0:0:0:0:
423,374,92178,1,2,0:0:0:0:
494,338,92511,2,0,L|486:215,1,120,2|8,0:0|0:0,0:0:0:0:
477,138,93344,2,0,P|435:111|395:103,1,80,2|8,0:0|0:0,0:0:0:0:
329,126,94011,6,0,P|270:145|169:106,1,160,6|2,0:0|0:0,0:0:0:0:
118,63,95011,1,8,0:0:0:0:
47,101,95344,2,0,P|45:142|65:189,1,80,2|8,0:0|0:0,0:0:0:0:
110,238,96011,2,0,L|204:236,1,80,2|8,0:0|0:0,0:0:0:0:
269,230,96678,6,0,B|273:188|273:188|263:160|263:160|267:106,1,120,6|8,0:0|0:0,0:0:0:0:
318,51,97511,1,8,0:0:0:0:
397,60,97844,2,0,P|453:92|423:321,1,320,6|0,0:0|0:0,0:0:0:0:
