osu file format v14

[General]
AudioFilename: audio.mp3
AudioLeadIn: 0
PreviewTime: -1
Countdown: 1
SampleSet: Normal
StackLeniency: 0.7
Mode: 0
LetterboxInBreaks: 0
WidescreenStoryboard: 0

[Editor]
Bookmarks: 444
DistanceSpacing: 1.5
BeatDivisor: 8
GridSize: 16
TimelineZoom: 1

[Metadata]
Title:Rainbow Jaka Jan mix
TitleUnicode:Rainbow Jaka Jan mix
Artist:K-ON!
ArtistUnicode:K-ON!
Creator:mmi-
Version:mmi-
Source:
Tags:
BeatmapID:1075051
BeatmapSetID:505353

[Difficulty]
HPDrainRate:7
CircleSize:4
OverallDifficulty:7
ApproachRate:9
SliderMultiplier:2.5
SliderTickRate:1

[Events]
//Background and Video events
0,0,"bg.jpg",0,0
//Break Periods
2,7533,12288
2,43311,47844
//Storyboard Layer 0 (Background)
//Storyboard Layer 1 (Fail)
//Storyboard Layer 2 (Pass)
//Storyboard Layer 3 (Foreground)
//Storyboard Sound Samples

[TimingPoints]
0,444.444444444444,4,1,0,100,1,0
1999,-200,4,1,0,100,0,0
2222,-100,4,1,0,100,0,0
3999,-83.3333333333333,4,1,0,100,0,0
4888,-66.6666666666667,4,1,0,100,0,0
5777,-90.9090909090909,4,1,0,100,0,0
18222,-76.9230769230769,4,1,0,100,0,0
19111,-66.6666666666667,4,1,0,100,0,0
19999,-100,4,1,0,100,0,0
23333,-76.9230769230769,4,1,0,100,0,0
25326,-133.333333333333,4,1,0,100,0,0
26222,-83.3333333333333,4,1,0,100,0,0
27111,-133.333333333333,4,1,0,100,0,0
28888,-83.3333333333333,4,1,0,100,0,0
30222,-200,4,1,0,100,0,0
32222,-105.263157894737,4,1,0,100,0,0
33444,-83.3333333333333,4,1,0,100,0,0
35888,-66.6666666666667,4,1,0,100,0,0
37333,-200,4,1,0,100,0,0
39999,-100,4,1,0,100,0,0
50222,-76.9230769230769,4,1,0,100,0,0
54666,-142.857142857143,4,1,0,100,0,0
59222,-83.3333333333334,4,1,0,100,0,0
60888,-133.333333333333,4,1,0,100,0,0
62666,-83.3333333333333,4,1,0,100,0,0
62944,-76.9230769230769,4,1,0,100,0,0
64888,-133.333333333333,4,1,0,100,0,0

[HitObjects]
96,96,444,6,0,P|160:128|224:128,1,125
256,128,777,1,0,0:0:0:0:
352,128,888,2,0,P|352:192|288:224,1,125
192,160,1333,1,0,0:0:0:0:
141,193,1444,1,0,0:0:0:0:
127,252,1555,1,0,0:0:0:0:
159,305,1666,1,0,0:0:0:0:
217,320,1777,1,0,0:0:0:0:
288,320,1999,6,0,L|320:288,1,31.25
368,256,2222,2,0,P|400:176|400:144,1,62.5
384,112,2555,1,0,0:0:0:0:
256,64,2666,1,0,0:0:0:0:
128,48,2888,1,0,0:0:0:0:
128,128,3111,2,0,L|160:192,1,62.5
192,128,3333,2,0,L|160:192,1,62.5
256,160,3555,1,0,0:0:0:0:
80,176,3777,5,0,0:0:0:0:
96,256,3999,6,0,P|192:320|256:320,1,149.999995422363
272,336,4333,1,0,0:0:0:0:
320,320,4444,1,0,0:0:0:0:
416,256,4666,1,0,0:0:0:0:
416,160,4888,2,0,P|352:96|256:64,1,187.500007152558
208,64,5222,1,0,0:0:0:0:
144,80,5333,1,0,0:0:0:0:
64,144,5555,1,0,0:0:0:0:
96,224,5777,5,0,0:0:0:0:
157,254,5888,1,0,0:0:0:0:
223,270,5999,1,0,0:0:0:0:
292,270,6110,1,0,0:0:0:0:
416,256,6333,2,0,P|432:224|432:176,1,68.7500020980836
416,96,6666,1,0,0:0:0:0:
359,57,6777,1,0,0:0:0:0:
293,38,6888,1,0,0:0:0:0:
225,40,6999,1,0,0:0:0:0:
144,64,7222,6,0,P|128:80|112:144,1,68.7500020980836
256,192,12888,12,0,14222,0:0:0:0:
96,80,14666,6,0,P|128:64|224:96,1,137.500004196167
288,144,14999,1,0,0:0:0:0:
160,144,15111,2,0,P|192:208|272:224,1,137.500004196167
352,240,15555,1,0,0:0:0:0:
409,208,15666,1,0,0:0:0:0:
469,236,15777,1,0,0:0:0:0:
480,301,15888,1,0,0:0:0:0:
433,348,15999,1,0,0:0:0:0:
320,336,16222,1,0,0:0:0:0:
224,304,16444,6,0,B|128:288|112:176,1,137.500004196167
96,144,16777,1,0,0:0:0:0:
96,64,16888,2,0,P|176:96|176:160,1,137.500004196167
224,224,17333,1,0,0:0:0:0:
291,212,17444,1,0,0:0:0:0:
353,182,17555,1,0,0:0:0:0:
404,137,17666,1,0,0:0:0:0:
441,79,17777,1,0,0:0:0:0:
480,240,17999,1,0,0:0:0:0:
416,320,18222,6,0,P|320:320|272:272,1,162.499992561341
208,208,18555,1,0,0:0:0:0:
224,112,18666,1,0,0:0:0:0:
352,128,18888,1,0,0:0:0:0:
336,224,19111,2,0,P|256:304|144:304,1,187.500007152558
112,304,19444,1,0,0:0:0:0:
80,224,19555,1,0,0:0:0:0:
160,128,19777,1,0,0:0:0:0:
208,64,19999,5,0,0:0:0:0:
268,75,20110,1,0,0:0:0:0:
319,110,20221,1,0,0:0:0:0:
351,164,20332,1,0,0:0:0:0:
352,224,20444,2,0,P|352:256|304:288,3,62.5
288,320,20888,1,0,0:0:0:0:
234,334,20999,1,0,0:0:0:0:
174,325,21110,1,0,0:0:0:0:
128,288,21221,1,0,0:0:0:0:
96,240,21333,1,0,0:0:0:0:
144,112,21555,5,0,0:0:0:0:
368,48,21777,6,0,P|400:112|384:176,1,125
352,240,22111,1,0,0:0:0:0:
256,224,22222,2,0,P|288:160|288:96,1,125
224,64,22666,1,0,0:0:0:0:
164,47,22777,1,0,0:0:0:0:
104,64,22888,1,0,0:0:0:0:
61,108,22999,1,0,0:0:0:0:
47,168,23110,1,0,0:0:0:0:
64,256,23333,6,0,L|128:320,1,81.2499962806703
224,336,23555,5,0,0:0:0:0:
400,272,23888,1,0,0:0:0:0:
432,224,23999,1,0,0:0:0:0:
432,96,24222,1,0,0:0:0:0:
336,128,24444,2,0,L|256:176,1,81.2499962806703
224,144,24666,2,0,L|272:64,1,81.2499962806703
224,48,24888,1,0,0:0:0:0:
112,128,25111,1,0,0:0:0:0:
128,224,25333,6,0,L|224:240,1,93.7500035762788
336,112,25666,1,0,0:0:0:0:
400,208,25777,1,0,0:0:0:0:
288,336,25999,1,0,0:0:0:0:
288,272,26222,6,0,L|112:240,1,149.999995422363
384,144,26555,1,0,0:0:0:0:
464,288,26666,1,0,0:0:0:0:
240,320,26888,1,0,0:0:0:0:
128,256,27111,5,0,0:0:0:0:
132,209,27222,1,0,0:0:0:0:
111,168,27333,1,0,0:0:0:0:
68,156,27444,1,0,0:0:0:0:
56,119,27555,1,0,0:0:0:0:
78,81,27666,1,0,0:0:0:0:
124,79,27777,1,0,0:0:0:0:
168,94,27888,1,0,0:0:0:0:
215,97,27999,1,0,0:0:0:0:
260,85,28110,1,0,0:0:0:0:
301,62,28222,1,0,0:0:0:0:
330,68,28333,1,0,0:0:0:0:
351,110,28444,1,0,0:0:0:0:
448,224,28666,5,0,0:0:0:0:
384,304,28888,6,0,L|336:224,1,74.9999977111817
304,208,29111,1,0,0:0:0:0:
235,178,29222,1,0,0:0:0:0:
161,175,29333,1,0,0:0:0:0:
96,192,29444,1,0,0:0:0:0:
144,240,29555,1,0,0:0:0:0:
212,269,29666,1,0,0:0:0:0:
286,272,29777,1,0,0:0:0:0:
336,224,29888,1,0,0:0:0:0:
368,160,29999,1,0,0:0:0:0:
368,96,30111,1,0,0:0:0:0:
320,48,30222,6,0,P|288:48|256:64,1,62.5
240,144,30666,5,0,0:0:0:0:
192,144,30777,1,0,0:0:0:0:
208,192,30888,1,0,0:0:0:0:
160,176,30999,1,0,0:0:0:0:
176,224,31111,1,0,0:0:0:0:
128,208,31222,1,0,0:0:0:0:
144,256,31333,1,0,0:0:0:0:
96,240,31444,6,0,P|48:240|32:208,1,62.5
48,112,31777,5,0,0:0:0:0:
66,86,31888,1,0,0:0:0:0:
92,69,31999,1,0,0:0:0:0:
122,63,32110,1,0,0:0:0:0:
176,80,32222,5,0,0:0:0:0:
232,97,32333,1,0,0:0:0:0:
279,133,32444,1,0,0:0:0:0:
384,176,32666,1,0,0:0:0:0:
368,304,32888,1,0,0:0:0:0:
304,288,32999,1,0,0:0:0:0:
320,224,33111,1,0,0:0:0:0:
384,240,33222,1,0,0:0:0:0:
416,176,33444,6,0,P|464:112|448:80,1,74.9999977111817
416,80,33666,2,0,P|368:128|336:112,1,74.9999977111817
304,48,33999,1,0,0:0:0:0:
192,112,34222,5,0,0:0:0:0:
176,128,34333,1,0,0:0:0:0:
176,240,34444,1,0,0:0:0:0:
192,272,34555,1,0,0:0:0:0:
336,192,34777,1,0,0:0:0:0:
336,192,34888,1,0,0:0:0:0:
160,288,35111,5,0,0:0:0:0:
144,240,35222,1,0,0:0:0:0:
128,96,35333,1,0,0:0:0:0:
160,64,35444,1,0,0:0:0:0:
336,112,35666,1,0,0:0:0:0:
336,112,35777,1,0,0:0:0:0:
464,256,35999,6,0,L|432:160,1,93.7500035762788
400,272,36222,2,0,L|368:176,1,93.7500035762788
336,288,36444,2,0,L|304:192,1,93.7500035762788
272,304,36666,2,0,L|240:208,1,93.7500035762788
224,320,36888,2,0,L|192:224,1,93.7500035762788
176,176,37111,1,0,0:0:0:0:
192,96,37222,1,0,0:0:0:0:
256,48,37333,6,0,P|288:48|320:64,1,62.5
368,112,37777,5,0,0:0:0:0:
380,140,37888,1,0,0:0:0:0:
383,171,37999,1,0,0:0:0:0:
375,201,38110,1,0,0:0:0:0:
358,227,38221,1,0,0:0:0:0:
333,245,38332,1,0,0:0:0:0:
303,255,38443,1,0,0:0:0:0:
290,228,38554,1,0,0:0:0:0:
272,128,38888,6,0,L|288:96,1,31.25
256,80,39111,2,0,L|224:112,1,31.25
160,112,39333,5,0,0:0:0:0:
112,144,39444,1,0,0:0:0:0:
96,192,39555,1,0,0:0:0:0:
144,288,39777,1,0,0:0:0:0:
256,240,39999,1,0,0:0:0:0:
281,183,40110,1,0,0:0:0:0:
331,146,40221,1,0,0:0:0:0:
392,138,40332,1,0,0:0:0:0:
448,192,40555,5,0,0:0:0:0:
415,244,40666,1,0,0:0:0:0:
359,270,40777,1,0,0:0:0:0:
298,261,40888,1,0,0:0:0:0:
208,224,41111,1,0,0:0:0:0:
128,112,41333,5,0,0:0:0:0:
176,80,41444,1,0,0:0:0:0:
352,112,41555,1,0,0:0:0:0:
384,160,41666,1,0,0:0:0:0:
240,224,41888,1,0,0:0:0:0:
240,256,41999,1,0,0:0:0:0:
384,160,42222,5,0,0:0:0:0:
352,112,42333,1,0,0:0:0:0:
160,80,42444,1,0,0:0:0:0:
112,128,42555,1,0,0:0:0:0:
240,224,42777,1,0,0:0:0:0:
240,256,42888,1,0,0:0:0:0:
240,320,43111,5,0,0:0:0:0:
256,192,48444,12,0,49777,0:0:0:0:
160,112,50333,6,0,L|176:160,2,40.6249981403352
208,64,50666,1,0,0:0:0:0:
304,80,50888,1,0,0:0:0:0:
416,128,51111,5,0,0:0:0:0:
447,201,51222,1,0,0:0:0:0:
429,278,51333,1,0,0:0:0:0:
368,330,51444,1,0,0:0:0:0:
240,336,51666,1,0,0:0:0:0:
160,320,51777,2,0,P|96:288|80:192,1,162.499992561341
96,128,52111,6,0,L|128:80,2,40.6249981403352
176,64,52444,1,0,0:0:0:0:
224,96,52555,1,0,0:0:0:0:
240,160,52666,1,0,0:0:0:0:
224,208,52777,1,0,0:0:0:0:
304,224,52999,5,0,0:0:0:0:
368,240,53111,1,0,0:0:0:0:
368,320,53222,1,0,0:0:0:0:
288,304,53333,1,0,0:0:0:0:
320,224,53444,1,0,0:0:0:0:
384,272,53555,1,0,0:0:0:0:
336,336,53666,1,0,0:0:0:0:
224,288,53999,6,0,P|160:224|128:144,1,162.499992561341
208,80,54444,1,0,0:0:0:0:
320,80,54666,5,0,0:0:0:0:
356,103,54777,1,0,0:0:0:0:
368,143,54888,1,0,0:0:0:0:
345,180,54999,1,0,0:0:0:0:
342,223,55110,1,0,0:0:0:0:
363,261,55221,1,0,0:0:0:0:
400,282,55332,1,0,0:0:0:0:
441,271,55443,1,0,0:0:0:0:
448,208,55666,5,0,0:0:0:0:
448,164,55777,1,0,0:0:0:0:
408,155,55888,1,0,0:0:0:0:
366,143,55999,1,0,0:0:0:0:
327,124,56110,1,0,0:0:0:0:
294,126,56221,1,0,0:0:0:0:
273,164,56332,1,0,0:0:0:0:
256,205,56443,1,0,0:0:0:0:
227,179,56554,1,0,0:0:0:0:
221,137,56665,1,0,0:0:0:0:
195,146,56777,1,0,0:0:0:0:
153,156,56888,1,0,0:0:0:0:
112,256,57111,5,0,0:0:0:0:
224,272,57333,6,0,L|224:304,2,29.1666657765707
272,256,57555,2,0,L|288:288,2,29.1666657765707
320,224,57777,2,0,L|352:256,2,29.1666657765707
352,192,57999,2,0,L|400:208,2,29.1666657765707
288,112,58222,6,0,L|288:80,2,29.1666657765707
240,128,58444,2,0,L|224:96,2,29.1666657765707
192,160,58666,2,0,L|160:128,2,29.1666657765707
160,192,58888,2,0,L|112:176,2,29.1666657765707
96,272,59222,5,0,0:0:0:0:
164,301,59333,1,0,0:0:0:0:
238,304,59444,1,0,0:0:0:0:
352,272,59666,5,0,0:0:0:0:
414,232,59777,1,0,0:0:0:0:
447,165,59888,1,0,0:0:0:0:
384,96,59999,6,0,L|304:64,1,49.9999984741211
288,64,60148,2,0,L|224:80,1,49.9999984741211
192,80,60296,2,0,L|144:128,1,49.9999984741211
144,144,60444,2,0,L|128:240,1,49.9999984741211
144,240,60592,2,0,L|176:304,1,49.9999984741211
176,304,60740,2,0,L|256:320,1,49.9999984741211
320,320,61111,5,0,0:0:0:0:
361,298,61222,1,0,0:0:0:0:
376,262,61333,1,0,0:0:0:0:
347,226,61444,1,0,0:0:0:0:
321,189,61555,1,0,0:0:0:0:
354,158,61666,1,0,0:0:0:0:
400,160,61777,1,0,0:0:0:0:
400,96,61851,6,0,L|416:64,2,31.2500011920929
352,96,62074,2,0,B|352:48,2,31.2500011920929
304,112,62296,2,0,L|288:80,2,31.2500011920929
256,144,62518,2,0,L|224:112,2,31.2500011920929
