osu file format v14

[General]
AudioFilename: audio.mp3
AudioLeadIn: 0
PreviewTime: -1
Countdown: 1
SampleSet: Normal
StackLeniency: 0.7
Mode: 3
LetterboxInBreaks: 1
SpecialStyle: 0
WidescreenStoryboard: 1

[Editor]
Bookmarks: 444
DistanceSpacing: 0.8
BeatDivisor: 16
GridSize: 8
TimelineZoom: 3.399999

[Metadata]
Title:Rainbow Jaka Jan mix
TitleUnicode:Rainbow Jaka Jan mix
Artist:K-ON!
ArtistUnicode:K-ON!
Creator:mmi-
Version:JACK-A JACK-A JAN
Source:
Tags:
BeatmapID:1075053
BeatmapSetID:505353

[Difficulty]
HPDrainRate:9
CircleSize:4
OverallDifficulty:9
ApproachRate:9
SliderMultiplier:2
SliderTickRate:1

[Events]
//Background and Video events
Video,0,"Rainbow Jakkajan - YouTube.flv"
0,0,"bg.jpg",0,0
//Break Periods
2,21977,28288
2,36199,56733
2,64588,107844
//Storyboard Layer 0 (Background)
//Storyboard Layer 1 (Fail)
//Storyboard Layer 2 (Pass)
//Storyboard Layer 3 (Foreground)
//Storyboard Sound Samples

[TimingPoints]
0,444.444444444444,4,1,0,40,1,0
13111,-166.666666666667,4,1,0,40,0,0
13211,-100,4,1,0,40,0,0
13388,-57.1428571428571,4,1,0,40,0,0
13666,-100,4,1,0,40,0,0
21555,-10000,4,1,0,40,0,0
21666,-100,4,1,0,40,0,0
30222,-166.666666666667,4,1,0,40,0,0
30333,-142.857142857143,4,1,0,40,0,0
30444,-125,4,1,0,40,0,0
30555,-111.111111111111,4,1,0,40,0,0
30611,-100,4,1,0,40,0,0
32333,-142.857142857143,4,1,0,40,0,0
32444,-125,4,1,0,40,0,0
32555,-111.111111111111,4,1,0,40,0,0
32666,-100,4,1,0,40,0,0
33222,-133.333333333333,4,1,0,40,0,0
33333,-114.942528735632,4,1,0,40,0,0
33444,-100,4,1,0,40,0,0
33777,-142.857142857143,4,1,0,40,0,0
33888,-117.647058823529,4,1,0,40,0,0
33999,-125,4,1,0,40,0,0
34111,-111.111111111111,4,1,0,40,0,0
34222,-100,4,1,0,40,0,0
108444,-250,4,1,0,40,0,0
108555,-166.666666666667,4,1,0,40,0,0
108666,-125,4,1,0,40,0,0
108777,-100,4,1,0,40,0,0
108888,-83.3333333333333,4,1,0,40,0,0
108999,-71.4285714285714,4,1,0,40,0,0
109111,-83.3333333333333,4,1,0,40,0,0
109222,-100,4,1,0,40,0,0
110166,-20,4,1,0,40,0,0

[HitObjects]
64,192,444,5,0,0:0:0:0:
320,192,777,1,0,0:0:0:0:
320,192,888,1,0,0:0:0:0:
192,192,1111,1,0,0:0:0:0:
320,192,1333,1,0,0:0:0:0:
320,192,1444,1,0,0:0:0:0:
320,192,1555,1,0,0:0:0:0:
320,192,1666,1,0,0:0:0:0:
192,192,1777,1,0,0:0:0:0:
64,192,1999,1,0,0:0:0:0:
448,192,2222,1,0,0:0:0:0:
192,192,2555,1,0,0:0:0:0:
192,192,2666,1,0,0:0:0:0:
320,192,2888,1,0,0:0:0:0:
192,192,3111,1,0,0:0:0:0:
192,192,3222,1,0,0:0:0:0:
192,192,3333,1,0,0:0:0:0:
192,192,3444,1,0,0:0:0:0:
448,192,3555,1,0,0:0:0:0:
320,192,3777,1,0,0:0:0:0:
192,192,3999,1,0,0:0:0:0:
64,192,4111,128,0,4222:0:0:0:0:
320,192,4333,1,0,0:0:0:0:
64,192,4444,128,0,4666:0:0:0:0:
448,192,4444,1,0,0:0:0:0:
448,192,4666,1,0,0:0:0:0:
320,192,4888,1,0,0:0:0:0:
64,192,4999,128,0,5111:0:0:0:0:
320,192,5222,1,0,0:0:0:0:
64,192,5333,128,0,5555:0:0:0:0:
448,192,5333,1,0,0:0:0:0:
448,192,5555,1,0,0:0:0:0:
64,192,5777,1,0,0:0:0:0:
192,192,5777,1,0,0:0:0:0:
64,192,5888,1,0,0:0:0:0:
320,192,5888,1,0,0:0:0:0:
64,192,5999,1,0,0:0:0:0:
448,192,5999,1,0,0:0:0:0:
64,192,6111,1,0,0:0:0:0:
448,192,6111,1,0,0:0:0:0:
320,192,6222,1,0,0:0:0:0:
448,192,6222,1,0,0:0:0:0:
192,192,6333,1,0,0:0:0:0:
448,192,6333,1,0,0:0:0:0:
64,192,6444,1,0,0:0:0:0:
448,192,6444,1,0,0:0:0:0:
64,192,6555,1,0,0:0:0:0:
448,192,6555,1,0,0:0:0:0:
192,192,6666,1,0,0:0:0:0:
320,192,6666,1,0,0:0:0:0:
64,192,6777,1,0,0:0:0:0:
448,192,6777,1,0,0:0:0:0:
192,192,6888,1,0,0:0:0:0:
320,192,6888,1,0,0:0:0:0:
64,192,6999,1,0,0:0:0:0:
448,192,6999,1,0,0:0:0:0:
192,192,7222,1,0,0:0:0:0:
320,192,7222,1,0,0:0:0:0:
448,192,7333,1,0,0:0:0:0:
64,192,7333,1,0,0:0:0:0:
192,192,7444,1,0,0:0:0:0:
320,192,7444,1,0,0:0:0:0:
448,192,7555,1,0,0:0:0:0:
192,192,7555,1,0,0:0:0:0:
320,192,7555,1,0,0:0:0:0:
64,192,7555,1,0,0:0:0:0:
64,192,7777,1,0,0:0:0:0:
320,192,7888,1,0,0:0:0:0:
320,192,8111,1,0,0:0:0:0:
192,192,8222,1,0,0:0:0:0:
64,192,8444,1,0,0:0:0:0:
64,192,8666,1,0,0:0:0:0:
448,192,8777,1,0,0:0:0:0:
192,192,8888,128,0,9111:0:0:0:0:
320,192,9111,128,0,9333:0:0:0:0:
64,192,9333,1,0,0:0:0:0:
64,192,9555,1,0,0:0:0:0:
320,192,9666,1,0,0:0:0:0:
64,192,9888,1,0,0:0:0:0:
320,192,9999,1,0,0:0:0:0:
64,192,10222,1,0,0:0:0:0:
448,192,10333,1,0,0:0:0:0:
320,192,10444,1,0,0:0:0:0:
64,192,10555,1,0,0:0:0:0:
448,192,10666,1,0,0:0:0:0:
320,192,10777,1,0,0:0:0:0:
64,192,10888,1,0,0:0:0:0:
64,192,11111,1,0,0:0:0:0:
64,192,11333,1,0,0:0:0:0:
320,192,11444,1,0,0:0:0:0:
320,192,11666,1,0,0:0:0:0:
192,192,11777,1,0,0:0:0:0:
64,192,11999,1,0,0:0:0:0:
64,192,12222,1,0,0:0:0:0:
448,192,12333,1,0,0:0:0:0:
192,192,12444,128,0,12666:0:0:0:0:
320,192,12666,128,0,12888:0:0:0:0:
64,192,12888,1,0,0:0:0:0:
448,192,12888,1,0,0:0:0:0:
192,192,12888,1,0,0:0:0:0:
192,192,13111,128,0,13666:0:0:0:0:
320,192,13277,128,0,13666:0:0:0:0:
448,192,13388,128,0,13666:0:0:0:0:
64,192,14222,1,0,0:0:0:0:
192,192,14222,1,0,0:0:0:0:
320,192,14222,1,0,0:0:0:0:
448,192,14222,1,0,0:0:0:0:
64,192,14666,1,0,0:0:0:0:
448,192,14666,1,0,0:0:0:0:
320,192,14999,1,0,0:0:0:0:
64,192,15111,1,0,0:0:0:0:
192,192,15111,1,0,0:0:0:0:
192,192,15333,1,0,0:0:0:0:
64,192,15555,1,0,0:0:0:0:
448,192,15555,1,0,0:0:0:0:
448,192,15666,1,0,0:0:0:0:
320,192,15777,1,0,0:0:0:0:
320,192,15888,1,0,0:0:0:0:
64,192,15999,1,0,0:0:0:0:
192,192,15999,1,0,0:0:0:0:
320,192,16222,1,0,0:0:0:0:
64,192,16444,1,0,0:0:0:0:
448,192,16444,1,0,0:0:0:0:
192,192,16777,1,0,0:0:0:0:
64,192,16888,1,0,0:0:0:0:
320,192,16888,1,0,0:0:0:0:
448,192,17111,1,0,0:0:0:0:
64,192,17333,1,0,0:0:0:0:
320,192,17333,1,0,0:0:0:0:
320,192,17444,1,0,0:0:0:0:
192,192,17555,1,0,0:0:0:0:
192,192,17666,1,0,0:0:0:0:
64,192,17777,1,0,0:0:0:0:
448,192,17777,1,0,0:0:0:0:
320,192,17999,1,0,0:0:0:0:
64,192,18222,1,0,0:0:0:0:
448,192,18222,1,0,0:0:0:0:
320,192,18333,128,0,18444:0:0:0:0:
320,192,18555,1,0,0:0:0:0:
64,192,18666,1,0,0:0:0:0:
320,192,18666,1,0,0:0:0:0:
320,192,18888,1,0,0:0:0:0:
64,192,19111,1,0,0:0:0:0:
448,192,19111,1,0,0:0:0:0:
448,192,19444,1,0,0:0:0:0:
64,192,19555,1,0,0:0:0:0:
320,192,19555,1,0,0:0:0:0:
192,192,19777,1,0,0:0:0:0:
64,192,19999,1,0,0:0:0:0:
192,192,20111,1,0,0:0:0:0:
64,192,20222,1,0,0:0:0:0:
320,192,20222,1,0,0:0:0:0:
448,192,20333,1,0,0:0:0:0:
320,192,20444,1,0,0:0:0:0:
192,192,20555,1,0,0:0:0:0:
64,192,20666,5,0,0:0:0:0:
320,192,20666,1,0,0:0:0:0:
448,192,20777,1,0,0:0:0:0:
320,192,20888,1,0,0:0:0:0:
192,192,20888,1,0,0:0:0:0:
64,192,20999,1,0,0:0:0:0:
448,192,21111,1,0,0:0:0:0:
320,192,21111,1,0,0:0:0:0:
192,192,21222,1,0,0:0:0:0:
64,192,21333,1,0,0:0:0:0:
448,192,21333,1,0,0:0:0:0:
320,192,21555,128,0,21666:0:0:0:0:
64,192,21777,1,0,0:0:0:0:
192,192,21777,1,0,0:0:0:0:
448,192,21777,1,0,0:0:0:0:
64,192,28888,132,0,28999:0:0:0:0:
192,192,28999,128,0,29111:0:0:0:0:
64,192,29111,128,0,29222:0:0:0:0:
320,192,29222,128,0,29333:0:0:0:0:
192,192,29333,128,0,29444:0:0:0:0:
320,192,29444,128,0,29555:0:0:0:0:
64,192,29555,128,0,29666:0:0:0:0:
192,192,29666,128,0,29777:0:0:0:0:
320,192,29777,128,0,29888:0:0:0:0:
192,192,29888,128,0,29999:0:0:0:0:
64,192,29999,128,0,30111:0:0:0:0:
320,192,30111,128,0,30222:0:0:0:0:
448,192,30222,128,0,30611:0:0:0:0:
448,192,30666,128,0,30777:0:0:0:0:
320,192,30777,128,0,30888:0:0:0:0:
192,192,30888,128,0,30999:0:0:0:0:
64,192,30999,128,0,31111:0:0:0:0:
192,192,31111,128,0,31222:0:0:0:0:
320,192,31222,128,0,31333:0:0:0:0:
448,192,31333,128,0,31444:0:0:0:0:
320,192,31444,128,0,31777:0:0:0:0:
192,192,31777,128,0,31888:0:0:0:0:
64,192,31888,128,0,31999:0:0:0:0:
192,192,31999,128,0,32111:0:0:0:0:
320,192,32111,128,0,32222:0:0:0:0:
448,192,32222,128,0,32277:0:0:0:0:
448,192,32333,128,0,32666:0:0:0:0:
320,192,32666,128,0,32888:0:0:0:0:
192,192,32888,128,0,32999:0:0:0:0:
64,192,32999,128,0,33111:0:0:0:0:
320,192,33111,128,0,33166:0:0:0:0:
320,192,33222,128,0,33444:0:0:0:0:
192,192,33444,128,0,33555:0:0:0:0:
64,192,33555,128,0,33666:0:0:0:0:
192,192,33666,128,0,33777:0:0:0:0:
320,192,33777,128,0,33999:0:0:0:0:
448,192,33999,128,0,34222:0:0:0:0:
320,192,34222,128,0,34333:0:0:0:0:
448,192,34333,128,0,34444:0:0:0:0:
320,192,34444,128,0,34555:0:0:0:0:
192,192,34555,128,0,34777:0:0:0:0:
320,192,34777,128,0,34888:0:0:0:0:
192,192,34888,128,0,35111:0:0:0:0:
320,192,35111,128,0,35222:0:0:0:0:
192,192,35222,128,0,35333:0:0:0:0:
320,192,35333,128,0,35444:0:0:0:0:
192,192,35444,128,0,35666:0:0:0:0:
64,192,35666,128,0,35777:0:0:0:0:
192,192,35777,128,0,35999:0:0:0:0:
448,192,57333,5,0,0:0:0:0:
320,192,57407,1,0,0:0:0:0:
192,192,57481,1,0,0:0:0:0:
448,192,57555,1,0,0:0:0:0:
320,192,57629,1,0,0:0:0:0:
192,192,57703,1,0,0:0:0:0:
448,192,57777,1,0,0:0:0:0:
320,192,57851,1,0,0:0:0:0:
192,192,57925,1,0,0:0:0:0:
448,192,57999,1,0,0:0:0:0:
320,192,58074,1,0,0:0:0:0:
192,192,58148,1,0,0:0:0:0:
320,192,58222,1,0,0:0:0:0:
192,192,58296,1,0,0:0:0:0:
64,192,58370,1,0,0:0:0:0:
320,192,58444,1,0,0:0:0:0:
192,192,58518,1,0,0:0:0:0:
64,192,58592,1,0,0:0:0:0:
320,192,58666,1,0,0:0:0:0:
192,192,58740,1,0,0:0:0:0:
64,192,58814,1,0,0:0:0:0:
320,192,58888,1,0,0:0:0:0:
192,192,58962,1,0,0:0:0:0:
64,192,59037,1,0,0:0:0:0:
448,192,59999,1,0,0:0:0:0:
320,192,60074,1,0,0:0:0:0:
192,192,60148,1,0,0:0:0:0:
64,192,60222,1,0,0:0:0:0:
192,192,60296,1,0,0:0:0:0:
320,192,60370,1,0,0:0:0:0:
448,192,60444,1,0,0:0:0:0:
320,192,60518,1,0,0:0:0:0:
192,192,60592,1,0,0:0:0:0:
64,192,60666,1,0,0:0:0:0:
192,192,60740,1,0,0:0:0:0:
320,192,60814,1,0,0:0:0:0:
64,192,62666,1,0,0:0:0:0:
192,192,62722,1,0,0:0:0:0:
320,192,62777,1,0,0:0:0:0:
448,192,62833,1,0,0:0:0:0:
192,192,62833,1,0,0:0:0:0:
64,192,62888,1,0,0:0:0:0:
192,192,62944,1,0,0:0:0:0:
64,192,62999,1,0,0:0:0:0:
320,192,62999,1,0,0:0:0:0:
448,192,63055,1,0,0:0:0:0:
320,192,63111,1,0,0:0:0:0:
192,192,63166,1,0,0:0:0:0:
448,192,63166,1,0,0:0:0:0:
64,192,63222,1,0,0:0:0:0:
192,192,63277,1,0,0:0:0:0:
64,192,63333,1,0,0:0:0:0:
320,192,63333,1,0,0:0:0:0:
448,192,63388,1,0,0:0:0:0:
320,192,63444,1,0,0:0:0:0:
448,192,63499,1,0,0:0:0:0:
192,192,63499,1,0,0:0:0:0:
64,192,63555,1,0,0:0:0:0:
192,192,63611,1,0,0:0:0:0:
64,192,63666,1,0,0:0:0:0:
320,192,63666,1,0,0:0:0:0:
448,192,63722,1,0,0:0:0:0:
320,192,63777,1,0,0:0:0:0:
192,192,63833,1,0,0:0:0:0:
448,192,63833,1,0,0:0:0:0:
64,192,63888,1,0,0:0:0:0:
192,192,63944,1,0,0:0:0:0:
64,192,63999,1,0,0:0:0:0:
320,192,63999,1,0,0:0:0:0:
448,192,64055,1,0,0:0:0:0:
320,192,64111,1,0,0:0:0:0:
192,192,64166,1,0,0:0:0:0:
448,192,64166,1,0,0:0:0:0:
64,192,64222,1,0,0:0:0:0:
192,192,64277,1,0,0:0:0:0:
64,192,64333,1,0,0:0:0:0:
320,192,64333,1,0,0:0:0:0:
192,192,64388,1,0,0:0:0:0:
64,192,108444,132,0,109222:0:0:0:0:
320,192,109111,128,0,109222:0:0:0:0:
320,192,109249,128,0,109361:0:0:0:0:
192,192,109361,128,0,109527:0:0:0:0:
448,192,109527,128,0,109666:0:0:0:0:
64,192,109638,128,0,109805:0:0:0:0:
320,192,109749,128,0,110055:0:0:0:0:
192,192,110166,128,0,110472:0:0:0:0:
