osu file format v14

[General]
AudioFilename: audio.mp3
AudioLeadIn: 0
PreviewTime: 31376
Countdown: 0
SampleSet: Soft
StackLeniency: 0.7
Mode: 0
LetterboxInBreaks: 0
WidescreenStoryboard: 0

[Editor]
DistanceSpacing: 4
BeatDivisor: 4
GridSize: 4
TimelineZoom: 1

[Metadata]
Title:Fantastic
TitleUnicode:Fantastic
Artist:K-391
ArtistUnicode:K-391
Creator:FadingAway
Version:Hardik
Source:
Tags:
BeatmapID:1001932
BeatmapSetID:468427

[Difficulty]
HPDrainRate:5
CircleSize:3.5
OverallDifficulty:6
ApproachRate:8
SliderMultiplier:1.5
SliderTickRate:2

[Events]
//Background and Video events
0,0,"ghhg.jpg",0,0
//Break Periods
2,28319,30335
2,82666,86780
2,119756,121771
2,153105,159552
//Storyboard Layer 0 (Background)
//Storyboard Layer 1 (Fail)
//Storyboard Layer 2 (Pass)
//Storyboard Layer 3 (Foreground)
//Storyboard Layer 4 (Overlay)
//Storyboard Sound Samples

[TimingPoints]
7594,466.490436946043,4,2,0,100,1,0
31851,-100,4,2,0,100,0,1
46545,-100,4,2,0,100,0,0
123283,-100,4,2,0,100,0,1
137978,-100,4,2,0,100,0,0
182994,-100,4,2,0,100,0,1
197688,-100,4,2,0,100,0,0

[HitObjects]
344,88,7594,6,0,P|400:176|388:252,2,150
108,160,8993,1,0,0:0:0:0:
236,284,9459,2,0,P|312:312|392:264,2,150
376,116,10858,2,0,L|316:80,3,37.5
312,88,11325,5,0,0:0:0:0:
140,140,11791,1,0,0:0:0:0:
272,264,12258,1,0,0:0:0:0:
312,88,12724,1,0,0:0:0:0:
192,224,13191,2,0,P|240:272|336:316,1,150
432,168,14124,2,0,P|396:100|316:92,1,150
328,88,14823,1,0,0:0:0:0:
328,88,15057,6,0,P|232:72|184:116,1,150
208,280,15990,1,0,0:0:0:0:
192,100,16456,1,0,0:0:0:0:
320,100,16923,2,0,L|428:220,1,150
288,296,17856,1,0,0:0:0:0:
152,192,18322,2,0,L|112:156,3,37.5
132,132,18789,6,0,P|200:84|264:116,1,150
396,172,19722,1,0,0:0:0:0:
260,292,20188,1,0,0:0:0:0:
120,264,20655,2,0,P|92:184|112:116,1,150
316,80,21588,1,0,0:0:0:0:
316,80,21821,1,0,0:0:0:0:
316,80,22054,1,0,0:0:0:0:
316,80,22288,2,0,L|286:102,1,37.5
256,100,22521,5,0,0:0:0:0:
200,256,22987,1,0,0:0:0:0:
392,236,23454,2,0,L|356:168,2,75
216,296,24387,2,0,P|144:256|120:188,1,150
248,96,25320,1,0,0:0:0:0:
348,208,25786,2,0,L|380:260,3,37.5
360,268,26253,5,0,0:0:0:0:
196,228,26720,1,0,0:0:0:0:
328,116,27186,2,0,L|392:72,2,75
284,236,27886,1,0,0:0:0:0:
284,236,28119,1,0,0:0:0:0:
184,88,31385,5,0,0:0:0:0:
336,128,31851,6,0,L|380:216,1,75
340,272,32318,1,0,0:0:0:0:
168,256,32785,1,0,0:0:0:0:
264,164,33251,1,0,0:0:0:0:
164,104,33718,2,0,P|126:126|97:160,1,75
140,224,34184,1,0,0:0:0:0:
280,264,34651,2,0,L|364:264,1,75
360,120,35117,2,0,L|320:88,3,37.5
296,96,35584,6,0,L|200:112,1,75
164,208,36050,1,0,0:0:0:0:
164,208,36283,1,0,0:0:0:0:
216,288,36517,2,0,L|312:272,1,75
348,208,36983,1,0,0:0:0:0:
348,208,37216,1,0,0:0:0:0:
280,144,37450,2,0,L|184:176,1,75
152,240,37916,2,0,L|236:292,1,75
308,220,38383,2,0,L|324:132,3,75
300,92,39316,5,0,0:0:0:0:
300,92,39549,1,0,0:0:0:0:
192,104,39782,2,0,P|148:148|136:188,1,75
196,272,40249,1,0,0:0:0:0:
384,268,40715,1,0,0:0:0:0:
332,106,41182,2,0,L|252:58,3,75
246,53,42115,1,0,0:0:0:0:
223,39,42348,1,0,0:0:0:0:
136,160,42581,2,0,L|112:216,3,37.5
124,228,43048,6,0,P|180:300|260:320,1,150
404,256,43981,1,0,0:0:0:0:
388,144,44214,1,0,0:0:0:0:
292,84,44447,1,0,0:0:0:0:
160,104,44914,6,0,L|88:160,1,75
96,176,45380,2,0,L|136:256,1,75
240,276,45847,1,0,0:0:0:0:
288,192,46081,1,0,0:0:0:0:
340,276,46313,1,0,0:0:0:0:
392,192,46547,1,0,0:0:0:0:
416,96,46780,6,0,P|288:56|248:68,1,150
144,236,47713,1,0,0:0:0:0:
288,316,48179,1,0,0:0:0:0:
392,192,48646,2,0,P|391:120|331:66,1,150
180,96,49579,1,0,0:0:0:0:
140,248,50045,1,0,0:0:0:0:
276,308,50512,6,0,P|372:280|400:224,1,150
328,88,51445,1,0,0:0:0:0:
148,64,51911,1,0,0:0:0:0:
144,228,52378,2,0,P|220:312|256:312,1,150
404,252,53311,1,0,0:0:0:0:
268,160,53777,1,0,0:0:0:0:
248,312,54244,5,0,0:0:0:0:
132,176,54710,1,0,0:0:0:0:
284,88,55177,2,0,L|384:76,2,75
252,96,55877,1,0,0:0:0:0:
216,104,56110,1,0,0:0:0:0:
140,256,56577,1,0,0:0:0:0:
304,324,57043,1,0,0:0:0:0:
396,180,57510,6,0,B|380:111|295:167|270:69,1,150
132,140,58443,1,0,0:0:0:0:
236,288,58909,1,0,0:0:0:0:
132,140,59376,1,0,0:0:0:0:
356,176,59842,2,0,P|324:264|256:280,1,150
156,208,60775,2,0,P|188:120|256:104,1,150
356,176,61708,6,0,P|324:264|256:280,1,150
116,196,62641,1,0,0:0:0:0:
168,112,62874,1,0,0:0:0:0:
260,80,63108,1,0,0:0:0:0:
404,192,63574,2,0,P|384:256|304:308,1,150
144,284,64507,1,0,0:0:0:0:
256,140,64974,6,0,P|310:190|344:268,1,150
204,312,65907,1,0,0:0:0:0:
100,200,66373,1,0,0:0:0:0:
164,76,66840,1,0,0:0:0:0:
364,104,67306,5,0,0:0:0:0:
148,280,68239,1,0,0:0:0:0:
364,104,69172,5,0,0:0:0:0:
392,228,69639,2,0,P|336:292|272:308,1,150
164,292,70572,1,0,0:0:0:0:
120,168,71038,2,0,P|161:107|233:95,1,150
356,168,71971,1,0,0:0:0:0:
288,296,72438,2,0,L|236:312,3,37.5
220,304,72904,5,0,0:0:0:0:
92,260,73371,1,0,0:0:0:0:
128,132,73838,1,0,0:0:0:0:
253,90,74304,1,0,0:0:0:0:
380,212,74771,2,0,P|336:304|284:328,1,150
140,272,75704,1,0,0:0:0:0:
264,160,76170,1,0,0:0:0:0:
296,320,76637,1,0,0:0:0:0:
256,192,77101,12,0,82466,0:0:0:0:
256,192,87830,12,0,90629,0:0:0:0:
159,249,91565,6,0,L|199:181,1,75
232,120,92032,2,0,L|308:100,1,75
357,152,92498,2,0,L|449:208,1,75
431,250,92965,2,0,L|395:298,3,37.5
369,295,93431,6,0,L|279:266,1,75
226,251,93898,2,0,L|138:275,1,75
129,203,94364,2,0,L|149:123,1,75
180,92,94831,2,0,L|240:68,3,37.5
261,92,95297,6,0,L|309:156,1,75
331,203,95764,2,0,L|259:247,1,75
238,282,96230,2,0,L|286:346,1,75
339,321,96697,2,0,L|398:273,1,75
400,136,97163,1,0,0:0:0:0:
216,72,97630,1,0,0:0:0:0:
128,172,98096,2,0,L|144:256,1,75
228,316,98563,1,0,0:0:0:0:
336,316,98796,1,0,0:0:0:0:
400,216,99029,6,0,P|416:156|368:80,1,150
168,80,99962,1,0,0:0:0:0:
144,192,100429,2,0,L|156:252,1,37.5
156,264,100662,2,0,L|208:272,1,37.5
216,300,100895,6,0,P|280:312|372:268,1,150
364,100,101828,1,0,0:0:0:0:
184,116,102295,2,0,L|144:152,3,37.5
136,172,102761,6,0,P|120:232|136:324,1,150
300,320,103694,1,0,0:0:0:0:
404,196,104161,1,0,0:0:0:0:
268,104,104627,2,0,L|172:108,1,75
104,184,105094,1,0,0:0:0:0:
200,304,105560,1,0,0:0:0:0:
252,232,105794,1,0,0:0:0:0:
304,304,106027,1,0,0:0:0:0:
356,232,106260,1,0,0:0:0:0:
424,156,106493,6,0,P|384:108|296:72,1,150
128,76,107426,1,0,0:0:0:0:
128,228,107893,2,0,L|128:296,3,37.5
140,292,108359,6,0,P|232:332|300:328,1,150
424,232,109292,1,0,0:0:0:0:
344,112,109759,2,0,L|284:92,3,37.5
276,96,110226,5,0,0:0:0:0:
216,284,110692,1,0,0:0:0:0:
168,136,111159,1,0,0:0:0:0:
324,176,111625,1,0,0:0:0:0:
220,256,112092,2,0,L|136:312,2,75
388,256,113025,1,0,0:0:0:0:
388,256,113258,1,0,0:0:0:0:
388,256,113491,2,0,L|312:196,1,75
288,72,113958,5,0,0:0:0:0:
116,144,114424,2,0,P|92:232|120:312,1,150
288,292,115357,2,0,L|344:292,3,37.5
360,280,115824,6,0,P|392:232|392:192,1,75
308,108,116290,1,0,0:0:0:0:
308,108,116523,1,0,0:0:0:0:
196,112,116757,2,0,P|156:144|144:188,1,75
152,268,117223,2,0,L|196:312,3,37.5
212,312,117690,2,0,P|304:320|352:292,1,150
416,144,118623,1,0,0:0:0:0:
284,76,119089,1,0,0:0:0:0:
280,228,119556,1,0,0:0:0:0:
144,272,122821,5,0,0:0:0:0:
288,320,123282,6,0,P|336:280|340:256,1,75
396,156,123748,1,0,0:0:0:0:
396,156,123981,1,0,0:0:0:0:
288,92,124215,2,0,L|204:80,1,75
136,152,124681,2,0,L|116:200,3,37.5
124,216,125148,6,0,P|160:264|184:280,1,75
272,324,125614,1,0,0:0:0:0:
360,256,125847,1,0,0:0:0:0:
356,140,126081,2,0,L|272:100,1,75
180,160,126547,2,0,L|176:208,3,37.5
192,224,127014,5,0,0:0:0:0:
256,304,127247,1,0,0:0:0:0:
372,276,127480,2,0,P|368:216|368:180,1,75
320,112,127947,1,0,0:0:0:0:
212,76,128180,1,0,0:0:0:0:
104,116,128413,2,0,L|100:200,1,75
200,280,128880,5,0,0:0:0:0:
200,280,129113,1,0,0:0:0:0:
200,280,129346,2,0,L|280:288,1,75
348,200,129813,1,0,0:0:0:0:
304,120,130046,1,0,0:0:0:0:
264,200,130279,1,0,0:0:0:0:
220,120,130512,1,0,0:0:0:0:
120,168,130746,6,0,P|80:248|112:308,1,150
288,304,131679,1,0,0:0:0:0:
380,192,132145,2,0,L|336:120,1,75
224,80,132612,5,0,0:0:0:0:
128,184,133078,2,0,P|108:252|180:312,1,150
296,264,134011,2,0,L|348:200,1,75
316,116,134478,5,0,0:0:0:0:
120,76,134944,1,0,0:0:0:0:
120,256,135411,1,0,0:0:0:0:
300,256,135877,1,0,0:0:0:0:
364,128,136344,2,0,P|302:86|224:84,1,150
152,216,137277,2,0,L|128:304,3,75
260,316,138210,6,0,P|312:304|344:268,1,75
336,276,138676,2,0,P|356:220|344:184,1,75
352,188,139143,1,0,0:0:0:0:
208,76,139609,2,0,L|132:128,1,75
136,144,140076,5,0,0:0:0:0:
296,280,140542,1,0,0:0:0:0:
136,144,141009,1,0,0:0:0:0:
256,68,141475,2,0,L|344:68,1,75
384,144,141942,5,0,0:0:0:0:
152,284,142408,1,0,0:0:0:0:
360,284,142875,1,0,0:0:0:0:
152,284,143341,1,0,0:0:0:0:
144,152,143808,2,0,P|200:96|268:96,1,150
352,248,144741,2,0,L|412:328,3,75
396,308,145674,5,0,0:0:0:0:
296,220,146140,1,0,0:0:0:0:
196,128,146607,1,0,0:0:0:0:
144,232,147073,2,0,L|120:288,3,37.5
136,288,147540,6,0,P|192:308|296:276,1,150
416,160,148473,1,0,0:0:0:0:
272,100,148940,2,0,L|192:88,1,75
120,160,149406,5,0,0:0:0:0:
168,300,149873,1,0,0:0:0:0:
320,300,150339,1,0,0:0:0:0:
364,156,150806,1,0,0:0:0:0:
224,84,151272,2,0,P|140:100|104:168,1,150
128,264,152205,2,0,L|224:288,1,75
276,244,152672,2,0,L|352:208,1,75
256,192,160602,12,0,167133,0:0:0:0:
276,280,168066,6,0,L|348:220,1,75
308,204,168533,2,0,L|268:124,1,75
256,140,169000,2,0,L|176:112,1,75
160,128,169466,1,0,0:0:0:0:
112,252,169933,6,0,L|200:312,1,75
196,300,170399,2,0,L|280:256,1,75
280,232,170866,2,0,L|352:188,1,75
368,168,171332,2,0,L|312:112,2,75
396,252,172149,6,0,L|396:304,1,37.5
284,312,172615,2,0,L|232:348,1,37.5
156,268,173082,2,0,L|128:236,1,37.5
212,136,173548,2,0,L|264:108,1,37.5
328,176,174015,2,0,L|360:232,1,37.5
264,312,174481,2,0,L|204:272,1,37.5
120,216,174948,2,0,L|128:176,1,37.5
220,104,175414,6,0,L|284:104,8,37.5
280,140,176464,2,0,L|332:168,7,37.5
320,188,177397,6,0,L|336:240,7,37.5
312,248,178330,2,0,L|280:280,7,37.5
256,288,179263,6,0,L|156:276,3,75
132,216,180196,2,0,L|104:140,3,75
108,124,181129,1,0,0:0:0:0:
236,72,182995,6,0,L|296:156,1,75
160,116,183461,2,0,L|220:200,1,75
88,152,183928,2,0,L|148:236,1,75
216,320,184394,2,0,L|284:304,3,37.5
288,308,184861,6,0,L|336:240,1,75
336,124,185327,2,0,L|232:104,1,75
152,160,185794,1,0,0:0:0:0:
140,268,186027,2,0,L|176:312,1,37.5
184,312,186261,2,0,L|224:316,1,37.5
248,312,186494,2,0,L|284:280,1,37.5
304,284,186727,6,0,L|392:240,1,75
368,168,187194,1,0,0:0:0:0:
308,112,187427,1,0,0:0:0:0:
216,112,187660,2,0,L|132:156,1,75
144,252,188127,2,0,L|176:280,3,37.5
196,288,188593,5,0,0:0:0:0:
328,280,188826,2,0,L|392:208,1,75
320,104,189293,2,0,L|268:64,2,37.5
188,144,189759,2,0,L|152:104,2,37.5
192,252,190226,1,0,0:0:0:0:
300,320,190459,6,0,P|356:288|372:256,1,75
360,256,190925,2,0,P|396:220|400:180,1,75
384,184,191392,2,0,P|408:140|384:100,1,75
384,96,191742,1,0,0:0:0:0:
348,80,191858,1,0,0:0:0:0:
312,72,191975,1,0,0:0:0:0:
276,68,192091,1,0,0:0:0:0:
240,72,192208,1,0,0:0:0:0:
204,88,192325,6,0,L|136:136,1,75
184,256,192791,2,0,L|256:312,1,75
380,256,193258,1,0,0:0:0:0:
364,116,193491,2,0,L|316:88,1,37.5
236,148,193724,6,0,L|196:172,1,37.5
212,264,193958,2,0,L|264:288,1,37.5
364,296,194191,2,0,L|396:224,1,75
356,136,194657,2,0,L|296:88,1,75
152,148,195124,1,0,0:0:0:0:
152,148,195357,1,0,0:0:0:0:
164,248,195590,1,0,0:0:0:0:
164,248,195707,1,0,0:0:0:0:
164,248,195824,1,0,0:0:0:0:
280,308,196057,6,0,L|340:252,1,75
416,176,196523,1,0,0:0:0:0:
316,88,196757,2,0,L|284:48,2,37.5
180,144,197223,2,0,L|172:96,2,37.5
188,264,197690,1,0,0:0:0:0:
299,296,197922,6,0,L|377:263,1,75
246,221,198388,2,0,L|174:192,1,75
301,148,198855,2,0,L|383:104,1,75
241,55,199321,2,0,L|192:86,1,37.5
194,120,199554,2,0,L|175:158,1,37.5
185,200,199788,2,0,P|256:237|334:224,2,150
258,125,200954,6,0,L|304:96,1,37.5
326,117,201187,2,0,L|369:148,1,37.5
368,176,201420,2,0,L|362:219,1,37.5
341,256,201654,2,0,L|247:277,1,75
155,220,202120,1,0,0:0:0:0:
223,135,202353,1,0,0:0:0:0:
401,191,202587,6,0,L|305:169,1,75
223,208,203053,2,0,L|162:193,3,37.5
173,168,203519,2,0,L|252:140,1,75
370,102,203986,1,0,0:0:0:0:
383,244,204219,2,0,L|403:300,2,37.5
272,239,204686,2,0,L|255:282,2,37.5
321,141,205152,1,0,0:0:0:0:
107,69,205385,5,0,0:0:0:0:
271,326,205619,1,0,0:0:0:0:
246,74,205852,1,0,0:0:0:0:
118,345,206085,1,0,0:0:0:0:
367,179,206318,1,0,0:0:0:0:
74,109,206552,1,0,0:0:0:0:
270,303,206785,6,0,L|330:281,1,37.5
183,205,207018,2,0,L|131:191,1,37.5
323,71,207251,5,0,0:0:0:0:
192,342,207485,1,0,0:0:0:0:
148,45,207718,1,0,0:0:0:0:
322,288,207951,1,0,0:0:0:0:
46,170,208184,1,0,0:0:0:0:
302,90,208418,2,0,L|343:120,1,37.5
299,194,208651,2,0,L|258:211,1,37.5
308,289,208884,2,0,L|342:319,1,37.5
103,264,209117,5,0,0:0:0:0:
395,191,209351,1,0,0:0:0:0:
143,27,209584,1,0,0:0:0:0:
265,300,209817,1,0,0:0:0:0:
6,148,210050,1,0,0:0:0:0:
302,95,210284,1,0,0:0:0:0:
87,304,210517,2,0,L|130:262,1,37.5
259,254,210750,2,0,L|200:222,1,37.5
124,99,210983,5,0,0:0:0:0:
338,309,211217,1,0,0:0:0:0:
58,201,211450,1,0,0:0:0:0:
334,84,211683,2,0,L|376:74,2,37.5
183,344,212150,2,0,L|229:308,2,37.5
409,163,212616,1,0,0:0:0:0:
319,258,212849,6,0,P|297:298|291:344,1,75
224,194,213316,2,0,P|215:157|196:125,1,75
361,139,213782,2,0,P|395:177|402:216,1,75
297,291,214249,2,0,L|241:272,1,37.5
243,245,214482,2,0,L|206:212,1,37.5
197,200,214715,1,0,0:0:0:0:
241,126,215182,1,0,0:0:0:0:
282,51,215648,1,0,0:0:0:0:
357,153,216115,6,0,L|384:192,1,37.5
365,222,216348,2,0,L|340:260,1,37.5
321,281,216581,1,4,0:0:0:0:
167,282,217048,2,0,P|135:206|135:129,1,150
271,100,217981,2,0,L|323:94,3,37.5
345,102,218447,6,0,P|377:178|377:255,1,150
266,276,219147,1,0,0:0:0:0:
245,242,219264,1,0,0:0:0:0:
207,214,219380,1,0,0:0:0:0:
166,204,219497,1,0,0:0:0:0:
265,125,219847,1,0,0:0:0:0:
266,276,220080,2,0,L|265:218,1,37.5
256,192,220313,12,0,224968,0:0:0:0:
