osu file format v14

[General]
AudioFilename: audio.mp3
AudioLeadIn: 0
PreviewTime: 31111
Countdown: 0
SampleSet: Soft
StackLeniency: 0.6
Mode: 0
LetterboxInBreaks: 0
WidescreenStoryboard: 1

[Editor]
Bookmarks: 13580,25580,37580,49580,63080,75080,87080,99080,111080,123080,129080,137330,149330,161330,174830,186830,198830
DistanceSpacing: 0.6
BeatDivisor: 4
GridSize: 4
TimelineZoom: 2.6

[Metadata]
Title:RTCMON
TitleUnicode:RTCMON
Artist:K A Z M A S A
ArtistUnicode:K A Z M A S A
Creator:AlphaDude95
Version:weeb trash c0llab
Source:
Tags:cks cold kiss sound ragtime core kimono cute kawaii gottagof4st collab
BeatmapID:1646962
BeatmapSetID:784429

[Difficulty]
HPDrainRate:7
CircleSize:4
OverallDifficulty:8.4
ApproachRate:9
SliderMultiplier:2
SliderTickRate:1

[Events]
//Background and Video events
0,0,"UAYNHoI.jpg",0,0
//Break Periods
//Storyboard Layer 0 (Background)
//Storyboard Layer 1 (Fail)
//Storyboard Layer 2 (Pass)
//Storyboard Layer 3 (Foreground)
//Storyboard Sound Samples

[TimingPoints]
80,375,4,2,0,50,1,0
80,-133.333333333333,4,2,0,50,0,0
16580,-166.666666666667,4,2,0,50,0,0
22205,-76.923076923077,4,2,0,50,0,0
24080,-111.111111111111,4,2,0,50,0,0
25205,-133.333333333333,4,2,0,30,0,0
25580,-90.9090909090909,4,2,0,40,0,0
31580,-66.6666666666667,4,2,0,55,0,1
37955,-100,4,2,0,55,0,0
40580,-400,4,2,0,55,0,0
40955,-100,4,2,0,55,0,0
42455,-66.6666666666667,4,2,0,55,0,0
43392,-100,4,2,0,55,0,0
45830,-66.6666666666667,4,2,0,55,0,0
46580,-100,4,2,0,55,0,0
86705,-200,4,2,0,40,0,0
87080,-100,4,2,0,50,0,0
97580,-71.4285714285714,4,2,0,50,0,0
99361,-100,4,2,0,50,0,0
111080,-90.9090909090909,4,2,0,50,0,0
137330,375,4,2,0,55,1,0
137330,-83.3333333333333,4,2,0,55,0,0
149330,-111.111111111111,4,2,0,50,0,0
152236,-200,4,2,0,50,0,0
152705,-111.111111111111,4,2,0,50,0,0
161330,-142.857142857143,4,2,0,50,0,0
161705,-83.3333333333333,4,2,0,50,0,0
172580,-111.111111111111,4,2,0,50,0,0
174830,-90.9090909090909,4,2,0,50,0,0

[Colours]
Combo1 : 255,149,98
Combo2 : 253,221,123
Combo3 : 174,253,155
Combo4 : 0,255,255

[HitObjects]
142,72,80,5,8,0:0:0:0:
164,150,455,1,8,0:0:0:0:
151,224,830,1,8,0:0:0:0:
245,183,1017,5,0,0:0:0:0:
264,176,1111,1,0,0:0:0:0:
280,172,1205,1,0,0:0:0:0:
296,172,1298,5,0,0:0:0:0:
312,172,1392,1,0,0:0:0:0:
328,176,1486,1,0,0:0:0:0:
360,192,1580,5,6,0:0:0:0:
336,340,1767,5,2,0:0:0:0:
176,312,1955,1,2,0:0:0:0:
237,179,2142,5,2,0:0:0:0:
240,160,2236,1,2,0:0:0:0:
112,68,2423,5,2,0:0:0:0:
108,92,2517,1,2,0:0:0:0:
108,104,2611,6,0,P|104:132|104:168,1,37.5000014305115,2|0,0:0|0:0,0:0:0:0:
128,256,2892,1,0,0:0:0:0:
308,232,3080,5,2,0:0:0:0:
272,120,3267,6,0,P|252:120|232:124,1,37.5000014305115,2|0,0:0|0:0,0:0:0:0:
196,56,3455,2,0,P|176:60|156:68,1,37.5000014305115,2|0,0:0|0:0,0:0:0:0:
64,112,3642,5,2,0:0:0:0:
60,144,3736,1,2,0:0:0:0:
60,168,3830,5,0,0:0:0:0:
64,188,3923,2,0,P|76:232|72:288,1,75.0000028610231,2|2,0:0|0:0,0:0:0:0:
52,328,4205,5,0,0:0:0:0:
76,312,4298,1,0,0:0:0:0:
100,308,4392,1,0,0:0:0:0:
128,308,4486,1,0,0:0:0:0:
152,316,4580,1,0,0:0:0:0:
304,344,4767,5,2,0:0:0:0:
248,208,4955,1,2,0:0:0:0:
384,244,5142,5,2,0:0:0:0:
392,268,5236,1,2,0:0:0:0:
452,148,5423,5,2,0:0:0:0:
444,120,5517,1,2,0:0:0:0:
264,128,5705,1,0,0:0:0:0:
288,124,5798,1,0,0:0:0:0:
308,116,5892,1,0,0:0:0:0:
132,72,6080,5,2,0:0:0:0:
168,184,6267,6,0,P|172:204|172:224,1,37.5000014305115,2|0,0:0|0:0,0:0:0:0:
124,296,6455,2,0,P|120:316|120:336,1,37.5000014305115,2|0,0:0|0:0,0:0:0:0:
224,356,6642,5,2,0:0:0:0:
252,348,6736,1,2,0:0:0:0:
380,256,6923,1,2,0:0:0:0:
268,200,7111,1,2,0:0:0:0:
380,332,7298,1,0,0:0:0:0:
404,332,7392,1,0,0:0:0:0:
428,332,7486,1,0,0:0:0:0:
456,328,7580,6,0,L|460:280,1,37.5000014305115,2|0,0:0|0:0,0:0:0:0:
468,264,7767,5,2,0:0:0:0:
452,120,7955,1,2,0:0:0:0:
356,212,8142,5,2,0:0:0:0:
348,188,8236,1,2,0:0:0:0:
232,76,8423,5,2,0:0:0:0:
240,104,8517,1,2,0:0:0:0:
244,120,8611,6,0,P|252:164|244:204,1,75.0000028610231,2|0,0:0|0:0,0:0:0:0:
236,220,8892,1,0,0:0:0:0:
24,156,9080,5,2,0:0:0:0:
144,104,9267,5,2,0:0:0:0:
120,288,9455,1,2,0:0:0:0:
236,220,9642,5,2,0:0:0:0:
240,192,9736,1,2,0:0:0:0:
360,100,9923,2,0,L|416:120,1,37.5000014305115,2|0,0:0|0:0,0:0:0:0:
436,148,10111,2,0,L|380:160,1,37.5000014305115,2|0,0:0|0:0,0:0:0:0:
352,184,10298,2,0,L|396:200,1,37.5000014305115,2|0,0:0|0:0,0:0:0:0:
488,280,10580,5,2,0:0:0:0:
320,360,10767,5,2,0:0:0:0:
272,196,10955,1,2,0:0:0:0:
192,284,11142,5,2,0:0:0:0:
200,312,11236,1,2,0:0:0:0:
64,208,11423,5,2,0:0:0:0:
56,176,11517,1,2,0:0:0:0:
60,160,11611,5,2,0:0:0:0:
172,112,11798,5,2,0:0:0:0:
180,140,11892,1,2,0:0:0:0:
68,48,12080,5,0,0:0:0:0:
96,28,12173,1,0,0:0:0:0:
128,24,12267,1,0,0:0:0:0:
156,28,12361,1,0,0:0:0:0:
192,40,12455,5,0,0:0:0:0:
224,52,12548,1,0,0:0:0:0:
256,48,12642,1,0,0:0:0:0:
280,36,12736,1,0,0:0:0:0:
320,12,12830,5,0,0:0:0:0:
348,28,12923,1,0,0:0:0:0:
360,56,13017,1,0,0:0:0:0:
356,88,13111,1,0,0:0:0:0:
328,124,13205,5,0,0:0:0:0:
312,156,13298,1,0,0:0:0:0:
312,192,13392,1,0,0:0:0:0:
328,224,13486,1,0,0:0:0:0:
368,296,13580,5,0,0:0:0:0:
320,308,13673,1,0,0:0:0:0:
272,320,13767,1,0,0:0:0:0:
224,332,13861,1,0,0:0:0:0:
156,280,13955,5,0,0:0:0:0:
190,295,14048,1,0,0:0:0:0:
175,329,14142,1,0,0:0:0:0:
140,314,14236,1,0,0:0:0:0:
72,256,14330,5,0,0:0:0:0:
68,257,14423,1,0,0:0:0:0:
65,256,14517,1,0,0:0:0:0:
63,252,14611,1,0,0:0:0:0:
65,249,14705,1,0,0:0:0:0:
68,247,14798,1,0,0:0:0:0:
72,249,14892,1,0,0:0:0:0:
73,252,14986,1,0,0:0:0:0:
32,168,15080,5,0,0:0:0:0:
80,156,15173,1,0,0:0:0:0:
128,144,15267,1,0,0:0:0:0:
176,132,15361,1,0,0:0:0:0:
268,76,15455,5,0,0:0:0:0:
264,112,15548,1,0,0:0:0:0:
276,148,15642,1,0,0:0:0:0:
304,172,15736,1,0,0:0:0:0:
368,92,15830,5,0,0:0:0:0:
372,93,15923,1,0,0:0:0:0:
375,92,16017,1,0,0:0:0:0:
377,88,16111,1,0,0:0:0:0:
375,85,16205,1,0,0:0:0:0:
372,83,16298,1,0,0:0:0:0:
368,85,16392,1,0,0:0:0:0:
367,88,16486,1,0,0:0:0:0:
444,144,16580,6,0,L|476:148,3,29.9999990844727
392,224,16955,2,0,L|360:228,3,29.9999990844727
440,304,17330,5,0,0:0:0:0:
474,319,17423,1,0,0:0:0:0:
459,353,17517,1,0,0:0:0:0:
424,338,17611,1,0,0:0:0:0:
456,311,17705,5,0,0:0:0:0:
466,336,17798,1,0,0:0:0:0:
441,345,17892,1,0,0:0:0:0:
432,320,17986,1,0,0:0:0:0:
461,323,18080,5,0,0:0:0:0:
453,340,18173,1,0,0:0:0:0:
437,333,18267,1,0,0:0:0:0:
444,316,18361,1,0,0:0:0:0:
457,332,18455,5,0,0:0:0:0:
445,336,18548,1,0,0:0:0:0:
440,324,18642,1,0,0:0:0:0:
453,320,18736,1,0,0:0:0:0:
404,348,18830,6,0,L|396:388,3,29.9999990844727
296,224,19205,2,0,L|288:184,3,29.9999990844727
208,276,19580,5,0,0:0:0:0:
196,280,19673,1,0,0:0:0:0:
191,268,19767,1,0,0:0:0:0:
204,264,19861,1,0,0:0:0:0:
200,320,19955,5,0,0:0:0:0:
184,324,20048,1,0,0:0:0:0:
168,328,20142,1,0,0:0:0:0:
152,332,20236,1,0,0:0:0:0:
72,324,20330,5,0,0:0:0:0:
84,296,20423,1,0,0:0:0:0:
88,268,20517,1,0,0:0:0:0:
84,240,20611,1,0,0:0:0:0:
32,168,20705,5,0,0:0:0:0:
24,132,20798,1,0,0:0:0:0:
28,92,20892,1,0,0:0:0:0:
44,56,20986,1,0,0:0:0:0:
80,24,21080,6,0,L|136:16,1,29.9999990844727
212,150,21267,2,0,L|182:145,1,29.9999990844727
320,16,21455,2,0,L|349:11,1,29.9999990844727
240,155,21642,1,0,0:0:0:0:
212,150,21736,2,0,L|182:145,1,29.9999990844727
292,21,21923,1,0,0:0:0:0:
320,16,22017,2,0,L|350:11,1,29.9999990844727
459,86,22205,6,0,B|415:204|505:133|460:323,1,173.333325398763
470,305,22580,5,0,0:0:0:0:
394,325,22705,1,0,0:0:0:0:
318,345,22830,1,0,0:0:0:0:
146,281,22955,5,0,0:0:0:0:
222,301,23080,1,0,0:0:0:0:
298,321,23205,1,0,0:0:0:0:
216,139,23330,5,0,0:0:0:0:
231,266,23455,1,0,0:0:0:0:
307,167,23580,1,0,0:0:0:0:
383,226,23705,5,0,0:0:0:0:
368,99,23830,1,0,0:0:0:0:
289,195,23955,1,0,0:0:0:0:
179,55,24080,6,0,L|150:44,1,29.9999990844727
123,133,24205,2,0,L|93:132,1,29.9999990844727
90,217,24330,2,0,L|61:227,1,29.9999990844727
208,303,24455,6,0,L|179:292,1,29.9999990844727
318,186,24580,2,0,L|289:196,1,29.9999990844727
411,311,24705,2,0,L|382:300,1,29.9999990844727
90,217,24830,5,0,0:0:0:0:
219,34,25205,6,0,P|246:84|216:159,1,112.500004291535,4|0,0:0|0:0,0:0:0:0:
198,159,25580,6,0,L|207:269,1,110.000003356934,2|0,0:0|0:0,0:0:0:0:
335,227,25955,2,0,L|328:351,1,110.000003356934,2|0,0:0|0:0,0:0:0:0:
317,125,26330,1,2,0:0:0:0:
293,108,26423,1,0,0:0:0:0:
263,106,26517,1,0,0:0:0:0:
116,197,26705,1,2,0:0:0:0:
87,198,26798,1,0,0:0:0:0:
59,179,26892,1,0,0:0:0:0:
136,80,27080,6,0,L|147:211,1,110.000003356934,2|0,0:0|0:0,0:0:0:0:
266,188,27455,2,0,L|257:304,1,110.000003356934,2|0,0:0|0:0,0:0:0:0:
219,101,27830,1,2,0:0:0:0:
246,91,27923,1,0,0:0:0:0:
274,92,28017,1,0,0:0:0:0:
372,222,28205,1,2,0:0:0:0:
401,228,28298,1,0,0:0:0:0:
431,224,28392,1,0,0:0:0:0:
476,76,28580,5,2,0:0:0:0:
359,21,28767,1,0,0:0:0:0:
369,149,28955,1,2,0:0:0:0:
252,94,29142,1,0,0:0:0:0:
308,236,29330,1,2,0:0:0:0:
337,252,29423,1,0,0:0:0:0:
369,251,29517,1,0,0:0:0:0:
209,295,29705,1,2,0:0:0:0:
178,303,29798,1,0,0:0:0:0:
151,325,29892,1,0,0:0:0:0:
244,203,30080,6,0,L|252:87,1,110.000003356934
136,131,30455,2,0,L|131:20,1,110.000003356934
59,230,30830,1,0,0:0:0:0:
86,243,30923,1,0,0:0:0:0:
117,243,31017,1,0,0:0:0:0:
331,257,31205,5,4,0:0:0:0:
144,139,31392,1,4,0:0:0:0:
188,149,31486,1,0,0:0:0:0:
224,142,31580,6,0,B|254:128|266:103|266:103|341:171|418:117,1,225.000008583069
188,68,31955,2,0,P|167:54|105:45,1,75.0000028610231
52,74,32142,5,0,0:0:0:0:
17,100,32236,1,0,0:0:0:0:
8,143,32330,2,0,P|1:183|12:232,1,75.0000028610231
166,173,32517,2,0,P|121:150|84:150,1,75.0000028610231
232,267,32705,2,0,P|287:241|306:219,1,75.0000028610231
117,281,32892,2,0,P|123:327|146:363,1,75.0000028610231
26,224,33080,5,0,0:0:0:0:
8,186,33173,1,0,0:0:0:0:
8,143,33267,1,0,0:0:0:0:
29,115,33361,1,0,0:0:0:0:
64,96,33455,1,0,0:0:0:0:
266,63,33642,1,0,0:0:0:0:
195,220,33830,2,0,B|160:228|129:212|129:212|107:226|107:226|66:213|4:229,1,150.000005722046
26,224,34111,1,0,0:0:0:0:
327,158,34205,6,0,P|348:193|348:236,1,75.0000028610231
175,143,34392,2,0,P|162:108|168:68,1,75.0000028610231
438,82,34580,6,0,B|428:145|428:145|450:193|450:193|421:248|449:311,1,225.000008583069
350,226,34955,1,0,0:0:0:0:
315,212,35048,1,0,0:0:0:0:
274,213,35142,1,0,0:0:0:0:
240,240,35236,1,0,0:0:0:0:
230,282,35330,1,0,0:0:0:0:
417,308,35517,1,0,0:0:0:0:
359,142,35705,1,0,0:0:0:0:
323,327,35892,1,0,0:0:0:0:
210,115,36080,6,0,B|199:64|199:64|186:99,1,75.0000028610231
166,189,36267,2,0,B|155:240|155:240|147:218,1,75.0000028610231
164,77,36455,2,0,B|153:26|153:26|140:61,1,75.0000028610231
132,167,36642,2,0,B|121:218|121:218|113:196,1,75.0000028610231
52,22,36830,5,0,0:0:0:0:
52,22,37205,5,0,0:0:0:0:
52,22,37580,5,0,0:0:0:0:
104,20,37673,1,0,0:0:0:0:
152,40,37767,1,0,0:0:0:0:
184,80,37861,1,0,0:0:0:0:
192,132,37955,2,0,P|192:156|184:184,1,50
88,384,38142,5,0,0:0:0:0:
60,339,38235,1,0,0:0:0:0:
53,288,38329,1,0,0:0:0:0:
72,240,38423,1,0,0:0:0:0:
113,207,38517,2,0,P|133:195|162:187,1,50
356,224,38705,5,0,0:0:0:0:
379,184,38799,1,0,0:0:0:0:
349,150,38893,1,0,0:0:0:0:
308,168,38987,1,0,0:0:0:0:
312,213,39080,1,0,0:0:0:0:
360,240,39173,5,0,0:0:0:0:
398,182,39267,1,0,0:0:0:0:
353,131,39361,1,0,0:0:0:0:
292,156,39455,2,0,P|284:188|288:236,1,50
384,360,39642,1,0,0:0:0:0:
340,332,39736,1,0,0:0:0:0:
292,324,39830,6,0,P|252:328|216:340,1,50
64,380,40017,1,0,0:0:0:0:
72,332,40111,1,0,0:0:0:0:
80,284,40205,1,0,0:0:0:0:
88,236,40298,1,0,0:0:0:0:
96,188,40392,2,0,L|104:116,1,50
192,64,40580,6,0,B|196:88|196:88|188:108,1,37.5
96,188,40955,6,0,L|104:116,1,50
156,32,41142,1,0,0:0:0:0:
192,64,41236,1,0,0:0:0:0:
240,80,41330,1,0,0:0:0:0:
288,72,41423,1,0,0:0:0:0:
336,52,41517,6,0,P|348:24|348:0,1,50
424,108,41705,1,0,0:0:0:0:
474,140,41798,1,0,0:0:0:0:
428,170,41892,1,0,0:0:0:0:
465,203,41986,1,0,0:0:0:0:
436,230,42080,1,0,0:0:0:0:
459,248,42173,1,0,0:0:0:0:
447,264,42267,1,0,0:0:0:0:
451,272,42361,1,0,0:0:0:0:
451,288,42455,6,0,B|306:288|306:288|383:263,1,225.000008583069
480,304,42830,2,0,B|440:316|400:304|400:304|348:352|348:352|304:304|304:304|256:316|220:304,1,300.000011444092
264,168,43392,1,0,0:0:0:0:
264,168,43486,1,0,0:0:0:0:
264,168,43580,5,0,0:0:0:0:
224,140,43673,1,0,0:0:0:0:
176,128,43767,1,0,0:0:0:0:
128,136,43861,1,0,0:0:0:0:
88,164,43955,2,0,P|64:188|52:216,1,50
268,288,44142,5,0,0:0:0:0:
312,267,44235,1,0,0:0:0:0:
346,231,44329,1,0,0:0:0:0:
363,186,44423,1,0,0:0:0:0:
359,137,44517,2,0,P|350:104|331:79,1,50
104,40,44705,5,0,0:0:0:0:
184,24,44798,1,0,0:0:0:0:
96,56,44892,5,0,0:0:0:0:
176,40,44985,1,0,0:0:0:0:
268,20,45080,2,0,P|272:48|268:100,1,50
197,244,45267,1,0,0:0:0:0:
245,224,45361,1,0,0:0:0:0:
297,224,45455,2,0,P|325:224|357:236,1,50
500,296,45642,2,0,P|472:296|440:308,1,50
280,368,45830,6,0,P|240:376|196:368,1,75.0000028610231
256,144,46017,2,0,P|296:136|340:144,1,75.0000028610231
152,308,46205,2,0,P|112:316|68:308,1,75.0000028610231
128,84,46392,2,0,P|168:76|212:84,1,75.0000028610231
160,200,46580,5,0,0:0:0:0:
368,200,46767,1,0,0:0:0:0:
128,200,46955,1,0,0:0:0:0:
288,116,47142,1,0,0:0:0:0:
288,116,47236,1,0,0:0:0:0:
288,116,47330,5,0,0:0:0:0:
56,128,47517,1,0,0:0:0:0:
320,0,47705,1,0,0:0:0:0:
256,240,47892,1,0,0:0:0:0:
256,240,47986,1,0,0:0:0:0:
256,240,48080,6,0,P|252:316|300:400,1,150
240,216,48455,2,0,P|176:174|79:174,1,150
268,214,48830,2,0,P|335:179|384:95,1,150
251,52,49205,1,0,0:0:0:0:
242,66,49298,1,0,0:0:0:0:
236,81,49392,1,0,0:0:0:0:
234,98,49486,1,0,0:0:0:0:
235,140,49580,6,0,P|280:152|343:122,1,100
161,93,49955,2,0,P|147:145|161:196,1,100
169,217,50236,1,0,0:0:0:0:
198,237,50330,2,0,B|265:256|265:256|380:236,2,150
58,187,51080,6,0,L|76:295,1,100
107,310,51361,1,0,0:0:0:0:
142,320,51455,2,0,P|191:320|242:288,1,100
258,108,51830,1,0,0:0:0:0:
353,273,52017,1,0,0:0:0:0:
363,251,52111,1,0,0:0:0:0:
369,225,52205,1,0,0:0:0:0:
372,195,52298,2,0,P|370:167|364:144,2,50
474,253,52580,6,0,L|488:147,1,100
382,95,52955,2,0,L|371:201,1,100
290,325,53330,2,0,B|212:339|212:339|118:311,2,150
142,203,54080,5,0,0:0:0:0:
224,95,54267,1,0,0:0:0:0:
250,84,54361,1,0,0:0:0:0:
274,82,54455,1,0,0:0:0:0:
411,63,54642,1,0,0:0:0:0:
307,197,54830,2,0,L|300:310,1,100
281,326,55111,1,0,0:0:0:0:
252,343,55205,1,0,0:0:0:0:
218,348,55298,1,0,0:0:0:0:
191,336,55392,1,0,0:0:0:0:
167,317,55486,1,0,0:0:0:0:
147,288,55580,6,0,P|133:233|139:188,1,100
298,99,55955,2,0,P|312:154|306:199,1,100
289,220,56236,1,0,0:0:0:0:
271,247,56330,2,0,B|196:259|196:259|104:233,2,150
441,139,57080,6,0,P|385:127|331:143,1,100
319,162,57361,1,0,0:0:0:0:
308,188,57455,1,0,0:0:0:0:
405,290,57642,1,0,0:0:0:0:
441,139,57830,1,0,0:0:0:0:
247,98,58017,1,0,0:0:0:0:
222,119,58111,1,0,0:0:0:0:
213,150,58205,1,0,0:0:0:0:
216,294,58392,1,0,0:0:0:0:
56,185,58580,6,0,L|48:83,1,100
49,64,58861,1,0,0:0:0:0:
50,46,58955,1,0,0:0:0:0:
145,32,59142,1,0,0:0:0:0:
147,260,59330,2,0,L|139:158,1,100
140,139,59611,1,0,0:0:0:0:
141,121,59705,1,0,0:0:0:0:
236,107,59892,1,0,0:0:0:0:
57,218,60080,5,0,0:0:0:0:
304,214,60267,1,0,0:0:0:0:
279,244,60361,1,0,0:0:0:0:
276,286,60455,1,0,0:0:0:0:
236,107,60642,1,0,0:0:0:0:
379,284,60830,6,0,P|386:313|383:344,12,50
250,86,62330,5,0,0:0:0:0:
258,249,62517,1,0,0:0:0:0:
257,221,62611,1,0,0:0:0:0:
255,192,62705,1,0,0:0:0:0:
160,344,63080,5,0,0:0:0:0:
124,312,63267,1,0,0:0:0:0:
92,240,63455,1,0,0:0:0:0:
104,140,63642,1,0,0:0:0:0:
196,64,63830,1,0,0:0:0:0:
196,64,63923,1,0,0:0:0:0:
196,64,64017,1,0,0:0:0:0:
104,140,64205,1,0,0:0:0:0:
104,140,64298,1,0,0:0:0:0:
108,144,64392,1,0,0:0:0:0:
280,260,64580,5,0,0:0:0:0:
196,156,64767,1,0,0:0:0:0:
280,260,64955,1,0,0:0:0:0:
196,156,65142,1,0,0:0:0:0:
196,156,65236,1,0,0:0:0:0:
196,156,65330,5,0,0:0:0:0:
232,144,65423,1,0,0:0:0:0:
268,160,65517,1,0,0:0:0:0:
308,148,65611,1,0,0:0:0:0:
340,172,65705,2,0,P|366:172|396:160,3,50
504,216,66080,5,0,0:0:0:0:
488,264,66267,1,0,0:0:0:0:
428,320,66455,1,0,0:0:0:0:
332,344,66642,1,0,0:0:0:0:
216,316,66830,1,0,0:0:0:0:
216,316,66923,1,0,0:0:0:0:
216,316,67017,1,0,0:0:0:0:
332,344,67205,1,0,0:0:0:0:
332,344,67298,1,0,0:0:0:0:
332,344,67392,1,0,0:0:0:0:
320,120,67580,5,0,0:0:0:0:
284,248,67767,1,0,0:0:0:0:
328,100,67955,1,0,0:0:0:0:
284,272,68142,1,0,0:0:0:0:
284,272,68236,1,0,0:0:0:0:
284,272,68330,5,0,0:0:0:0:
268,236,68423,1,0,0:0:0:0:
228,232,68517,1,0,0:0:0:0:
204,200,68611,1,0,0:0:0:0:
164,236,68705,2,0,P|132:256|108:260,3,50
92,352,69080,5,0,0:0:0:0:
52,320,69267,1,0,0:0:0:0:
12,252,69455,1,0,0:0:0:0:
32,156,69642,1,0,0:0:0:0:
132,88,69830,1,0,0:0:0:0:
132,88,69923,1,0,0:0:0:0:
132,88,70017,1,0,0:0:0:0:
32,156,70205,1,0,0:0:0:0:
32,156,70298,1,0,0:0:0:0:
32,156,70392,1,0,0:0:0:0:
192,272,70580,5,0,0:0:0:0:
136,188,70767,1,0,0:0:0:0:
204,116,70955,1,0,0:0:0:0:
296,156,71142,1,0,0:0:0:0:
296,156,71236,1,0,0:0:0:0:
296,156,71330,1,0,0:0:0:0:
324,136,71423,1,0,0:0:0:0:
356,152,71517,1,0,0:0:0:0:
360,188,71611,1,0,0:0:0:0:
332,208,71705,6,0,P|304:204|280:184,3,50
456,168,72080,5,0,0:0:0:0:
480,212,72267,1,0,0:0:0:0:
412,256,72455,1,0,0:0:0:0:
424,356,72642,1,0,0:0:0:0:
320,300,72830,1,0,0:0:0:0:
320,300,72923,1,0,0:0:0:0:
320,300,73017,1,0,0:0:0:0:
424,356,73205,1,0,0:0:0:0:
424,356,73298,1,0,0:0:0:0:
424,356,73392,1,0,0:0:0:0:
228,352,73580,5,0,0:0:0:0:
220,352,73673,1,0,0:0:0:0:
208,352,73767,1,0,0:0:0:0:
196,352,73861,1,0,0:0:0:0:
184,352,73955,1,0,0:0:0:0:
176,352,74048,1,0,0:0:0:0:
164,352,74142,1,0,0:0:0:0:
152,352,74236,1,0,0:0:0:0:
140,352,74330,1,0,0:0:0:0:
132,352,74423,1,0,0:0:0:0:
120,352,74517,1,0,0:0:0:0:
108,352,74611,1,0,0:0:0:0:
100,352,74705,1,0,0:0:0:0:
92,352,74798,1,0,0:0:0:0:
84,352,74892,1,0,0:0:0:0:
76,352,74986,1,0,0:0:0:0:
44,352,75080,5,0,0:0:0:0:
24,316,75173,1,0,0:0:0:0:
28,276,75267,1,0,0:0:0:0:
52,252,75361,1,0,0:0:0:0:
84,240,75455,5,0,0:0:0:0:
108,232,75548,1,0,0:0:0:0:
124,216,75642,1,0,0:0:0:0:
128,192,75736,1,0,0:0:0:0:
120,168,75830,1,0,0:0:0:0:
104,152,75923,6,0,L|56:140,2,50
212,152,76205,1,0,0:0:0:0:
244,144,76298,1,0,0:0:0:0:
264,124,76392,2,0,P|272:104|272:76,1,50
356,44,76580,5,0,0:0:0:0:
388,32,76673,1,0,0:0:0:0:
420,36,76767,1,0,0:0:0:0:
444,60,76861,1,0,0:0:0:0:
440,96,76955,5,0,0:0:0:0:
436,120,77048,1,0,0:0:0:0:
428,140,77142,1,0,0:0:0:0:
420,160,77236,1,0,0:0:0:0:
412,180,77330,6,0,P|392:232|408:292,1,100
416,312,77611,2,0,P|364:296|284:324,1,100
152,288,77892,1,0,0:0:0:0:
164,284,77986,1,0,0:0:0:0:
196,264,78080,5,0,0:0:0:0:
172,248,78173,1,0,0:0:0:0:
144,256,78267,1,0,0:0:0:0:
136,288,78361,1,0,0:0:0:0:
156,312,78455,5,0,0:0:0:0:
192,300,78548,1,0,0:0:0:0:
220,268,78642,1,0,0:0:0:0:
220,232,78736,1,0,0:0:0:0:
196,200,78830,5,0,0:0:0:0:
156,192,78923,1,0,0:0:0:0:
120,208,79017,1,0,0:0:0:0:
100,240,79111,1,0,0:0:0:0:
100,276,79205,1,0,0:0:0:0:
132,312,79298,1,0,0:0:0:0:
176,312,79392,6,0,P|208:300|248:304,3,50
136,228,79767,2,0,P|104:220|72:224,3,50
244,200,80142,2,0,P|280:180|296:156,3,50
212,196,80517,1,0,0:0:0:0:
248,76,80705,5,0,0:0:0:0:
268,68,80798,1,0,0:0:0:0:
288,60,80892,1,0,0:0:0:0:
304,68,80986,1,0,0:0:0:0:
320,80,81080,6,0,P|344:84|376:80,3,50
280,144,81455,5,0,0:0:0:0:
260,156,81548,1,0,0:0:0:0:
248,176,81642,1,0,0:0:0:0:
248,200,81736,1,0,0:0:0:0:
268,228,81830,5,0,0:0:0:0:
236,220,81923,1,0,0:0:0:0:
208,236,82017,1,0,0:0:0:0:
192,264,82111,1,0,0:0:0:0:
192,296,82205,5,0,0:0:0:0:
152,272,82298,1,0,0:0:0:0:
112,280,82392,1,0,0:0:0:0:
92,324,82486,1,0,0:0:0:0:
108,360,82580,5,0,0:0:0:0:
272,304,82767,1,0,0:0:0:0:
64,152,82955,1,0,0:0:0:0:
248,76,83236,5,0,0:0:0:0:
252,108,83330,1,0,0:0:0:0:
256,140,83423,1,0,0:0:0:0:
264,232,83517,1,0,0:0:0:0:
268,268,83611,1,0,0:0:0:0:
272,304,83705,1,0,0:0:0:0:
96,224,83892,1,0,0:0:0:0:
92,208,83986,1,0,0:0:0:0:
88,192,84080,6,0,P|96:136|180:100,1,150
196,112,84455,5,0,0:0:0:0:
224,124,84548,1,0,0:0:0:0:
256,128,84642,1,0,0:0:0:0:
284,120,84736,1,0,0:0:0:0:
300,100,84830,5,0,0:0:0:0:
304,80,84923,1,0,0:0:0:0:
296,64,85017,1,0,0:0:0:0:
280,56,85111,1,0,0:0:0:0:
268,60,85205,5,0,0:0:0:0:
264,72,85298,1,0,0:0:0:0:
272,84,85392,1,0,0:0:0:0:
287,80,85486,1,0,0:0:0:0:
324,56,85580,5,0,0:0:0:0:
328,80,85673,1,0,0:0:0:0:
332,104,85767,1,0,0:0:0:0:
336,124,85861,1,0,0:0:0:0:
308,160,85955,5,0,0:0:0:0:
312,184,86048,1,0,0:0:0:0:
316,208,86142,1,0,0:0:0:0:
320,232,86236,1,0,0:0:0:0:
316,312,86330,5,0,0:0:0:0:
76,236,86705,6,0,P|108:236|144:224,1,50,4|0,0:0|0:0,0:0:0:0:
93,40,87080,6,0,L|99:169,1,100
199,280,87455,1,0,0:0:0:0:
292,205,87642,1,0,0:0:0:0:
191,58,87830,1,0,0:0:0:0:
192,80,87923,1,0,0:0:0:0:
193,106,88017,1,0,0:0:0:0:
95,187,88205,1,0,0:0:0:0:
96,165,88298,1,0,0:0:0:0:
97,139,88392,1,0,0:0:0:0:
292,205,88580,6,0,L|411:215,1,100
490,86,88955,2,0,L|364:92,1,100
457,263,89330,1,0,0:0:0:0:
465,283,89423,1,0,0:0:0:0:
469,307,89517,1,0,0:0:0:0:
470,330,89611,1,0,0:0:0:0:
399,375,89705,5,0,0:0:0:0:
366,353,89798,1,0,0:0:0:0:
326,350,89892,2,0,P|301:348|269:356,1,50
146,366,90080,6,0,P|175:320|179:272,1,100
114,136,90455,1,0,0:0:0:0:
79,284,90642,1,0,0:0:0:0:
249,202,90830,1,0,0:0:0:0:
250,180,90923,1,0,0:0:0:0:
251,154,91017,1,0,0:0:0:0:
112,88,91205,1,0,0:0:0:0:
113,110,91298,1,0,0:0:0:0:
114,136,91392,1,0,0:0:0:0:
249,202,91580,6,0,P|301:212|366:200,1,100
445,66,91955,2,0,P|393:56|328:68,1,100
177,111,92330,1,0,0:0:0:0:
155,107,92423,1,0,0:0:0:0:
132,99,92517,1,0,0:0:0:0:
112,88,92611,1,0,0:0:0:0:
27,53,92705,5,0,0:0:0:0:
39,92,92798,1,0,0:0:0:0:
41,122,92892,2,0,L|9:122,1,25
34,158,92986,2,0,L|4:158,1,25
36,191,93080,6,0,P|32:251|55:313,1,100
124,349,93455,1,0,0:0:0:0:
305,276,93642,1,0,0:0:0:0:
159,165,93830,5,0,0:0:0:0:
126,237,94017,1,0,0:0:0:0:
199,270,94205,1,0,0:0:0:0:
232,197,94392,1,0,0:0:0:0:
323,65,94579,5,0,0:0:0:0:
329,93,94673,1,0,0:0:0:0:
335,121,94767,1,0,0:0:0:0:
355,236,94954,1,0,0:0:0:0:
472,213,95143,1,0,0:0:0:0:
450,95,95330,1,0,0:0:0:0:
440,74,95423,1,0,0:0:0:0:
425,56,95517,1,0,0:0:0:0:
405,44,95611,1,0,0:0:0:0:
323,65,95705,5,0,0:0:0:0:
290,80,95798,1,0,0:0:0:0:
249,86,95892,1,0,0:0:0:0:
209,74,95986,1,0,0:0:0:0:
176,59,96080,6,0,L|131:28,3,50
64,99,96455,1,0,0:0:0:0:
64,123,96548,1,0,0:0:0:0:
64,145,96642,1,0,0:0:0:0:
64,168,96736,1,0,0:0:0:0:
64,192,96830,6,0,L|64:245,2,50
177,325,97205,1,0,0:0:0:0:
177,325,97580,6,0,P|218:333|257:323,1,69.9999978637696
316,173,97767,2,0,P|275:165|236:175,1,69.9999978637696
108,322,97955,2,0,P|149:330|188:320,1,69.9999978637696
247,170,98142,2,0,P|206:162|167:172,1,69.9999978637696
364,326,98330,5,0,0:0:0:0:
400,152,99080,5,0,0:0:0:0:
372,136,99173,1,0,0:0:0:0:
344,136,99267,1,0,0:0:0:0:
316,148,99361,2,0,P|284:152|264:148,1,50
192,72,99548,2,0,P|164:64|136:64,1,50
64,160,99736,5,0,0:0:0:0:
48,192,99830,1,0,0:0:0:0:
56,228,99923,1,0,0:0:0:0:
76,256,100017,1,0,0:0:0:0:
108,268,100111,1,0,0:0:0:0:
144,264,100205,2,0,P|176:252|192:236,1,50
256,164,100392,2,0,P|272:132|276:96,1,50
336,256,100580,6,0,P|336:284|352:324,1,50
460,280,100767,1,0,0:0:0:0:
472,252,100861,1,0,0:0:0:0:
472,220,100955,2,0,P|476:196|464:156,1,50
368,80,101142,1,0,0:0:0:0:
332,92,101236,1,0,0:0:0:0:
312,120,101330,6,0,P|308:152|320:180,1,50
224,64,101517,1,0,0:0:0:0:
192,52,101611,1,0,0:0:0:0:
160,56,101705,2,0,P|124:60|88:76,1,50
228,236,101892,2,0,P|244:208|248:176,1,50
196,328,102080,6,0,B|192:272|228:236|228:236|196:232|160:260,1,150
284,304,102455,6,0,P|307:310|336:308,1,50
412,256,102642,1,0,0:0:0:0:
420,240,102736,1,0,0:0:0:0:
424,224,102830,1,0,0:0:0:0:
424,208,102923,1,0,0:0:0:0:
420,192,103017,1,0,0:0:0:0:
416,176,103111,1,0,0:0:0:0:
396,140,103205,5,0,0:0:0:0:
356,136,103298,1,0,0:0:0:0:
324,164,103392,1,0,0:0:0:0:
328,212,103486,1,0,0:0:0:0:
376,232,103580,2,0,P|432:240|480:192,1,100
464,100,103861,1,0,0:0:0:0:
452,84,103955,2,0,P|400:60|340:80,1,100
448,280,104330,6,0,P|460:228|332:160,1,200
276,336,104892,1,0,0:0:0:0:
292,328,104986,1,0,0:0:0:0:
304,320,105080,5,0,0:0:0:0:
320,296,105173,1,0,0:0:0:0:
316,264,105267,1,0,0:0:0:0:
296,240,105361,1,0,0:0:0:0:
264,232,105455,1,0,0:0:0:0:
168,80,105642,5,0,0:0:0:0:
136,100,105736,1,0,0:0:0:0:
128,140,105830,1,0,0:0:0:0:
136,180,105923,1,0,0:0:0:0:
168,204,106017,1,0,0:0:0:0:
316,36,106205,6,0,P|304:64|300:84,1,50
400,168,106392,2,0,P|404:140|396:104,1,50
260,228,106580,2,0,L|324:236,1,50
336,256,106767,1,0,0:0:0:0:
376,260,106861,1,0,0:0:0:0:
408,236,106955,1,0,0:0:0:0:
416,200,107048,1,0,0:0:0:0:
400,168,107142,1,0,0:0:0:0:
280,352,107330,6,0,L|272:288,1,50
116,248,107517,2,0,L|128:184,1,50
304,180,107705,2,0,L|280:124,1,50
112,72,107892,2,0,L|152:40,1,50
144,152,108080,6,0,P|88:160|40:112,1,100
151,40,108455,1,0,0:0:0:0:
241,113,108642,1,0,0:0:0:0:
241,137,108736,1,0,0:0:0:0:
237,157,108830,2,0,P|181:169|137:145,1,100
336,80,109205,1,0,0:0:0:0:
336,216,109392,1,0,0:0:0:0:
312,232,109486,1,0,0:0:0:0:
281,239,109580,6,0,P|245:203|237:151,1,100
364,288,109955,2,0,P|376:344|360:388,1,100
320,168,110330,2,0,P|384:144|464:184,1,150
468,204,110705,1,0,0:0:0:0:
452,300,110892,1,0,0:0:0:0:
312,352,111080,6,0,B|208:312|208:312|152:328,1,165.000005035401
109,384,111455,2,0,P|122:318|110:271,1,110.000003356934
72,208,111736,1,0,0:0:0:0:
61,189,111830,2,0,P|38:110|61:31,2,165.000005035401
188,230,112580,1,0,0:0:0:0:
149,67,112767,5,0,0:0:0:0:
145,89,112861,1,0,0:0:0:0:
141,110,112955,1,0,0:0:0:0:
254,16,113142,1,0,0:0:0:0:
299,206,113330,1,0,0:0:0:0:
367,137,113517,1,0,0:0:0:0:
371,115,113611,1,0,0:0:0:0:
375,94,113705,1,0,0:0:0:0:
465,28,113892,1,0,0:0:0:0:
477,180,114080,6,0,L|487:349,1,165.000005035401
461,376,114455,2,0,P|404:356|349:365,1,110.000003356934
277,319,114736,1,0,0:0:0:0:
255,334,114830,2,0,P|176:357|97:334,2,165.000005035401
183,177,115580,5,0,0:0:0:0:
173,194,115673,1,0,0:0:0:0:
168,214,115767,1,0,0:0:0:0:
170,235,115861,1,0,0:0:0:0:
177,254,115955,1,0,0:0:0:0:
279,213,116142,1,0,0:0:0:0:
60,214,116330,1,0,0:0:0:0:
122,53,116518,5,0,0:0:0:0:
126,74,116611,1,0,0:0:0:0:
123,95,116705,1,0,0:0:0:0:
60,214,116892,1,0,0:0:0:0:
219,75,117080,6,0,P|307:63|379:101,1,165.000005035401
402,129,117455,2,0,P|388:182|405:237,1,110.000003356934
457,319,117736,1,0,0:0:0:0:
464,340,117830,2,0,B|380:366|380:366|305:340,2,165.000005035401
491,257,118486,1,0,0:0:0:0:
499,230,118580,5,0,0:0:0:0:
395,87,118767,1,0,0:0:0:0:
399,108,118861,1,0,0:0:0:0:
402,129,118955,1,0,0:0:0:0:
320,268,119142,1,0,0:0:0:0:
323,245,119236,2,0,L|333:181,1,55.0000016784668
196,311,119517,1,0,0:0:0:0:
189,290,119611,1,0,0:0:0:0:
192,268,119705,1,0,0:0:0:0:
305,360,119892,1,0,0:0:0:0:
111,351,120080,6,0,P|97:286|105:236,1,110.000003356934
153,167,120361,1,0,0:0:0:0:
161,146,120455,2,0,P|175:81|167:31,1,110.000003356934
56,169,120830,1,0,0:0:0:0:
196,311,121017,1,0,0:0:0:0:
189,290,121111,1,0,0:0:0:0:
192,268,121205,1,0,0:0:0:0:
259,163,121392,1,0,0:0:0:0:
325,318,121580,6,0,L|329:260,1,55.0000016784668
344,118,121767,1,0,0:0:0:0:
408,328,121955,1,0,0:0:0:0:
259,163,122142,1,0,0:0:0:0:
455,202,122330,6,0,P|471:181|488:137,3,55.0000016784668
483,127,122705,1,0,0:0:0:0:
484,99,122798,1,0,0:0:0:0:
478,71,122892,1,0,0:0:0:0:
466,45,122986,1,0,0:0:0:0:
424,36,123080,6,0,P|364:20|284:48,1,110.000003356934
324,228,123455,2,0,P|360:176|356:128,1,110.000003356934
340,112,123736,1,0,0:0:0:0:
308,104,123830,2,0,B|224:88|224:88|140:112,2,165.000005035401
480,192,124580,5,0,0:0:0:0:
312,248,124767,1,0,0:0:0:0:
292,252,124861,1,0,0:0:0:0:
268,252,124955,1,0,0:0:0:0:
280,136,125142,1,0,0:0:0:0:
372,332,125330,1,0,0:0:0:0:
184,300,125517,1,0,0:0:0:0:
172,264,125611,1,0,0:0:0:0:
172,228,125705,1,0,0:0:0:0:
389,145,126080,6,0,L|267:134,1,110.000003356934
208,80,126455,2,0,P|188:140|212:204,1,110.000003356934
220,212,126736,1,0,0:0:0:0:
252,232,126830,2,0,B|328:252|328:252|456:228,2,165.000005035401
132,156,127580,5,0,0:0:0:0:
92,156,127673,1,0,0:0:0:0:
60,176,127767,1,0,0:0:0:0:
52,208,127861,1,0,0:0:0:0:
60,240,127955,1,0,0:0:0:0:
144,304,128142,1,0,0:0:0:0:
252,232,128330,2,0,P|264:172|244:120,1,110.000003356934
224,104,128611,1,0,0:0:0:0:
196,88,128705,2,0,P|140:72|68:88,1,110.000003356934
144,304,129080,6,0,P|160:248|140:192,1,110.000003356934
20,144,129455,2,0,P|-4:192|0:248,1,110.000003356934
12,276,129736,1,0,0:0:0:0:
40,292,129830,2,0,B|128:308|128:308|220:284,2,165.000005035401
84,176,130580,6,0,P|152:164|192:176,1,110.000003356934
208,192,130861,1,0,0:0:0:0:
220,216,130955,1,0,0:0:0:0:
164,356,131142,1,0,0:0:0:0:
104,272,131330,1,0,0:0:0:0:
244,320,131517,1,0,0:0:0:0:
256,348,131611,1,0,0:0:0:0:
256,376,131705,1,0,0:0:0:0:
80,384,131892,1,0,0:0:0:0:
127,170,132080,6,0,P|100:218|119:298,1,110.000003356934
208,232,132455,1,0,0:0:0:0:
224,144,132642,1,0,0:0:0:0:
0,271,132830,6,0,P|48:287|120:257,1,110.000003356934
127,170,133205,1,0,0:0:0:0:
48,196,133392,1,0,0:0:0:0:
156,344,133580,1,0,0:0:0:0:
180,348,133673,1,0,0:0:0:0:
204,344,133767,1,0,0:0:0:0:
300,264,133955,2,0,P|320:208|300:136,1,110.000003356934
144,120,134330,6,0,P|124:112|88:112,7,55.0000016784668
92,188,135080,2,0,P|64:192|40:208,3,55.0000016784668
32,288,135455,1,0,0:0:0:0:
376,332,135830,6,0,P|372:260|264:228,1,165.000005035401
300,248,136205,2,0,L|304:124,1,110.000003356934
296,116,136486,1,0,0:0:0:0:
284,80,136580,1,0,0:0:0:0:
256,64,136673,1,0,0:0:0:0:
224,60,136767,1,0,0:0:0:0:
196,72,136861,1,0,0:0:0:0:
180,96,136955,5,0,0:0:0:0:
180,96,137330,6,0,L|48:112,1,119.999996337891
0,185,137611,2,0,L|132:201,1,119.999996337891
189,275,137892,2,0,L|122:283,1,59.9999981689454
249,205,138080,6,0,P|281:265|265:321,1,119.999996337891
386,384,138361,2,0,P|354:324|370:268,1,119.999996337891
442,211,138642,2,0,P|447:228|448:243,3,29.9999990844727
436,185,138830,6,0,L|420:53,1,119.999996337891
345,6,139111,2,0,L|329:138,1,119.999996337891
255,195,139392,2,0,L|247:128,1,59.9999981689454
83,22,139580,5,0,0:0:0:0:
69,48,139673,1,0,0:0:0:0:
60,76,139767,1,0,0:0:0:0:
57,105,139861,1,0,0:0:0:0:
62,134,139955,1,0,0:0:0:0:
73,161,140048,1,0,0:0:0:0:
92,184,140142,2,0,L|91:227,3,29.9999990844727
108,164,140330,6,0,P|166:143|218:164,1,119.999996337891
217,246,140611,2,0,P|159:267|107:246,1,119.999996337891
17,217,140892,2,0,P|9:256|15:287,1,59.9999981689454
94,365,141080,6,0,L|109:230,1,119.999996337891
203,126,141361,2,0,L|218:261,1,119.999996337891
290,347,141642,2,0,L|247:348,3,29.9999990844727
311,345,141830,6,0,L|441:341,1,119.999996337891
489,250,142111,2,0,L|359:254,1,119.999996337891
260,347,142392,2,0,P|253:311|263:273,1,59.9999981689454
309,198,142580,5,0,0:0:0:0:
317,163,142673,1,0,0:0:0:0:
349,148,142767,5,0,0:0:0:0:
338,113,142860,1,0,0:0:0:0:
358,84,142955,5,0,0:0:0:0:
331,59,143048,1,0,0:0:0:0:
316,21,143142,6,0,L|273:17,3,29.9999990844727
252,18,143330,6,0,L|116:23,1,119.999996337891
37,105,143611,2,0,L|173:100,1,119.999996337891
255,172,143892,2,0,L|186:174,1,59.9999981689454
44,296,144080,6,0,B|56:235|56:235|41:179,1,119.999996337891
135,261,144361,2,0,B|123:322|123:322|138:378,1,119.999996337891
219,317,144642,2,0,L|259:316,3,29.9999990844727
271,314,144830,6,0,L|392:307,1,119.999996337891
466,227,145111,2,0,L|345:220,1,119.999996337891
276,139,145392,2,0,L|336:135,1,59.9999981689454
474,39,145580,5,0,0:0:0:0:
448,25,145673,1,0,0:0:0:0:
420,16,145767,1,0,0:0:0:0:
391,13,145861,1,0,0:0:0:0:
362,18,145955,1,0,0:0:0:0:
335,29,146048,1,0,0:0:0:0:
312,48,146142,2,0,L|269:47,3,29.9999990844727
248,47,146330,5,0,0:0:0:0:
230,73,146455,1,0,0:0:0:0:
213,100,146580,1,0,0:0:0:0:
80,151,146705,5,0,0:0:0:0:
112,154,146830,1,0,0:0:0:0:
143,155,146955,1,0,0:0:0:0:
255,245,147080,5,0,0:0:0:0:
241,216,147205,1,0,0:0:0:0:
226,188,147330,1,0,0:0:0:0:
24,263,147455,5,0,0:0:0:0:
101,243,147580,1,0,0:0:0:0:
176,269,147705,1,0,0:0:0:0:
265,364,147830,5,0,0:0:0:0:
342,384,147955,1,0,0:0:0:0:
417,358,148080,1,0,0:0:0:0:
504,234,148205,5,0,0:0:0:0:
468,136,148330,1,0,0:0:0:0:
431,38,148455,1,0,0:0:0:0:
361,117,148580,5,0,0:0:0:0:
90,53,148767,1,0,0:0:0:0:
361,117,148955,5,0,0:0:0:0:
90,53,149142,1,0,0:0:0:0:
194,136,149330,6,0,L|198:228,1,89.9999972534181
176,264,149611,1,0,0:0:0:0:
180,300,149705,1,0,0:0:0:0:
322,332,149892,1,0,0:0:0:0:
287,226,150080,2,0,P|209:224|171:290,2,134.999995880127
322,332,150830,6,0,L|324:224,1,89.9999972534181
333,210,151111,1,0,0:0:0:0:
328,180,151205,1,0,0:0:0:0:
184,122,151392,1,0,0:0:0:0:
220,255,151580,2,0,P|286:256|336:199,2,134.999995880127
188,218,152236,6,0,B|201:248|197:267|197:267|204:288|204:288|198:324,1,100
174,339,152705,6,0,L|83:324,1,89.9999972534181
46,337,152986,1,0,0:0:0:0:
21,316,153080,1,0,0:0:0:0:
51,190,153267,2,0,P|73:188|104:201,1,44.999998626709
141,167,153455,1,0,0:0:0:0:
173,185,153548,1,0,0:0:0:0:
187,215,153642,1,0,0:0:0:0:
189,247,153736,1,0,0:0:0:0:
170,278,153830,6,0,L|57:284,1,89.9999972534181
50,298,154111,1,0,0:0:0:0:
25,277,154205,1,0,0:0:0:0:
101,145,154392,1,0,0:0:0:0:
228,217,154673,2,0,P|201:264|143:277,1,89.9999972534181
132,279,154955,1,0,0:0:0:0:
177,90,155142,1,0,0:0:0:0:
320,284,155330,6,0,L|328:177,1,89.9999972534181
344,167,155611,1,0,0:0:0:0:
344,137,155705,1,0,0:0:0:0:
243,36,155892,1,0,0:0:0:0:
124,187,156080,2,0,B|169:195|169:195|212:180|212:180|260:187,2,134.999995880127
234,284,156830,6,0,P|282:295|331:276,1,89.9999972534181
336,255,157111,1,0,0:0:0:0:
343,223,157205,1,0,0:0:0:0:
258,83,157392,1,0,0:0:0:0:
124,187,157580,2,0,B|120:237|120:237|138:275|138:275,1,89.9999972534181
160,311,157861,1,0,0:0:0:0:
200,323,157955,1,0,0:0:0:0:
415,274,158142,1,0,0:0:0:0:
243,137,158330,6,0,B|260:170|264:222|264:222|284:193|306:178,1,134.999995880127
343,160,158705,1,0,0:0:0:0:
303,297,158892,1,0,0:0:0:0:
256,307,158986,1,0,0:0:0:0:
208,295,159080,2,0,B|178:290|145:305|145:305|177:262|170:207,1,134.999995880127
167,203,159455,1,0,0:0:0:0:
260,95,159642,1,0,0:0:0:0:
302,90,159736,1,0,0:0:0:0:
336,115,159830,6,0,P|342:166|335:197,1,44.999998626709
335,192,160017,1,0,0:0:0:0:
259,276,160205,2,0,P|234:287|201:287,1,44.999998626709
178,286,160392,1,0,0:0:0:0:
75,224,160580,2,0,P|62:197|135:136,1,134.999995880127
158,159,160955,2,0,P|193:163|246:136,1,89.9999972534181
379,5,161330,6,0,B|386:116,1,104.999996795654
389,152,161705,2,0,P|327:167|287:216,1,119.999996337891
387,258,161986,1,0,0:0:0:0:
387,258,162080,2,0,L|197:266,2,179.999994506836
389,152,162830,1,0,0:0:0:0:
292,295,163017,5,0,0:0:0:0:
296,317,163111,1,0,0:0:0:0:
300,338,163205,1,0,0:0:0:0:
207,228,163392,1,0,0:0:0:0:
155,355,163580,1,0,0:0:0:0:
90,285,163767,1,0,0:0:0:0:
94,263,163861,1,0,0:0:0:0:
98,242,163955,1,0,0:0:0:0:
50,168,164142,1,0,0:0:0:0:
132,38,164330,6,0,P|217:12|304:39,1,179.999994506836
325,60,164705,2,0,L|335:192,1,119.999996337891
431,262,164986,1,0,0:0:0:0:
431,262,165080,2,0,L|445:70,2,179.999994506836
318,340,165830,5,0,0:0:0:0:
282,335,165923,1,0,0:0:0:0:
246,330,166017,1,0,0:0:0:0:
209,327,166111,1,0,0:0:0:0:
173,322,166205,1,0,0:0:0:0:
22,252,166392,1,0,0:0:0:0:
101,384,166580,1,0,0:0:0:0:
174,179,166768,5,0,0:0:0:0:
175,196,166861,1,0,0:0:0:0:
177,213,166955,1,0,0:0:0:0:
22,252,167142,1,0,0:0:0:0:
87,102,167330,6,0,B|174:78|174:78|260:100,1,179.999994506836
289,117,167705,2,0,P|276:179|298:237,1,119.999996337891
411,230,167986,1,0,0:0:0:0:
411,230,168080,2,0,P|438:171|354:183,2,179.999994506836
353,291,168736,1,0,0:0:0:0:
351,308,168830,5,0,0:0:0:0:
202,363,169017,1,0,0:0:0:0:
198,342,169111,1,0,0:0:0:0:
195,321,169205,1,0,0:0:0:0:
283,175,169392,1,0,0:0:0:0:
283,175,169486,2,0,L|273:239,1,55.0000016784668
144,118,169767,1,0,0:0:0:0:
167,112,169861,1,0,0:0:0:0:
190,107,169955,1,0,0:0:0:0:
271,254,170142,1,0,0:0:0:0:
107,374,170330,6,0,L|86:248,1,119.999996337891
23,180,170611,1,0,0:0:0:0:
23,180,170705,2,0,P|77:153|148:183,1,119.999996337891
186,257,171080,1,0,0:0:0:0:
281,132,171267,1,0,0:0:0:0:
279,156,171361,1,0,0:0:0:0:
279,180,171455,1,0,0:0:0:0:
198,22,171642,1,0,0:0:0:0:
349,46,171830,6,0,L|288:49,1,59.9999981689454
125,59,172017,1,0,0:0:0:0:
279,156,172205,1,0,0:0:0:0:
186,257,172392,1,0,0:0:0:0:
271,314,172580,6,0,L|275:360,15,44.999998626709
275,381,174080,1,0,0:0:0:0:
98,252,174267,5,0,0:0:0:0:
92,295,174361,1,0,0:0:0:0:
87,338,174455,1,0,0:0:0:0:
48,184,174830,6,0,P|105:170|160:192,1,110.000003356934
172,216,175111,1,0,0:0:0:0:
188,248,175205,2,0,L|204:176,1,55.0000016784668
252,112,175392,1,0,0:0:0:0:
302,98,175486,1,0,0:0:0:0:
350,114,175580,5,0,0:0:0:0:
384,241,175767,1,0,0:0:0:0:
300,331,175955,2,0,L|282:211,1,110.000003356934
250,23,176330,5,0,0:0:0:0:
422,163,176517,1,0,0:0:0:0:
437,124,176611,1,0,0:0:0:0:
430,80,176705,1,0,0:0:0:0:
302,98,176892,1,0,0:0:0:0:
396,262,177080,6,0,P|343:235|267:248,1,110.000003356934
262,264,177361,1,0,0:0:0:0:
237,288,177455,2,0,P|176:288|126:255,1,110.000003356934
218,42,177830,6,0,P|207:91|225:153,1,110.000003356934
493,137,178205,2,0,P|444:110|389:113,1,110.000003356934
370,130,178486,1,0,0:0:0:0:
359,155,178580,2,0,L|357:283,1,110.000003356934
228,341,178955,2,0,L|228:221,1,110.000003356934
184,28,179330,5,0,0:0:0:0:
170,69,179423,1,0,0:0:0:0:
192,102,179517,1,0,0:0:0:0:
228,110,179611,1,0,0:0:0:0:
252,96,179705,5,0,0:0:0:0:
297,189,179892,1,0,0:0:0:0:
290,280,180080,6,0,L|255:277,1,27.5000008392334
147,339,180267,2,0,L|119:335,1,27.5000008392334
303,271,180455,2,0,L|274:270,1,27.5000008392334
161,330,180642,2,0,L|114:325,1,27.5000008392334
83,215,180830,5,0,0:0:0:0:
163,162,181017,1,0,0:0:0:0:
117,30,181205,1,0,0:0:0:0:
221,66,181392,1,0,0:0:0:0:
257,76,181486,1,0,0:0:0:0:
291,69,181580,1,0,0:0:0:0:
376,29,181767,1,0,0:0:0:0:
447,131,181955,2,0,L|442:248,1,110.000003356934
354,353,182330,5,0,0:0:0:0:
226,228,182517,1,0,0:0:0:0:
217,256,182611,1,0,0:0:0:0:
227,286,182705,1,0,0:0:0:0:
325,268,182892,1,0,0:0:0:0:
252,143,183080,2,0,L|215:138,1,27.5000008392334
82,107,183267,2,0,L|46:101,1,27.5000008392334
279,147,183455,2,0,L|240:140,1,27.5000008392334
109,111,183642,2,0,L|76:106,1,27.5000008392334
240,57,183830,5,0,0:0:0:0:
149,193,184017,1,0,0:0:0:0:
157,233,184111,1,0,0:0:0:0:
163,274,184205,1,0,0:0:0:0:
75,373,184392,1,0,0:0:0:0:
16,204,184580,5,0,0:0:0:0:
109,111,184767,1,0,0:0:0:0:
162,100,184861,1,0,0:0:0:0:
218,122,184955,1,0,0:0:0:0:
281,230,185142,1,0,0:0:0:0:
419,209,185330,5,0,0:0:0:0:
436,188,185423,1,0,0:0:0:0:
441,167,185517,1,0,0:0:0:0:
435,145,185611,1,0,0:0:0:0:
427,127,185705,2,0,P|372:115|313:125,1,110.000003356934
174,196,186080,2,0,P|151:197|113:182,3,55.0000016784668
246,151,186455,5,0,0:0:0:0:
256,181,186548,1,0,0:0:0:0:
254,214,186642,1,0,0:0:0:0:
239,244,186736,1,0,0:0:0:0:
216,264,186830,5,0,0:0:0:0:
37,126,187017,1,0,0:0:0:0:
244,40,187205,1,0,0:0:0:0:
144,188,187392,1,0,0:0:0:0:
144,188,187486,1,0,0:0:0:0:
144,188,187580,5,0,0:0:0:0:
257,15,187767,1,0,0:0:0:0:
350,199,187955,2,0,P|350:260|326:311,1,110.000003356934
250,158,188330,5,0,0:0:0:0:
441,230,188517,1,0,0:0:0:0:
441,230,188611,1,0,0:0:0:0:
441,230,188705,1,0,0:0:0:0:
283,359,188892,1,0,0:0:0:0:
181,220,189080,6,0,B|164:165|164:165|176:110,1,110.000003356934
335,173,189361,1,0,0:0:0:0:
350,199,189455,2,0,B|367:254|367:254|355:309,1,110.000003356934
79,347,189830,5,0,0:0:0:0:
109,122,190017,1,0,0:0:0:0:
286,259,190205,1,0,0:0:0:0:
113,245,190392,1,0,0:0:0:0:
113,245,190486,1,0,0:0:0:0:
113,245,190580,5,0,0:0:0:0:
322,158,190767,1,0,0:0:0:0:
289,374,190955,2,0,P|227:383|176:369,1,110.000003356934
351,170,191330,5,0,0:0:0:0:
355,202,191423,1,0,0:0:0:0:
359,234,191517,1,0,0:0:0:0:
363,266,191611,1,0,0:0:0:0:
368,298,191705,2,0,B|426:310|426:310|477:286,1,110.000003356934
278,246,192080,1,0,0:0:0:0:
385,182,192267,1,0,0:0:0:0:
218,137,192455,1,0,0:0:0:0:
423,83,192642,1,0,0:0:0:0:
175,29,192830,5,0,0:0:0:0:
98,175,193017,1,0,0:0:0:0:
198,295,193205,1,0,0:0:0:0:
218,160,193392,1,0,0:0:0:0:
218,160,193486,1,0,0:0:0:0:
218,160,193580,5,0,0:0:0:0:
305,299,193767,1,0,0:0:0:0:
458,273,193955,2,0,P|472:214|467:158,1,110.000003356934
349,33,194330,5,0,0:0:0:0:
360,190,194517,1,0,0:0:0:0:
360,190,194611,1,0,0:0:0:0:
360,190,194705,1,0,0:0:0:0:
256,308,194892,1,0,0:0:0:0:
241,118,195080,5,0,0:0:0:0:
334,173,195267,1,0,0:0:0:0:
179,234,195455,1,0,0:0:0:0:
368,288,195642,1,0,0:0:0:0:
120,362,195830,5,0,0:0:0:0:
68,158,196017,1,0,0:0:0:0:
64,190,196111,1,0,0:0:0:0:
60,222,196205,1,0,0:0:0:0:
118,335,196392,1,0,0:0:0:0:
197,87,196580,5,0,0:0:0:0:
261,335,196767,1,0,0:0:0:0:
266,289,196861,1,0,0:0:0:0:
272,244,196955,1,0,0:0:0:0:
199,114,197142,1,0,0:0:0:0:
355,180,197330,6,0,L|362:309,1,110.000003356934
447,355,197611,1,0,0:0:0:0:
447,355,197705,2,0,L|454:226,1,110.000003356934
487,79,198080,6,0,P|448:32|425:106,1,165.000005035401
390,30,198455,2,0,B|281:7|327:62|221:24,1,165.000005035401
132,7,198830,5,0,0:0:0:0:
113,103,199017,1,0,0:0:0:0:
209,122,199205,1,0,0:0:0:0:
228,26,199392,1,0,0:0:0:0:
132,7,199580,5,0,0:0:0:0:
106,127,199767,2,0,L|91:190,1,55.0000016784668
127,35,199955,5,0,0:0:0:0:
