osu file format v14

[General]
AudioFilename: audio153.mp3
AudioLeadIn: 0
PreviewTime: 69465
Countdown: 0
SampleSet: Normal
StackLeniency: 0.2
Mode: 0
LetterboxInBreaks: 0
WidescreenStoryboard: 0

[Editor]
DistanceSpacing: 1.2
BeatDivisor: 4
GridSize: 32
TimelineZoom: 1.9

[Metadata]
Title:Bon Appetit S (Oldskool HappyHardcore Remix) (Short Ver.)
TitleUnicode:ぼなぺてぃーと♡S (Oldskool HappyHardcore Remix) (Short Ver.)
Artist:K A Z M A S A
ArtistUnicode:K A Z M A S A
Creator:BarkingMadDog
Version:blend s (260 bpm)
Source:ブレンド・S
Tags:Kazmasa Blend S Opening ブレンド・A Blend A 桜ノ宮苺香 Sakuranomiya Maika 和氣あず未 Waki Azumi日向夏帆 Hinata Kaho 鬼頭明里 Kitou Akari 星川麻冬 Hoshikawa Mafuyu 春野杏 Haruno Anzu stream stamina
BeatmapID:2082013
BeatmapSetID:859515

[Difficulty]
HPDrainRate:3.2
CircleSize:4
OverallDifficulty:9.8
ApproachRate:10
SliderMultiplier:2
SliderTickRate:1

[Events]
//Background and Video events
0,0,"blend s.png",0,0
//Break Periods
//Storyboard Layer 0 (Background)
//Storyboard Layer 1 (Fail)
//Storyboard Layer 2 (Pass)
//Storyboard Layer 3 (Foreground)
//Storyboard Sound Samples

[TimingPoints]
71,230.680507497116,4,1,1,35,1,0
5607,-100,4,1,1,35,0,0
7453,-100,4,1,1,45,0,0
12988,-100,4,1,1,45,0,0
14834,-100,4,1,1,50,0,0
29598,-80,4,1,1,60,0,0
53588,-100,4,1,1,50,0,0
60970,-80,4,1,1,70,0,0
70197,-66.6666666666667,4,1,1,80,0,1
94188,-80,4,1,1,60,0,0
118179,-100,4,1,1,50,0,0
132943,-100,4,1,1,50,0,0

[HitObjects]
152,94,5607,5,0,42:0:0:0:
153,103,5665,1,0,0:0:0:0:
154,113,5722,1,0,0:0:0:0:
154,122,5780,1,0,0:0:0:0:
155,131,5838,1,8,0:1:0:0:
156,140,5895,1,0,0:0:0:0:
157,149,5953,1,0,0:0:0:0:
158,159,6011,1,0,0:0:0:0:
158,168,6068,5,0,42:0:0:0:
129,159,6126,1,0,0:0:0:0:
99,162,6184,1,0,0:0:0:0:
72,175,6241,1,0,0:0:0:0:
50,196,6299,1,8,0:1:0:0:
39,224,6357,1,0,0:0:0:0:
37,253,6414,1,0,0:0:0:0:
45,281,6472,1,0,0:0:0:0:
62,305,6530,5,0,42:0:0:0:
95,267,6587,1,0,0:0:0:0:
143,254,6645,1,0,0:0:0:0:
191,268,6703,1,0,0:0:0:0:
224,304,6760,1,8,0:1:0:0:
245,349,6818,1,0,0:0:0:0:
294,372,6876,1,0,0:0:0:0:
348,365,6933,1,0,0:0:0:0:
385,323,6991,1,0,42:0:0:0:
388,268,7049,1,0,0:0:0:0:
355,223,7106,1,0,0:0:0:0:
302,207,7164,1,0,0:0:0:0:
268,162,7222,1,8,0:1:0:0:
272,107,7279,1,0,0:0:0:0:
309,66,7337,1,0,0:0:0:0:
363,56,7395,1,0,0:0:0:0:
410,84,7452,5,12,42:1:0:0:
178,207,7568,2,0,L|183:108,1,100,0|8,0:0|0:1,0:0:0:0:
325,29,7798,2,0,L|320:128,1,100,0|0,0:0|3:0,0:0:0:0:
174,211,8029,2,0,L|179:112,1,100,0|8,0:0|0:1,0:0:0:0:
321,33,8260,2,0,L|316:132,1,100,0|0,0:0|3:0,0:0:0:0:
170,215,8490,2,0,L|175:116,1,100,0|8,0:0|0:1,0:0:0:0:
317,37,8721,2,0,L|312:136,1,100,0|0,0:0|3:0,0:0:0:0:
305,235,8952,1,0,0:0:0:0:
400,91,9067,1,8,0:1:0:0:
394,190,9182,1,0,0:0:0:0:
317,37,9298,5,0,42:0:0:0:
170,215,9413,2,0,B|121:228|121:228|76:210,1,100,0|8,0:0|0:1,0:0:0:0:
30,53,9644,2,0,B|79:40|79:40|124:58,1,100,0|0,0:0|3:0,0:0:0:0:
172,222,9874,2,0,B|123:235|123:235|78:217,1,100,0|8,0:0|0:1,0:0:0:0:
32,60,10105,2,0,B|81:47|81:47|126:65,1,100,0|0,0:0|3:0,0:0:0:0:
175,230,10336,2,0,B|126:243|126:243|81:225,1,100,0|8,0:0|0:1,0:0:0:0:
35,68,10566,2,0,B|84:55|84:55|129:73,1,100,0|0,0:0|3:0,0:0:0:0:
178,236,10797,1,0,0:0:0:0:
294,112,10912,1,8,0:1:0:0:
129,73,11028,1,0,0:0:0:0:
271,204,11143,5,4,42:1:0:0:
459,151,11259,2,0,P|496:119|511:72,1,100,0|8,0:0|0:1,0:0:0:0:
271,204,11489,2,0,P|279:252|312:289,1,100,0|0,0:0|0:0,3:0:0:0:
386,86,11720,2,0,P|377:37|344:0,1,100,0|8,0:0|0:1,0:0:0:0:
271,204,11951,1,0,0:0:0:0:
459,151,12066,5,4,42:1:0:0:
195,107,12181,2,0,L|294:112,1,100,0|8,0:0|0:1,0:0:0:0:
439,275,12412,2,0,L|340:270,1,100,0|0,0:0|3:0,0:0:0:0:
175,231,12643,1,0,0:0:0:0:
366,179,12758,1,8,0:1:0:0:
316,360,12873,1,0,0:0:0:0:
257,145,12989,5,4,42:1:0:0:
258,135,13046,1,0,0:0:0:0:
259,125,13104,1,0,0:0:0:0:
260,115,13162,1,0,0:0:0:0:
261,105,13219,1,8,0:1:0:0:
262,95,13277,1,0,0:0:0:0:
263,84,13335,1,0,0:0:0:0:
264,74,13392,1,0,0:0:0:0:
265,64,13450,5,4,42:1:0:0:
285,86,13508,1,0,0:0:0:0:
291,115,13565,1,0,0:0:0:0:
287,144,13623,1,0,0:0:0:0:
268,167,13681,1,8,0:1:0:0:
243,183,13738,1,0,0:0:0:0:
213,187,13796,1,0,0:0:0:0:
183,179,13854,1,0,0:0:0:0:
159,160,13911,5,4,42:1:0:0:
207,148,13969,1,0,0:0:0:0:
254,163,14027,1,0,0:0:0:0:
283,203,14084,1,0,0:0:0:0:
283,252,14142,1,12,0:1:0:0:
302,297,14200,1,0,0:0:0:0:
343,323,14257,1,0,0:0:0:0:
393,324,14315,1,0,0:0:0:0:
438,303,14373,1,4,42:1:0:0:
470,264,14430,1,0,0:0:0:0:
477,214,14488,1,0,0:0:0:0:
456,167,14546,1,0,0:0:0:0:
418,134,14603,1,12,0:1:0:0:
395,89,14661,1,0,0:0:0:0:
401,39,14719,1,0,0:0:0:0:
437,4,14776,1,0,0:0:0:0:
487,0,14834,6,0,L|483:49,3,50,6|0|0|0,3:1|0:0|0:0|0:0,0:0:0:0:
512,129,15065,1,8,0:1:0:0:
512,129,15122,1,0,0:0:0:0:
512,129,15180,2,0,L|462:132,1,50
339,110,15295,6,0,L|342:159,3,50,2|0|0|0,3:1|0:0|0:0|0:0,0:0:0:0:
364,242,15526,1,8,0:1:0:0:
364,242,15584,1,0,0:0:0:0:
364,242,15641,2,0,L|314:239,1,50
214,233,15757,5,2,42:1:0:0:
198,232,15814,1,0,0:0:0:0:
183,231,15872,1,2,0:1:0:0:
168,230,15930,1,0,0:0:0:0:
153,229,15987,2,0,L|156:279,1,50,8|0,0:1|0:0,0:0:0:0:
83,382,16103,2,0,L|80:332,1,50,2|0,0:1|0:0,0:0:0:0:
19,241,16218,6,0,P|44:235|78:239,1,50,2|0,3:1|0:0,0:0:0:0:
167,378,16333,2,0,P|191:379|216:373,1,50,2|0,0:1|0:0,0:0:0:0:
331,280,16449,1,8,0:1:0:0:
344,276,16506,1,0,0:0:0:0:
358,274,16564,1,0,0:0:0:0:
372,276,16622,1,0,0:0:0:0:
387,279,16679,6,0,L|437:282,1,50,2|0,3:1|0:0,0:0:0:0:
371,155,16795,1,2,0:1:0:0:
371,155,16853,1,0,0:0:0:0:
371,155,16910,2,0,L|343:196,1,50,8|0,0:1|0:0,0:0:0:0:
486,203,17026,2,0,L|463:158,1,50
399,78,17141,5,2,42:1:0:0:
369,71,17199,1,0,0:0:0:0:
339,79,17256,1,2,0:1:0:0:
315,96,17314,1,0,0:0:0:0:
299,121,17372,1,8,0:1:0:0:
273,137,17429,1,0,0:0:0:0:
242,139,17487,1,0,0:0:0:0:
212,132,17545,1,0,0:0:0:0:
191,110,17602,5,2,42:1:0:0:
176,111,17660,1,0,0:0:0:0:
161,113,17718,1,0,0:0:0:0:
145,114,17775,1,0,0:0:0:0:
130,116,17833,5,10,0:1:0:0:
159,119,17891,1,0,0:0:0:0:
188,120,17948,1,0,0:0:0:0:
218,120,18006,1,0,0:0:0:0:
247,121,18064,5,2,42:1:0:0:
225,65,18121,1,0,0:0:0:0:
173,33,18179,1,2,0:1:0:0:
112,37,18237,1,0,0:0:0:0:
65,75,18294,1,8,0:1:0:0:
49,132,18352,1,0,0:0:0:0:
68,188,18410,1,0,0:0:0:0:
117,223,18467,1,0,0:0:0:0:
176,225,18525,6,0,L|233:229,3,50,2|0|0|0,3:1|0:0|0:0|0:0,0:0:0:0:
200,98,18756,1,8,0:1:0:0:
200,98,18813,1,0,0:0:0:0:
200,98,18871,2,0,L|203:147,1,50
211,312,18986,6,0,L|268:308,3,50,2|0|0|0,3:1|0:0|0:0|0:0,0:0:0:0:
352,340,19217,1,8,0:1:0:0:
352,340,19275,1,0,0:0:0:0:
352,340,19332,2,0,L|355:290,1,50
362,190,19448,5,2,42:1:0:0:
363,180,19505,1,0,0:0:0:0:
364,170,19563,1,2,0:1:0:0:
365,160,19621,1,0,0:0:0:0:
366,150,19678,6,0,L|370:85,1,50,8|0,0:1|0:0,0:0:0:0:
275,19,19794,2,0,L|278:68,1,50,2|0,0:1|0:0,0:0:0:0:
219,155,19909,6,0,L|169:151,1,50,2|0,3:1|0:0,0:0:0:0:
119,58,20024,2,0,L|69:61,1,50,2|0,0:1|0:0,0:0:0:0:
84,212,20140,1,8,0:1:0:0:
85,221,20197,1,0,0:0:0:0:
86,230,20255,1,0,0:0:0:0:
87,239,20313,1,0,0:0:0:0:
87,248,20370,6,0,P|69:265|46:274,1,50,2|0,3:1|0:0,0:0:0:0:
114,360,20486,1,2,0:1:0:0:
114,360,20543,1,0,0:0:0:0:
113,360,20601,2,0,P|137:366|157:382,1,50,8|0,0:1|0:0,0:0:0:0:
197,279,20716,2,0,P|192:255|195:231,1,50
306,319,20832,5,2,42:1:0:0:
315,318,20889,1,0,0:0:0:0:
325,317,20947,1,2,0:1:0:0:
334,316,21005,1,0,0:0:0:0:
343,315,21062,1,8,0:1:0:0:
352,315,21120,1,0,0:0:0:0:
362,315,21178,1,0,0:0:0:0:
371,314,21235,1,0,0:0:0:0:
380,313,21293,5,2,42:1:0:0:
355,295,21351,1,0,0:0:0:0:
326,284,21408,1,0,0:0:0:0:
296,287,21466,1,0,0:0:0:0:
269,301,21524,1,10,0:1:0:0:
249,323,21581,1,0,0:0:0:0:
221,335,21639,1,0,0:0:0:0:
190,336,21697,1,0,0:0:0:0:
162,325,21754,5,2,42:1:0:0:
209,288,21812,1,0,0:0:0:0:
234,233,21870,1,2,0:1:0:0:
226,172,21927,1,0,0:0:0:0:
188,125,21985,1,8,0:1:0:0:
132,102,22043,1,0,0:0:0:0:
72,110,22100,1,0,0:0:0:0:
26,149,22158,1,0,0:0:0:0:
5,205,22216,5,6,42:1:0:0:
24,204,22273,1,0,0:0:0:0:
43,202,22331,1,0,0:0:0:0:
63,201,22389,1,0,0:0:0:0:
82,199,22447,1,8,0:1:0:0:
101,198,22504,1,0,0:0:0:0:
120,196,22562,2,0,L|115:140,1,50
105,294,22677,5,2,42:1:0:0:
124,297,22735,1,0,0:0:0:0:
143,295,22793,1,0,0:0:0:0:
161,288,22850,1,0,0:0:0:0:
177,278,22908,1,8,0:1:0:0:
195,271,22966,1,0,0:0:0:0:
214,268,23023,2,0,P|240:264|272:273,1,50
390,359,23139,5,2,42:1:0:0:
383,356,23196,1,0,0:0:0:0:
376,353,23254,1,2,0:1:0:0:
369,349,23312,1,0,0:0:0:0:
360,343,23369,2,0,P|343:322|335:290,1,50,8|0,0:1|0:0,0:0:0:0:
328,224,23485,2,0,P|337:199|361:176,1,50,2|0,0:1|0:0,0:0:0:0:
451,259,23600,6,0,L|394:255,1,50,2|0,3:1|0:0,0:0:0:0:
204,193,23715,2,0,L|261:189,1,50,2|0,0:1|0:0,0:0:0:0:
384,94,23831,1,8,0:1:0:0:
385,73,23888,1,0,0:0:0:0:
387,53,23946,1,0,0:0:0:0:
390,33,24004,1,0,0:0:0:0:
391,13,24061,6,0,P|417:9|449:18,1,50,2|0,3:1|0:0,0:0:0:0:
316,75,24177,1,2,0:1:0:0:
316,75,24234,1,0,0:0:0:0:
316,75,24292,2,0,P|299:54|291:22,1,50,8|0,0:1|0:0,0:0:0:0:
408,109,24407,2,0,P|398:133|374:156,1,50
265,206,24523,5,2,42:1:0:0:
237,218,24580,1,0,0:0:0:0:
206,221,24638,1,2,0:1:0:0:
177,213,24696,1,0,0:0:0:0:
153,194,24753,1,8,0:1:0:0:
138,167,24811,1,0,0:0:0:0:
133,137,24869,1,0,0:0:0:0:
139,107,24926,1,0,0:0:0:0:
156,82,24984,5,2,42:1:0:0:
155,67,25042,1,0,0:0:0:0:
153,51,25099,1,0,0:0:0:0:
152,36,25157,1,0,0:0:0:0:
150,21,25215,5,10,0:1:0:0:
148,50,25272,1,0,0:0:0:0:
148,80,25330,1,0,0:0:0:0:
146,109,25388,1,0,0:0:0:0:
146,138,25445,5,2,42:1:0:0:
189,112,25503,1,0,0:0:0:0:
238,115,25561,1,2,0:1:0:0:
276,147,25618,1,0,0:0:0:0:
289,195,25676,1,8,0:1:0:0:
325,228,25734,1,0,0:0:0:0:
374,234,25791,1,0,0:0:0:0:
419,211,25849,1,0,0:0:0:0:
438,165,25907,5,6,42:1:0:0:
421,153,25964,1,0,0:0:0:0:
401,147,26022,1,0,0:0:0:0:
380,147,26080,1,0,0:0:0:0:
360,151,26137,1,8,0:1:0:0:
341,159,26195,1,0,0:0:0:0:
324,170,26253,2,0,L|328:223,1,50
355,322,26368,5,2,42:1:0:0:
335,326,26426,1,0,0:0:0:0:
315,327,26483,1,0,0:0:0:0:
295,322,26541,1,0,0:0:0:0:
276,313,26599,1,8,0:1:0:0:
256,307,26656,1,0,0:0:0:0:
236,305,26714,2,0,L|184:308,1,50
45,345,26829,5,6,42:1:0:0:
36,316,26887,1,0,0:0:0:0:
39,286,26945,1,2,0:1:0:0:
55,261,27002,1,0,0:0:0:0:
72,236,27060,1,8,0:1:0:0:
80,207,27118,1,0,0:0:0:0:
81,177,27175,2,0,L|77:115,1,50,2|0,0:1|0:0,0:0:0:0:
200,38,27291,5,2,42:1:0:0:
199,67,27348,1,0,0:0:0:0:
197,96,27406,1,2,0:1:0:0:
196,125,27464,1,0,0:0:0:0:
194,154,27521,1,8,0:1:0:0:
191,184,27579,1,0,0:0:0:0:
189,213,27637,2,0,L|185:262,1,50
331,359,27752,5,6,42:1:0:0:
370,367,27810,1,0,0:0:0:0:
409,358,27868,1,2,0:1:0:0:
438,330,27925,1,0,0:0:0:0:
451,292,27983,1,8,0:1:0:0:
444,252,28041,1,0,0:0:0:0:
421,219,28098,1,0,0:0:0:0:
385,200,28156,1,0,0:0:0:0:
345,203,28214,5,6,42:1:0:0:
384,234,28271,1,0,0:0:0:0:
433,234,28329,1,2,0:1:0:0:
475,208,28387,1,0,0:0:0:0:
492,161,28444,1,8,0:1:0:0:
481,112,28502,1,0,0:0:0:0:
443,78,28560,1,0,0:0:0:0:
393,74,28617,1,0,0:0:0:0:
349,98,28675,5,6,42:1:0:0:
319,96,28733,1,0,0:0:0:0:
288,93,28790,1,0,0:0:0:0:
258,90,28848,1,0,0:0:0:0:
228,87,28906,5,14,0:1:0:0:
267,84,28963,1,0,0:0:0:0:
307,85,29021,1,0,0:0:0:0:
346,82,29079,1,0,0:0:0:0:
385,79,29136,5,6,0:1:0:0:
365,135,29194,1,0,0:0:0:0:
316,171,29252,1,2,0:1:0:0:
256,170,29309,1,0,0:0:0:0:
208,133,29367,1,12,0:1:0:0:
166,90,29425,1,0,0:0:0:0:
107,77,29482,1,0,0:0:0:0:
51,102,29540,1,0,0:0:0:0:
21,154,29598,5,4,42:1:0:0:
22,166,29655,1,0,0:0:0:0:
23,178,29713,1,0,0:0:0:0:
24,190,29771,1,0,0:0:0:0:
25,202,29828,1,8,0:1:0:0:
26,214,29886,1,0,0:0:0:0:
26,226,29944,2,0,L|31:313,1,62.5
193,382,30059,6,0,L|198:295,1,62.5,0|0,3:0|0:0,0:0:0:0:
333,253,30174,1,0,0:0:0:0:
327,256,30232,2,0,L|249:295,1,62.5,0|8,0:0|0:1,0:0:0:0:
143,200,30347,1,0,0:0:0:0:
148,203,30405,2,0,L|220:250,1,62.5
410,289,30520,5,0,42:0:0:0:
410,289,30578,1,0,0:0:0:0:
409,289,30636,2,0,P|416:258|412:227,1,62.5
477,178,30751,1,8,0:1:0:0:
477,178,30809,1,0,0:0:0:0:
477,178,30866,2,0,P|451:155|421:144,1,62.5
414,64,30982,1,0,42:0:0:0:
414,64,31039,1,0,0:0:0:0:
414,64,31097,2,0,P|381:74|357:95,1,62.5
283,61,31212,1,8,0:1:0:0:
283,61,31270,1,0,0:0:0:0:
283,61,31328,2,0,P|275:94|282:125,1,62.5
214,172,31443,5,0,42:0:0:0:
176,168,31501,1,0,0:0:0:0:
138,165,31558,1,0,0:0:0:0:
100,162,31616,1,0,0:0:0:0:
62,160,31674,2,0,L|66:95,1,62.5,8|0,0:1|0:0,0:0:0:0:
130,280,31789,1,0,0:0:0:0:
130,280,31847,1,0,0:0:0:0:
130,280,31904,6,0,L|192:283,1,62.5,0|0,3:0|0:0,0:0:0:0:
237,378,32020,1,0,0:0:0:0:
229,380,32077,2,0,L|164:384,1,62.5,0|8,0:0|0:1,0:0:0:0:
147,189,32193,1,0,0:0:0:0:
155,187,32250,2,0,L|220:183,1,62.5
393,271,32366,5,0,42:0:0:0:
393,271,32423,1,0,0:0:0:0:
393,271,32481,2,0,P|427:276|464:267,1,62.5
340,206,32596,1,8,0:1:0:0:
340,206,32654,1,0,0:0:0:0:
340,206,32712,2,0,P|318:232|307:269,1,62.5
425,196,32827,1,0,42:0:0:0:
425,196,32885,1,0,0:0:0:0:
425,196,32942,2,0,P|414:166|394:142,1,62.5
423,65,33058,2,0,P|392:59|361:64,1,62.5,8|0,0:1|0:0,0:0:0:0:
238,115,33173,1,0,0:0:0:0:
238,115,33231,1,0,0:0:0:0:
238,115,33288,6,0,L|242:46,1,62.5,4|0,3:1|0:0,0:0:0:0:
145,7,33404,2,0,L|142:70,1,62.5
40,87,33519,1,8,0:1:0:0:
40,87,33577,1,0,0:0:0:0:
40,87,33635,2,0,L|36:149,1,62.5
259,211,33750,6,0,P|228:215|198:209,1,62.5,0|0,3:0|0:0,0:0:0:0:
97,222,33865,2,0,P|116:247|126:277,1,62.5
188,357,33981,2,0,P|200:329|221:306,1,62.5,8|0,0:1|0:0,0:0:0:0:
295,122,34096,1,0,0:0:0:0:
295,122,34154,1,0,0:0:0:0:
295,122,34211,6,0,L|357:125,1,62.5,4|0,3:1|0:0,0:0:0:0:
395,205,34327,2,0,L|333:209,1,62.5
407,52,34442,1,8,0:1:0:0:
407,52,34500,1,0,0:0:0:0:
407,52,34557,2,0,L|469:55,1,62.5
219,154,34673,6,0,P|212:124|216:93,1,62.5,0|0,3:0|0:0,0:0:0:0:
132,191,34788,2,0,P|107:172|78:164,1,62.5
141,36,34903,2,0,P|119:57|90:69,1,62.5,8|0,0:1|0:0,0:0:0:0:
208,248,35019,1,0,0:0:0:0:
208,248,35076,1,0,0:0:0:0:
208,248,35134,6,0,L|205:310,1,62.5,4|0,3:1|0:0,0:0:0:0:
120,348,35249,2,0,L|117:285,1,62.5
215,124,35365,1,8,0:1:0:0:
238,103,35422,1,0,0:0:0:0:
267,92,35480,1,0,0:0:0:0:
298,92,35538,1,0,0:0:0:0:
327,101,35595,6,0,P|361:107|400:98,1,62.5,4|0,3:1|0:0,0:0:0:0:
425,17,35711,2,0,P|391:11|352:20,1,62.5
280,174,35826,1,8,0:1:0:0:
282,205,35884,1,0,0:0:0:0:
285,235,35941,1,0,0:0:0:0:
288,265,35999,1,0,0:0:0:0:
290,297,36057,5,4,42:1:0:0:
234,283,36114,1,0,0:0:0:0:
180,300,36172,1,0,0:0:0:0:
148,346,36230,1,0,0:0:0:0:
95,365,36287,1,12,0:1:0:0:
41,348,36345,1,0,0:0:0:0:
10,300,36403,1,0,0:0:0:0:
13,244,36460,1,0,0:0:0:0:
47,199,36518,1,4,42:1:0:0:
101,186,36576,1,0,0:0:0:0:
152,162,36633,1,0,0:0:0:0:
179,113,36691,1,0,0:0:0:0:
168,57,36749,1,12,0:1:0:0:
127,18,36806,1,0,0:0:0:0:
70,12,36864,1,0,0:0:0:0:
21,39,36922,1,0,0:0:0:0:
0,91,36979,5,4,42:1:0:0:
12,90,37037,1,0,0:0:0:0:
24,89,37095,1,0,0:0:0:0:
36,88,37152,1,0,0:0:0:0:
48,87,37210,1,8,0:1:0:0:
60,86,37268,1,0,0:0:0:0:
72,86,37325,2,0,L|144:81,1,62.5
304,152,37441,6,0,L|242:148,1,62.5,0|0,3:0|0:0,0:0:0:0:
376,77,37556,1,0,0:0:0:0:
380,84,37614,2,0,L|407:140,1,62.5,0|8,0:0|0:1,0:0:0:0:
278,59,37729,1,0,0:0:0:0:
283,53,37787,2,0,L|317:1,1,62.5
369,231,37902,5,0,42:0:0:0:
369,231,37960,1,0,0:0:0:0:
369,231,38017,2,0,L|364:293,1,62.5
271,276,38133,1,8,0:1:0:0:
271,276,38190,1,0,0:0:0:0:
271,276,38248,2,0,L|275:338,1,62.5
189,380,38363,1,0,42:0:0:0:
189,380,38421,1,0,0:0:0:0:
189,380,38479,2,0,L|193:317,1,62.5
118,270,38594,1,8,0:1:0:0:
118,270,38652,1,0,0:0:0:0:
118,270,38709,2,0,L|113:207,1,62.5
208,82,38825,5,0,42:0:0:0:
239,62,38882,1,0,0:0:0:0:
275,54,38940,1,0,0:0:0:0:
311,63,38998,1,0,0:0:0:0:
338,86,39056,2,0,L|336:149,1,62.5,8|0,0:1|0:0,0:0:0:0:
408,220,39171,1,0,0:0:0:0:
408,220,39229,1,0,0:0:0:0:
408,220,39286,6,0,P|427:195|437:166,1,62.5,0|0,3:0|0:0,0:0:0:0:
264,220,39402,1,0,0:0:0:0:
260,215,39459,2,0,P|242:189|233:159,1,62.5,0|8,0:0|0:1,0:0:0:0:
376,313,39575,1,0,0:0:0:0:
381,316,39632,2,0,P|411:320|442:314,1,62.5
281,313,39748,5,0,42:0:0:0:
281,313,39805,1,0,0:0:0:0:
281,313,39863,2,0,L|217:316,1,62.5
155,384,39978,1,8,0:1:0:0:
155,384,40036,1,0,0:0:0:0:
155,384,40094,2,0,L|125:327,1,62.5
32,322,40209,1,0,42:0:0:0:
32,322,40267,1,0,0:0:0:0:
32,322,40324,2,0,L|61:265,1,62.5
31,178,40440,2,0,L|93:180,1,62.5,8|0,0:1|0:0,0:0:0:0:
191,185,40555,1,0,0:0:0:0:
191,185,40613,1,0,0:0:0:0:
191,185,40670,6,0,L|257:189,1,62.5,4|0,3:1|0:0,0:0:0:0:
214,102,40786,2,0,L|148:106,1,62.5
239,272,40901,1,8,0:1:0:0:
239,272,40959,1,0,0:0:0:0:
239,272,41016,2,0,L|305:268,1,62.5
475,178,41132,6,0,P|477:146|470:116,1,62.5,0|0,3:0|0:0,0:0:0:0:
411,241,41247,2,0,P|436:258|466:268,1,62.5
388,154,41362,2,0,P|359:167|336:188,1,62.5,8|0,0:1|0:0,0:0:0:0:
457,358,41478,1,0,0:0:0:0:
457,358,41535,1,0,0:0:0:0:
457,358,41593,6,0,L|390:354,1,62.5,4|0,3:1|0:0,0:0:0:0:
326,275,41708,2,0,L|259:279,1,62.5
195,358,41824,1,8,0:1:0:0:
195,358,41881,1,0,0:0:0:0:
195,358,41939,2,0,L|128:354,1,62.5
41,99,42054,6,0,B|71:104|71:104|95:124,1,62.5,0|0,3:0|0:0,0:0:0:0:
205,167,42170,2,0,B|184:190|184:190|155:201,1,62.5
64,275,42285,2,0,B|53:245|53:245|58:214,1,62.5,8|0,0:1|0:0,0:0:0:0:
193,81,42400,1,0,0:0:0:0:
193,81,42458,1,0,0:0:0:0:
193,81,42516,6,0,L|259:84,3,62.5,4|0|0|0,3:1|0:0|0:0|0:0,0:0:0:0:
286,200,42746,2,0,L|352:197,3,62.5,8|0|0|0,0:1|0:0|0:0|0:0,0:0:0:0:
436,177,42977,5,4,42:1:0:0:
434,188,43035,1,0,0:0:0:0:
434,201,43092,1,0,0:0:0:0:
433,213,43150,1,0,0:0:0:0:
432,225,43208,1,8,0:1:0:0:
431,237,43265,1,0,0:0:0:0:
430,249,43323,1,0,0:0:0:0:
429,261,43381,1,0,0:0:0:0:
429,273,43438,5,4,42:1:0:0:
481,252,43496,1,0,0:0:0:0:
503,200,43554,1,0,0:0:0:0:
491,145,43611,1,0,0:0:0:0:
445,112,43669,1,12,0:1:0:0:
388,118,43727,1,0,0:0:0:0:
348,157,43784,1,0,0:0:0:0:
342,212,43842,1,0,0:0:0:0:
307,256,43900,1,4,42:1:0:0:
252,272,43957,1,0,0:0:0:0:
198,256,44015,1,0,0:0:0:0:
161,213,44073,1,0,0:0:0:0:
155,157,44130,1,12,0:1:0:0:
180,106,44188,1,0,0:0:0:0:
227,75,44246,1,0,0:0:0:0:
283,76,44303,1,0,0:0:0:0:
328,108,44361,5,4,42:1:0:0:
327,115,44419,1,0,0:0:0:0:
326,122,44476,2,0,L|322:184,1,62.5
242,224,44592,2,0,L|238:162,1,62.5,8|0,0:1|0:0,0:0:0:0:
407,85,44707,2,0,L|411:147,1,62.5
445,260,44823,5,0,42:0:0:0:
409,239,44880,1,0,0:0:0:0:
371,239,44938,1,0,0:0:0:0:
336,252,44996,1,0,0:0:0:0:
307,276,45053,1,8,0:1:0:0:
279,301,45111,1,0,0:0:0:0:
242,307,45169,1,0,0:0:0:0:
205,298,45226,1,0,0:0:0:0:
175,274,45284,6,0,L|110:277,1,62.5,0|0,3:0|0:0,0:0:0:0:
74,361,45399,1,0,0:0:0:0:
84,360,45457,2,0,L|147:358,1,62.5,0|8,0:0|0:1,0:0:0:0:
208,189,45572,1,0,0:0:0:0:
201,189,45630,2,0,L|138:191,1,62.5
46,227,45745,6,0,B|35:197|35:197|42:168,1,62.5,0|0,3:0|0:0,0:0:0:0:
59,69,45861,1,0,0:0:0:0:
59,69,45918,1,0,0:0:0:0:
59,69,45976,2,0,B|90:74|90:74|112:95,1,62.5,8|0,0:1|0:0,0:0:0:0:
143,207,46091,1,0,0:0:0:0:
140,198,46149,1,0,0:0:0:0:
138,191,46207,6,0,L|206:189,1,62.5,0|0,3:0|0:0,0:0:0:0:
319,246,46322,1,0,0:0:0:0:
315,241,46380,2,0,L|279:183,1,62.5,0|8,0:0|0:1,0:0:0:0:
127,58,46495,1,0,0:0:0:0:
132,64,46553,2,0,L|167:121,1,62.5
211,312,46668,5,0,42:0:0:0:
211,312,46726,1,0,0:0:0:0:
211,312,46783,2,0,L|240:256,1,62.5
272,64,46899,2,0,L|242:119,1,62.5,8|0,0:1|0:0,0:0:0:0:
138,191,47014,2,0,L|206:189,1,62.5
326,121,47129,6,0,L|388:119,1,62.5,0|0,3:0|0:0,0:0:0:0:
430,205,47245,1,0,0:0:0:0:
422,203,47302,2,0,L|360:202,1,62.5,0|8,0:0|0:1,0:0:0:0:
318,287,47418,1,0,0:0:0:0:
325,287,47475,2,0,L|388:286,1,62.5
422,371,47591,6,0,L|360:370,1,62.5,0|0,3:0|0:0,0:0:0:0:
241,293,47706,1,0,0:0:0:0:
216,294,47764,1,0,0:0:0:0:
191,295,47821,1,8,0:1:0:0:
165,296,47879,1,0,0:0:0:0:
140,297,47937,1,0,0:0:0:0:
115,298,47994,1,0,0:0:0:0:
90,299,48052,5,4,42:1:0:0:
91,292,48110,1,0,0:0:0:0:
92,285,48167,2,0,L|96:223,1,62.5
168,170,48283,2,0,L|172:108,1,62.5,8|0,0:1|0:0,0:0:0:0:
12,248,48398,2,0,L|16:186,1,62.5
117,46,48513,5,0,42:0:0:0:
150,29,48571,1,0,0:0:0:0:
187,25,48629,1,0,0:0:0:0:
221,40,48686,1,0,0:0:0:0:
244,69,48744,1,8,0:1:0:0:
271,94,48802,1,0,0:0:0:0:
307,103,48859,1,0,0:0:0:0:
343,96,48917,1,0,0:0:0:0:
373,74,48975,6,0,P|400:53|429:45,1,62.5,4|0,3:1|0:0,0:0:0:0:
357,173,49090,1,0,0:0:0:0:
350,172,49148,2,0,P|318:157|297:137,1,62.5,0|8,0:0|0:1,0:0:0:0:
446,137,49263,1,0,0:0:0:0:
447,143,49321,2,0,P|450:177|443:205,1,62.5
345,332,49436,5,0,42:0:0:0:
317,357,49494,1,0,0:0:0:0:
280,367,49551,1,0,0:0:0:0:
242,359,49609,1,0,0:0:0:0:
212,335,49667,1,8,0:1:0:0:
197,300,49724,1,0,0:0:0:0:
198,262,49782,1,0,0:0:0:0:
216,229,49840,1,0,0:0:0:0:
246,207,49897,5,4,42:1:0:0:
251,214,49955,1,0,0:0:0:0:
257,220,50013,2,0,L|319:224,1,62.5
361,119,50128,1,8,0:1:0:0:
361,119,50186,1,0,0:0:0:0:
361,119,50244,2,0,L|299:123,1,62.5
194,136,50359,5,4,42:1:0:0:
194,136,50417,1,0,0:0:0:0:
194,136,50474,2,0,L|198:74,1,62.5
93,28,50590,1,8,0:1:0:0:
93,28,50647,1,0,0:0:0:0:
93,28,50705,2,0,L|97:90,1,62.5
105,197,50820,6,0,P|74:200|43:194,3,62.5,4|0|0|0,3:1|0:0|0:0|0:0,0:0:0:0:
203,244,51051,2,0,P|190:272|169:296,3,62.5,12|0|0|0,0:1|0:0|0:0|0:0,0:0:0:0:
292,182,51282,5,4,42:1:0:0:
291,170,51339,1,0,0:0:0:0:
290,158,51397,1,0,0:0:0:0:
288,146,51455,1,0,0:0:0:0:
280,123,51512,1,12,0:1:0:0:
281,111,51570,1,0,0:0:0:0:
282,99,51628,1,0,0:0:0:0:
284,87,51685,1,0,0:0:0:0:
288,62,51743,5,4,42:1:0:0:
342,29,51801,1,0,0:0:0:0:
404,35,51858,1,0,0:0:0:0:
449,77,51916,1,0,0:0:0:0:
461,138,51974,1,12,0:1:0:0:
437,195,52031,1,0,0:0:0:0:
381,224,52089,1,0,0:0:0:0:
319,215,52147,1,0,0:0:0:0:
274,171,52204,1,4,42:1:0:0:
212,161,52262,1,0,0:0:0:0:
156,190,52320,1,0,0:0:0:0:
130,246,52377,1,0,0:0:0:0:
139,307,52435,1,12,0:1:0:0:
184,349,52493,1,0,0:0:0:0:
246,357,52550,1,0,0:0:0:0:
301,329,52608,1,0,0:0:0:0:
326,272,52666,6,0,L|321:209,1,62.5,4|0,3:1|0:0,0:0:0:0:
312,131,52781,1,0,0:0:0:0:
311,125,52839,2,0,L|306:62,1,62.5,0|12,0:0|0:1,0:0:0:0:
434,240,52954,1,0,0:0:0:0:
434,232,53012,2,0,L|439:170,1,62.5
227,248,53127,5,4,42:1:0:0:
200,264,53185,1,0,0:0:0:0:
169,271,53242,1,0,0:0:0:0:
138,262,53300,1,0,0:0:0:0:
113,242,53358,1,12,0:1:0:0:
87,223,53415,1,0,0:0:0:0:
56,217,53473,1,0,0:0:0:0:
25,225,53531,1,0,0:0:0:0:
0,244,53588,6,0,P|18:260|40:271,3,50,6|0|0|0,3:1|0:0|0:0|0:0,0:0:0:0:
55,353,53819,2,0,P|78:344|99:331,1,50,8|0,0:1|0:0,0:0:0:0:
122,250,53934,1,2,0:1:0:0:
122,250,53992,1,2,0:1:0:0:
122,250,54050,6,0,L|119:199,1,50,2|0,3:1|0:0,0:0:0:0:
137,98,54165,2,0,L|134:48,1,50,2|0,0:1|0:0,0:0:0:0:
220,214,54280,2,0,L|217:164,1,50,10|0,0:1|0:0,0:0:0:0:
39,134,54396,2,0,L|36:84,1,50,2|0,0:1|0:0,0:0:0:0:
235,62,54511,5,2,42:1:0:0:
253,55,54569,1,0,0:0:0:0:
272,52,54626,1,0,0:0:0:0:
291,51,54684,1,0,0:0:0:0:
310,55,54742,1,8,0:1:0:0:
328,62,54799,1,0,0:0:0:0:
345,71,54857,1,2,0:1:0:0:
359,85,54915,1,2,0:1:0:0:
371,100,54972,6,0,P|396:104|423:100,1,50,2|0,3:1|0:0,0:0:0:0:
499,9,55088,2,0,P|483:28|473:54,1,50,2|0,0:1|0:0,0:0:0:0:
512,164,55203,2,0,P|502:140|485:118,1,50,10|0,0:1|0:0,0:0:0:0:
402,28,55318,2,0,P|377:24|352:27,1,50,2|0,0:1|0:0,0:0:0:0:
409,215,55434,5,2,42:1:0:0:
411,235,55491,1,0,0:0:0:0:
412,254,55549,1,0,0:0:0:0:
413,273,55607,1,0,0:0:0:0:
414,292,55665,1,8,0:1:0:0:
415,312,55722,1,0,0:0:0:0:
417,331,55780,1,2,0:1:0:0:
418,350,55838,1,2,0:1:0:0:
420,369,55895,6,0,P|443:359|462:343,1,50,2|0,3:1|0:0,0:0:0:0:
312,267,56011,2,0,P|293:253|269:245,1,50,2|0,0:1|0:0,0:0:0:0:
395,288,56126,2,0,P|398:263|394:238,1,50,10|0,0:1|0:0,0:0:0:0:
254,329,56241,2,0,P|230:339|211:355,1,50,2|0,0:1|0:0,0:0:0:0:
289,187,56357,5,2,42:1:0:0:
289,187,56414,1,0,0:0:0:0:
289,187,56472,2,0,L|284:133,1,50
449,121,56587,2,0,L|444:71,1,50,10|0,0:1|0:0,0:0:0:0:
369,153,56703,2,0,L|365:104,1,50,2|0,0:1|0:0,0:0:0:0:
293,0,56818,5,2,42:1:0:0:
293,0,56876,1,0,0:0:0:0:
293,0,56933,2,0,L|297:49,1,50
125,69,57049,2,0,L|130:119,1,50,10|0,0:1|0:0,0:0:0:0:
213,34,57164,2,0,L|209:84,1,50,2|0,0:1|0:0,0:0:0:0:
129,255,57279,5,2,42:1:0:0:
148,260,57337,1,0,0:0:0:0:
167,259,57395,1,0,0:0:0:0:
185,252,57452,1,0,0:0:0:0:
202,242,57510,1,8,0:1:0:0:
219,233,57568,1,0,0:0:0:0:
238,231,57625,1,2,0:1:0:0:
258,232,57683,1,2,0:1:0:0:
277,237,57741,6,0,P|283:262|279:292,1,50,2|0,3:1|0:0,0:0:0:0:
208,168,57856,2,0,P|226:150|249:140,1,50,2|0,0:1|0:0,0:0:0:0:
184,262,57971,2,0,P|160:255|139:240,1,50,10|0,0:1|0:0,0:0:0:0:
370,212,58087,2,0,P|393:218|414:233,1,50,2|0,0:1|0:0,0:0:0:0:
253,329,58202,5,2,42:1:0:0:
238,342,58260,1,0,0:0:0:0:
220,351,58317,1,0,0:0:0:0:
200,355,58375,1,0,0:0:0:0:
179,357,58433,1,8,0:1:0:0:
159,354,58490,1,0,0:0:0:0:
139,348,58548,1,2,0:1:0:0:
122,336,58606,1,2,0:1:0:0:
108,320,58663,6,0,L|111:270,1,50,2|0,3:1|0:0,0:0:0:0:
98,120,58779,2,0,L|101:170,1,50,2|0,0:1|0:0,0:0:0:0:
27,290,58894,2,0,L|24:240,1,50,10|0,0:1|0:0,0:0:0:0:
182,102,59009,2,0,L|179:152,1,50,2|0,0:1|0:0,0:0:0:0:
190,302,59125,5,6,42:1:0:0:
190,302,59182,1,0,0:0:0:0:
190,302,59240,2,0,L|240:299,1,50,2|0,0:1|0:1,0:0:0:0:
338,278,59355,1,10,0:1:0:0:
338,288,59413,1,2,0:1:0:0:
338,297,59471,1,2,0:1:0:0:
338,306,59528,1,0,0:0:0:0:
338,315,59586,6,0,L|335:365,1,50,6|0,3:1|0:0,0:0:0:0:
416,270,59701,1,0,0:0:0:0:
410,265,59759,2,0,L|368:237,1,50,2|8,0:1|0:1,0:0:0:0:
411,355,59874,1,0,0:0:0:0:
417,352,59932,2,0,L|461:329,1,50,2|0,0:1|0:0,0:0:0:0:
366,147,60047,5,4,42:1:0:0:
325,117,60105,1,0,0:0:0:0:
274,119,60163,1,2,0:1:0:0:
233,148,60220,1,0,0:0:0:0:
218,195,60278,1,14,0:1:0:0:
181,228,60336,1,2,0:1:0:0:
132,241,60393,1,2,0:1:0:0:
84,227,60451,1,0,0:0:0:0:
49,190,60509,5,6,42:1:0:0:
97,177,60566,1,0,0:0:0:0:
145,190,60624,1,0,0:0:0:0:
181,228,60682,1,2,0:1:0:0:
188,277,60739,1,12,0:1:0:0:
170,323,60797,1,0,0:0:0:0:
130,352,60855,1,2,0:1:0:0:
79,356,60912,1,0,0:0:0:0:
34,332,60970,6,0,P|26:300|32:268,1,62.5,6|0,3:1|0:0,0:0:0:0:
125,199,61085,2,0,P|155:208|180:227,1,62.5
192,343,61201,1,10,0:1:0:0:
192,343,61259,1,0,0:0:0:0:
192,343,61316,2,0,P|169:364|141:376,1,62.5
27,332,61432,6,0,P|19:300|25:268,1,62.5,2|0,3:1|0:0,0:0:0:0:
128,192,61547,2,0,P|159:201|184:222,1,62.5
196,349,61662,1,10,0:1:0:0:
196,349,61720,1,0,0:0:0:0:
196,349,61778,2,0,P|172:371|141:382,1,62.5
118,290,61893,6,0,L|122:227,1,62.5,2|0,3:1|0:0,0:0:0:0:
219,185,62008,2,0,L|224:248,1,62.5,2|0,0:1|0:0,0:0:0:0:
320,290,62124,2,0,L|324:227,1,62.5,10|0,0:1|0:0,0:0:0:0:
421,185,62239,2,0,L|425:247,1,62.5,2|0,0:1|0:0,0:0:0:0:
471,363,62354,6,0,L|408:358,1,62.5,2|0,3:1|0:0,0:0:0:0:
496,241,62470,1,0,0:0:0:0:
488,242,62527,2,0,L|425:246,1,62.5,0|10,0:0|0:1,0:0:0:0:
509,140,62643,1,0,0:0:0:0:
501,139,62700,2,0,L|438:134,1,62.5
228,222,62816,6,0,B|256:217|256:217|281:195,1,62.5,2|0,3:1|0:0,0:0:0:0:
300,73,62931,2,0,B|282:50|282:50|250:39,1,62.5
134,85,63046,1,10,0:1:0:0:
134,85,63104,1,0,0:0:0:0:
134,85,63162,2,0,B|123:111|123:111|130:144,1,62.5
232,228,63277,6,0,B|260:223|260:223|285:201,1,62.5,2|0,3:1|0:0,0:0:0:0:
303,66,63392,2,0,B|285:43|285:43|253:32,1,62.5
126,85,63508,1,10,0:1:0:0:
126,85,63565,1,0,0:0:0:0:
126,85,63623,2,0,B|115:111|115:111|122:144,1,62.5
221,128,63738,6,0,L|284:123,1,62.5,2|0,3:1|0:0,0:0:0:0:
325,212,63854,2,0,L|262:207,1,62.5,2|0,0:1|0:0,0:0:0:0:
158,291,63969,2,0,L|221:286,1,62.5,10|0,0:1|0:0,0:0:0:0:
262,375,64084,2,0,L|199:370,1,62.5,2|0,0:1|0:0,0:0:0:0:
16,192,64200,6,0,L|73:164,1,62.5,2|0,3:1|0:0,0:0:0:0:
87,74,64315,1,0,0:0:0:0:
93,79,64373,2,0,L|145:114,1,62.5,0|10,0:0|0:1,0:0:0:0:
73,323,64488,1,0,0:0:0:0:
73,316,64546,2,0,L|78:253,1,62.5
228,89,64661,6,0,L|223:152,1,62.5,2|0,3:1|0:0,0:0:0:0:
311,195,64776,2,0,L|306:132,1,62.5
386,22,64892,1,10,0:1:0:0:
386,22,64949,1,0,0:0:0:0:
386,22,65007,2,0,L|381:85,1,62.5
288,274,65122,6,0,P|318:277|348:268,1,62.5,2|0,3:1|0:0,0:0:0:0:
464,162,65238,2,0,P|445:186|438:216,1,62.5
472,370,65353,1,10,0:1:0:0:
472,370,65411,1,0,0:0:0:0:
472,370,65468,2,0,P|459:341|437:320,1,62.5
211,237,65584,6,0,L|206:300,1,62.5,2|0,3:1|0:0,0:0:0:0:
74,384,65699,2,0,L|69:321,1,62.5,2|0,0:1|0:0,0:0:0:0:
217,232,65814,2,0,L|212:295,1,62.5,10|0,0:1|0:0,0:0:0:0:
80,379,65930,2,0,L|75:316,1,62.5,2|0,0:1|0:0,0:0:0:0:
192,149,66045,5,2,42:1:0:0:
192,149,66103,1,0,0:0:0:0:
192,149,66160,2,0,L|255:154,1,62.5
103,236,66276,1,10,0:1:0:0:
103,236,66333,1,0,0:0:0:0:
103,236,66391,2,0,L|40:241,1,62.5,2|2,0:1|0:1,0:0:0:0:
230,69,66506,5,6,42:1:0:0:
230,69,66564,1,0,0:0:0:0:
230,69,66622,2,0,L|293:64,1,62.5
374,225,66737,1,10,0:1:0:0:
374,225,66795,1,0,0:0:0:0:
374,225,66853,2,0,L|311:230,1,62.5
438,151,66968,6,0,P|459:172|470:205,1,62.5,2|0,3:1|0:0,0:0:0:0:
342,285,67083,1,0,0:0:0:0:
345,278,67141,2,0,P|352:248|375:222,1,62.5,0|8,0:0|0:1,0:0:0:0:
509,293,67256,1,0,0:0:0:0:
502,296,67314,2,0,P|472:303|438:296,1,62.5,2|0,0:1|0:0,0:0:0:0:
343,132,67429,6,0,L|348:61,3,62.5,6|0|0|0,3:1|0:0|0:0|0:0,0:0:0:0:
214,277,67660,2,0,L|218:339,3,62.5,10|0|0|0,0:1|0:0|0:0|0:0,0:0:0:0:
183,186,67891,5,6,42:1:0:0:
184,173,67948,1,0,0:0:0:0:
185,160,68006,1,0,0:0:0:0:
186,147,68064,1,2,0:1:0:0:
187,134,68121,1,8,0:1:0:0:
188,121,68179,1,0,0:0:0:0:
189,108,68237,1,2,0:1:0:0:
190,95,68294,1,0,0:0:0:0:
191,82,68352,5,6,42:1:0:0:
155,46,68410,1,0,0:0:0:0:
105,38,68467,1,0,0:0:0:0:
59,57,68525,1,0,0:0:0:0:
29,97,68583,1,12,0:1:0:0:
27,146,68640,1,0,0:0:0:0:
50,190,68698,1,0,0:0:0:0:
94,213,68756,1,0,0:0:0:0:
143,215,68813,1,4,42:1:0:0:
185,240,68871,1,0,0:0:0:0:
204,285,68929,1,0,0:0:0:0:
200,335,68986,1,0,0:0:0:0:
168,373,69044,1,12,0:1:0:0:
119,383,69102,1,0,0:0:0:0:
69,374,69159,1,0,0:0:0:0:
36,335,69217,1,0,0:0:0:0:
29,285,69275,5,4,42:1:0:0:
52,277,69332,1,0,0:0:0:0:
76,275,69390,1,0,0:0:0:0:
99,283,69448,1,0,0:0:0:0:
120,295,69505,1,14,0:1:0:0:
139,310,69563,1,0,0:0:0:0:
163,316,69621,1,0,0:0:0:0:
187,315,69678,1,0,0:0:0:0:
210,306,69736,5,6,0:1:0:0:
158,260,69794,1,0,0:0:0:0:
151,191,69851,1,0,0:0:0:0:
188,133,69909,1,0,0:0:0:0:
255,115,69967,1,14,0:1:0:0:
317,144,70024,1,0,0:0:0:0:
358,198,70082,1,0,0:0:0:0:
425,209,70140,1,0,0:0:0:0:
486,177,70197,6,0,B|430:126|430:126|441:274,1,225.000008583069,6|0,3:1|0:0,0:0:0:0:
478,365,70428,2,0,L|398:360,1,75.0000028610231,8|0,0:1|0:0,0:0:0:0:
348,285,70543,1,0,0:0:0:0:
348,285,70601,1,0,0:0:0:0:
348,285,70659,6,0,L|268:290,1,75.0000028610231,2|0,3:1|0:0,0:0:0:0:
118,293,70774,1,0,0:0:0:0:
123,297,70832,2,0,P|149:322|184:335,1,75.0000028610231,2|8,0:1|0:1,0:0:0:0:
197,161,70947,1,0,0:0:0:0:
190,163,71005,2,0,P|154:173|125:197,1,75.0000028610231,2|0,0:1|0:0,0:0:0:0:
261,274,71120,5,2,42:1:0:0:
267,281,71178,1,0,0:0:0:0:
273,289,71235,2,0,L|268:209,1,75.0000028610231
426,67,71351,1,10,0:1:0:0:
432,60,71408,1,0,0:0:0:0:
438,52,71466,2,0,L|433:126,1,75.0000028610231
358,318,71581,5,2,42:1:0:0:
352,325,71639,1,0,0:0:0:0:
346,333,71697,2,0,L|351:253,1,75.0000028610231
362,104,71812,1,10,0:1:0:0:
356,97,71870,1,0,0:0:0:0:
350,89,71927,2,0,L|355:169,1,75.0000028610231
429,303,72043,5,2,42:1:0:0:
387,335,72100,1,0,0:0:0:0:
334,339,72158,1,0,0:0:0:0:
286,316,72216,1,0,0:0:0:0:
258,271,72273,1,8,0:1:0:0:
220,233,72331,1,0,0:0:0:0:
168,221,72389,1,2,0:1:0:0:
117,235,72447,1,2,0:1:0:0:
85,276,72504,6,0,P|75:312|81:349,1,75.0000028610231,2|0,3:1|0:0,0:0:0:0:
177,188,72620,1,0,0:0:0:0:
172,184,72677,2,0,P|145:157|110:144,1,75.0000028610231,2|8,0:1|0:1,0:0:0:0:
200,306,72793,1,0,0:0:0:0:
208,305,72850,2,0,P|244:295|273:271,1,75.0000028610231,2|0,0:1|0:0,0:0:0:0:
295,34,72966,5,2,42:1:0:0:
299,42,73023,1,0,0:0:0:0:
303,49,73081,2,0,L|381:53,1,75.0000028610231
441,137,73196,1,10,0:1:0:0:
437,145,73254,1,0,0:0:0:0:
433,152,73312,2,0,L|358:155,1,75.0000028610231
291,245,73427,5,0,42:1:0:0:
291,245,73485,1,0,0:0:0:0:
291,245,73542,2,0,L|248:179,1,75.0000028610231
139,168,73658,1,10,0:1:0:0:
139,168,73715,1,0,0:0:0:0:
139,168,73773,2,0,L|174:98,1,75.0000028610231
329,319,73888,6,0,B|296:331|296:331|258:320,1,75.0000028610231,6|0,3:1|0:0,0:0:0:0:
76,267,74004,2,0,B|109:255|109:255|147:266,1,75.0000028610231
226,384,74119,2,0,L|220:234,1,150.000005722046,10|0,0:1|0:0,0:0:0:0:
308,177,74292,1,2,0:1:0:0:
314,172,74350,6,0,L|316:97,1,75.0000028610231,2|0,3:1|0:0,0:0:0:0:
212,48,74465,2,0,L|214:122,1,75.0000028610231,2|0,0:1|0:0,0:0:0:0:
319,166,74580,2,0,L|321:91,1,75.0000028610231,10|0,0:1|0:0,0:0:0:0:
217,42,74696,2,0,L|219:116,1,75.0000028610231,2|0,0:1|0:0,0:0:0:0:
419,216,74811,6,0,B|457:227|457:227|490:215,1,75.0000028610231,4|0,3:1|0:0,0:0:0:0:
231,337,74926,2,0,B|198:349|198:349|160:338,1,75.0000028610231,2|0,0:1|0:0,0:0:0:0:
397,126,75042,2,0,L|391:275,1,150.000005722046,10|0,0:1|0:0,0:0:0:0:
316,379,75215,1,2,0:1:0:0:
311,384,75272,6,0,L|315:304,1,75.0000028610231,2|0,3:1|0:0,0:0:0:0:
474,244,75388,2,0,L|477:168,1,75.0000028610231,2|0,0:1|0:0,0:0:0:0:
306,379,75503,2,0,L|310:299,1,75.0000028610231,10|0,0:1|0:0,0:0:0:0:
469,240,75618,2,0,L|473:160,1,75.0000028610231,2|0,0:1|0:0,0:0:0:0:
284,169,75734,6,0,P|247:159|210:165,1,75.0000028610231,4|0,3:1|0:0,0:0:0:0:
109,275,75849,2,0,P|134:248|149:207,1,75.0000028610231,2|0,0:1|0:0,0:0:0:0:
105,72,75964,1,2,0:1:0:0:
105,72,76022,1,0,0:0:0:0:
105,72,76080,2,0,P|115:107|143:140,1,75.0000028610231
256,308,76195,6,0,L|221:241,1,75.0000028610231,4|0,3:1|0:0,0:0:0:0:
0,180,76310,2,0,L|74:183,1,75.0000028610231,2|0,0:1|0:0,0:0:0:0:
241,27,76426,1,10,0:1:0:0:
241,27,76483,1,0,0:0:0:0:
241,27,76541,2,0,L|200:89,1,75.0000028610231
109,275,76656,5,6,42:1:0:0:
133,337,76714,1,0,0:0:0:0:
190,371,76772,1,0,0:0:0:0:
257,359,76829,1,2,0:1:0:0:
301,308,76887,1,12,0:1:0:0:
302,240,76945,1,0,0:0:0:0:
259,187,77002,1,2,0:1:0:0:
235,123,77060,1,0,0:0:0:0:
251,57,77118,1,6,42:1:0:0:
300,11,77175,1,0,0:0:0:0:
366,1,77233,1,0,0:0:0:0:
428,28,77291,1,0,0:0:0:0:
464,84,77348,1,12,0:1:0:0:
466,151,77406,1,0,0:0:0:0:
429,207,77464,1,0,0:0:0:0:
367,233,77521,1,0,0:0:0:0:
299,221,77579,6,0,B|216:216|216:216|180:260|180:260|84:255,1,225.000008583069,6|0,3:1|0:0,0:0:0:0:
48,150,77810,2,0,L|123:147,1,75.0000028610231,8|0,0:1|0:0,0:0:0:0:
259,318,77925,1,2,0:1:0:0:
259,318,77983,1,2,0:1:0:0:
259,318,78041,6,0,L|333:321,1,75.0000028610231,2|0,3:1|0:0,0:0:0:0:
345,151,78156,1,0,0:0:0:0:
339,158,78214,2,0,L|298:220,1,75.0000028610231,2|8,0:1|0:1,0:0:0:0:
441,314,78329,1,0,0:0:0:0:
437,307,78387,2,0,L|402:240,1,75.0000028610231,2|0,0:1|0:0,0:0:0:0:
306,81,78502,5,2,42:1:0:0:
301,74,78560,1,0,0:0:0:0:
297,68,78617,2,0,P|261:62|221:73,1,75.0000028610231
23,176,78733,1,10,0:1:0:0:
28,183,78790,1,0,0:0:0:0:
33,190,78848,2,0,P|69:196|108:185,1,75.0000028610231
348,171,78963,5,2,42:1:0:0:
343,164,79021,1,0,0:0:0:0:
339,158,79079,2,0,P|303:152|263:163,1,75.0000028610231
65,266,79194,1,10,0:1:0:0:
70,273,79252,1,0,0:0:0:0:
75,280,79309,2,0,P|111:286|150:275,1,75.0000028610231
307,322,79425,5,2,42:1:0:0:
354,343,79482,1,0,0:0:0:0:
406,338,79540,1,0,0:0:0:0:
448,308,79598,1,0,0:0:0:0:
470,260,79655,1,8,0:1:0:0:
464,207,79713,1,0,0:0:0:0:
431,165,79771,1,2,0:1:0:0:
381,147,79828,1,2,0:1:0:0:
329,155,79886,6,0,L|335:230,1,75.0000028610231,2|0,3:1|0:0,0:0:0:0:
223,94,80001,1,0,0:0:0:0:
222,103,80059,2,0,L|216:178,1,75.0000028610231,2|8,0:1|0:1,0:0:0:0:
102,40,80174,1,0,0:0:0:0:
103,50,80232,2,0,L|109:125,1,75.0000028610231,2|0,0:1|0:0,0:0:0:0:
130,306,80347,5,2,42:1:0:0:
126,312,80405,1,0,0:0:0:0:
122,319,80463,2,0,L|116:244,1,75.0000028610231
13,193,80578,1,10,0:1:0:0:
9,187,80636,1,0,0:0:0:0:
5,180,80693,2,0,L|-1:255,1,75.0000028610231
200,364,80809,5,2,42:1:0:0:
200,364,80866,1,0,0:0:0:0:
200,364,80924,2,0,L|274:358,1,75.0000028610231
254,247,81039,1,10,0:1:0:0:
254,247,81097,1,0,0:0:0:0:
254,247,81155,2,0,L|328:253,1,75.0000028610231
392,351,81270,6,0,B|431:358|431:358|466:343,1,75.0000028610231,4|0,3:1|0:0,0:0:0:0:
359,188,81385,2,0,B|333:218|333:218|328:256,1,75.0000028610231,2|0,0:1|0:0,0:0:0:0:
512,237,81501,2,0,L|501:83,1,150.000005722046,10|0,0:1|0:0,0:0:0:0:
503,11,81674,1,2,0:1:0:0:
495,12,81731,6,0,L|407:16,1,75.0000028610231,2|0,3:1|0:0,0:0:0:0:
312,116,81847,2,0,L|386:112,1,75.0000028610231,2|0,0:1|0:0,0:0:0:0:
341,18,81962,2,0,L|253:22,1,75.0000028610231,10|0,0:1|0:0,0:0:0:0:
158,122,82077,2,0,L|232:118,1,75.0000028610231,2|0,0:1|0:0,0:0:0:0:
379,184,82193,6,0,B|392:151|392:151|385:112,1,75.0000028610231,4|0,3:1|0:0,0:0:0:0:
279,313,82308,2,0,B|265:345|265:345|272:384,1,75.0000028610231,2|0,0:1|0:0,0:0:0:0:
453,213,82423,2,0,L|290:219,1,150.000005722046,10|0,0:1|0:0,0:0:0:0:
197,168,82596,1,2,0:1:0:0:
198,177,82654,6,0,L|201:251,1,75.0000028610231,2|0,3:1|0:0,0:0:0:0:
97,296,82769,2,0,L|101:222,1,75.0000028610231,2|0,0:1|0:0,0:0:0:0:
306,143,82885,2,0,L|302:217,1,75.0000028610231,10|0,0:1|0:0,0:0:0:0:
3,338,83000,2,0,L|0:263,1,75.0000028610231,2|0,0:1|0:0,0:0:0:0:
129,68,83115,5,6,42:1:0:0:
129,68,83173,1,0,0:0:0:0:
129,68,83231,2,0,P|166:79|193:101,1,75.0000028610231
38,109,83346,1,10,0:1:0:0:
38,109,83404,1,0,0:0:0:0:
38,109,83462,2,0,P|29:71|35:36,1,75.0000028610231
116,242,83577,6,0,L|120:168,1,75.0000028610231,6|0,3:1|0:0,0:0:0:0:
206,309,83692,1,0,0:0:0:0:
205,301,83750,2,0,L|201:226,1,75.0000028610231,2|8,0:1|0:1,0:0:0:0:
296,101,83865,1,0,0:0:0:0:
296,109,83923,2,0,L|292:183,1,75.0000028610231
363,342,84038,5,6,42:1:0:0:
429,350,84096,1,0,0:0:0:0:
481,306,84154,1,0,0:0:0:0:
481,238,84211,1,0,0:0:0:0:
431,192,84269,1,14,0:1:0:0:
364,199,84327,1,0,0:0:0:0:
325,254,84384,1,0,0:0:0:0:
291,313,84442,1,0,0:0:0:0:
227,334,84500,1,6,42:1:0:0:
167,302,84557,1,0,0:0:0:0:
147,237,84615,1,0,0:0:0:0:
177,175,84673,1,0,0:0:0:0:
240,153,84730,1,14,0:1:0:0:
268,92,84788,1,0,0:0:0:0:
247,27,84846,1,0,0:0:0:0:
184,0,84903,1,0,0:0:0:0:
120,22,84961,5,6,42:1:0:0:
121,31,85019,1,0,0:0:0:0:
122,40,85076,2,0,L|126:115,1,75.0000028610231
197,225,85192,2,0,L|130:190,1,75.0000028610231,8|0,0:1|0:0,0:0:0:0:
0,196,85307,2,0,L|62:155,1,75.0000028610231,2|0,0:1|0:0,0:0:0:0:
255,109,85422,5,2,42:1:0:0:
255,109,85480,1,0,0:0:0:0:
255,108,85538,2,0,P|291:101|327:111,1,75.0000028610231
454,179,85653,2,0,P|480:153|493:118,1,75.0000028610231,8|0,0:1|0:0,0:0:0:0:
377,45,85768,2,0,P|401:73|410:109,1,75.0000028610231,2|0,0:1|0:0,0:0:0:0:
333,256,85884,6,0,L|329:330,1,75.0000028610231,2|0,3:1|0:0,0:0:0:0:
233,382,85999,1,0,0:0:0:0:
233,374,86057,2,0,L|229:299,1,75.0000028610231,2|8,0:1|0:1,0:0:0:0:
428,214,86172,1,0,0:0:0:0:
428,222,86230,2,0,L|424:296,1,75.0000028610231,2|0,0:1|0:0,0:0:0:0:
132,338,86345,5,2,41:1:0:0:
132,338,86403,1,0,0:0:0:0:
132,338,86460,2,0,P|108:309|98:273,1,75.0000028610231
237,202,86576,2,0,P|224:237|198:264,1,75.0000028610231,10|0,0:1|0:0,0:0:0:0:
67,179,86691,2,0,P|103:172|139:182,1,75.0000028610231,2|0,0:1|0:0,0:0:0:0:
294,285,86806,6,0,L|368:279,1,75.0000028610231,2|0,3:1|0:0,0:0:0:0:
238,384,86922,1,0,0:0:0:0:
263,383,86979,2,0,L|338:378,1,75.0000028610231,2|8,0:1|0:1,0:0:0:0:
124,215,87095,1,0,0:0:0:0:
149,214,87152,2,0,L|223:208,1,75.0000028610231,2|0,0:1|0:0,0:0:0:0:
462,306,87268,6,0,B|470:271|470:271|457:234,1,75.0000028610231,2|0,3:1|0:0,0:0:0:0:
496,121,87383,1,0,0:0:0:0:
489,123,87441,2,0,B|454:133|454:133|429:163,1,75.0000028610231,2|8,0:1|0:1,0:0:0:0:
311,186,87556,1,0,0:0:0:0:
317,191,87614,2,0,B|343:215|343:215|381:222,1,75.0000028610231,2|0,0:1|0:0,0:0:0:0:
345,9,87729,6,0,L|339:83,1,75.0000028610231,2|0,3:1|0:0,0:0:0:0:
231,259,87844,1,0,0:0:0:0:
229,237,87902,2,0,L|223:163,1,75.0000028610231,2|0,0:1|0:1,0:0:0:0:
436,33,88017,1,0,0:0:0:0:
434,55,88075,2,0,L|428:129,1,75.0000028610231,2|0,0:1|0:0,0:0:0:0:
272,331,88190,6,0,P|236:341|199:335,1,75.0000028610231,2|0,3:1|0:0,0:0:0:0:
180,152,88306,1,0,0:0:0:0:
187,157,88363,2,0,P|213:182|227:217,1,75.0000028610231,2|8,0:1|0:1,0:0:0:0:
77,326,88479,1,0,0:0:0:0:
79,318,88536,2,0,P|87:281|111:253,1,75.0000028610231,2|0,0:1|0:0,0:0:0:0:
295,124,88652,5,6,42:1:0:0:
301,120,88709,1,0,0:0:0:0:
307,114,88767,2,0,L|301:40,1,75.0000028610231
389,159,88882,2,0,L|456:190,1,75.0000028610231,8|0,0:1|0:0,0:0:0:0:
309,207,88998,2,0,L|247:249,1,75.0000028610231,2|0,0:1|0:0,0:0:0:0:
387,66,89113,5,2,42:1:0:0:
387,66,89171,1,0,0:0:0:0:
387,66,89229,2,0,L|448:23,1,75.0000028610231
390,252,89344,2,0,L|396:326,1,75.0000028610231,8|0,0:1|0:0,0:0:0:0:
228,162,89459,2,0,L|160:130,1,75.0000028610231,2|0,0:1|0:0,0:0:0:0:
389,159,89575,6,0,B|427:166|427:166|453:190,1,75.0000028610231,6|0,3:1|0:0,0:0:0:0:
310,200,89690,1,0,0:0:0:0:
309,207,89748,2,0,B|301:245|301:245|277:271,1,75.0000028610231,2|8,0:1|0:1,0:0:0:0:
310,122,89863,1,0,0:0:0:0:
307,114,89921,2,0,B|294:77|294:77|301:42,1,75.0000028610231,2|0,0:1|0:0,0:0:0:0:
428,289,90036,5,2,42:1:0:0:
390,252,90094,1,0,0:0:0:0:
338,240,90151,1,0,0:0:0:0:
288,257,90209,1,0,0:0:0:0:
253,296,90267,1,8,0:1:0:0:
215,333,90324,1,0,0:0:0:0:
163,345,90382,1,2,0:1:0:0:
113,328,90440,1,2,0:1:0:0:
78,289,90497,5,6,42:1:0:0:
79,281,90555,1,0,0:0:0:0:
80,273,90613,2,0,L|83:198,1,75.0000028610231
195,129,90728,1,10,0:1:0:0:
195,129,90786,1,0,0:0:0:0:
195,129,90843,2,0,L|192:204,1,75.0000028610231
299,282,90959,5,6,42:1:0:0:
299,282,91016,1,0,0:0:0:0:
299,282,91074,2,0,L|302:207,1,75.0000028610231
413,137,91189,1,10,0:1:0:0:
413,137,91247,1,0,0:0:0:0:
413,137,91305,2,0,L|410:212,1,75.0000028610231
295,364,91420,5,6,42:1:0:0:
258,354,91478,1,0,0:0:0:0:
229,328,91535,1,0,0:0:0:0:
218,292,91593,1,0,0:0:0:0:
221,254,91651,1,14,0:1:0:0:
241,222,91708,1,0,0:0:0:0:
273,203,91766,1,0,0:0:0:0:
310,200,91824,1,0,0:0:0:0:
345,212,91881,1,4,42:1:0:0:
382,207,91939,1,0,0:0:0:0:
413,185,91997,1,0,0:0:0:0:
432,152,92054,1,0,0:0:0:0:
432,114,92112,1,12,0:1:0:0:
416,80,92170,1,0,0:0:0:0:
387,56,92227,1,2,0:1:0:0:
350,47,92285,1,2,0:1:0:0:
313,56,92343,5,6,42:1:0:0:
317,123,92400,1,0,0:0:0:0:
320,190,92458,1,0,0:0:0:0:
322,258,92516,1,0,0:0:0:0:
326,325,92573,1,14,0:1:0:0:
382,288,92631,1,0,0:0:0:0:
390,221,92689,1,0,0:0:0:0:
347,168,92746,1,0,0:0:0:0:
279,167,92804,1,6,42:1:0:0:
232,215,92862,1,0,0:0:0:0:
209,278,92919,1,0,0:0:0:0:
148,308,92977,1,0,0:0:0:0:
81,296,93035,1,14,0:1:0:0:
38,243,93092,1,0,0:0:0:0:
39,175,93150,1,0,0:0:0:0:
83,124,93208,1,0,0:0:0:0:
150,113,93265,6,0,L|146:192,1,75.0000028610231,4|0,3:1|0:0,0:0:0:0:
216,312,93381,1,2,0:1:0:0:
208,306,93438,2,0,L|145:265,1,75.0000028610231,0|12,0:0|0:1,0:0:0:0:
2,263,93554,1,2,0:1:0:0:
10,258,93611,2,0,L|76:223,1,75.0000028610231
276,177,93727,5,6,42:1:0:0:
346,151,93784,1,0,0:0:0:0:
417,172,93842,1,0,0:0:0:0:
460,232,93900,1,0,0:0:0:0:
458,307,93957,1,12,0:1:0:0:
412,366,94015,1,0,0:0:0:0:
339,384,94073,1,0,0:0:0:0:
270,353,94130,1,0,0:0:0:0:
235,286,94188,5,4,42:1:0:0:
246,281,94246,1,0,0:0:0:0:
258,279,94303,1,0,0:0:0:0:
270,278,94361,1,0,0:0:0:0:
282,279,94419,1,8,0:1:0:0:
294,282,94476,1,0,0:0:0:0:
305,286,94534,2,0,P|337:292|372:285,1,62.5
458,269,94650,6,0,P|446:239|426:216,1,62.5,0|0,3:0|0:0,0:0:0:0:
331,206,94765,1,0,0:0:0:0:
334,199,94823,2,0,P|345:170|366:146,1,62.5,0|8,0:0|0:1,0:0:0:0:
459,137,94938,1,0,0:0:0:0:
457,130,94996,2,0,P|445:100|425:77,1,62.5
274,60,95111,5,0,42:0:0:0:
274,60,95169,1,0,0:0:0:0:
274,60,95226,2,0,L|211:63,1,62.5
238,149,95342,1,8,0:1:0:0:
238,149,95399,1,0,0:0:0:0:
238,149,95457,2,0,L|160:144,1,62.5
76,237,95572,5,0,42:0:0:0:
76,237,95630,1,0,0:0:0:0:
76,237,95688,2,0,L|154:232,1,62.5
49,322,95803,1,8,0:1:0:0:
49,322,95861,1,0,0:0:0:0:
49,322,95918,2,0,L|127:317,1,62.5
236,311,96034,5,0,42:0:0:0:
273,311,96091,1,0,0:0:0:0:
310,312,96149,1,0,0:0:0:0:
347,312,96207,1,0,0:0:0:0:
384,313,96264,2,0,L|379:235,1,62.5,8|0,0:1|0:0,0:0:0:0:
373,158,96380,1,0,0:0:0:0:
373,158,96437,1,0,0:0:0:0:
373,158,96495,6,0,L|367:80,1,62.5,0|0,3:0|0:0,0:0:0:0:
504,4,96610,1,0,0:0:0:0:
498,8,96668,2,0,L|432:51,1,62.5,0|8,0:0|0:1,0:0:0:0:
223,18,96783,1,0,0:0:0:0:
230,23,96841,2,0,L|299:58,1,62.5
409,233,96956,5,0,42:0:0:0:
409,233,97014,1,0,0:0:0:0:
409,233,97072,2,0,P|379:240|348:237,1,62.5
300,303,97187,1,8,0:1:0:0:
300,303,97245,1,0,0:0:0:0:
300,303,97302,2,0,P|278:281|265:253,1,62.5
183,243,97418,1,0,42:0:0:0:
183,243,97475,1,0,0:0:0:0:
183,243,97533,2,0,P|191:213|209:187,1,62.5
177,111,97648,2,0,P|207:103|238:106,1,62.5,8|0,0:1|0:0,0:0:0:0:
348,237,97764,1,0,0:0:0:0:
348,237,97821,1,0,0:0:0:0:
348,237,97879,6,0,L|344:168,1,62.5,4|0,3:1|0:0,0:0:0:0:
448,262,97994,2,0,L|445:200,1,62.5
280,374,98110,1,8,0:1:0:0:
280,374,98167,1,0,0:0:0:0:
280,374,98225,2,0,L|276:311,1,62.5
76,261,98340,6,0,B|48:254|48:254|16:264,1,62.5,0|0,3:0|0:0,0:0:0:0:
148,187,98456,2,0,B|168:166|168:166|174:133,1,62.5
176,286,98571,2,0,B|183:313|183:313|209:335,1,62.5,8|0,0:1|0:0,0:0:0:0:
69,184,98686,1,0,0:0:0:0:
69,184,98744,1,0,0:0:0:0:
69,184,98802,6,0,B|61:156|61:156|35:134,1,62.5,4|0,3:1|0:0,0:0:0:0:
215,223,98917,2,0,B|243:230|243:230|274:219,1,62.5
112,331,99032,1,8,0:1:0:0:
112,331,99090,1,0,0:0:0:0:
112,331,99148,2,0,B|91:351|91:351|85:384,1,62.5
237,145,99263,6,0,L|233:82,1,62.5,0|0,3:0|0:0,0:0:0:0:
357,224,99378,2,0,L|353:286,1,62.5
334,106,99494,2,0,L|337:43,1,62.5,8|0,0:1|0:0,0:0:0:0:
449,186,99609,1,0,0:0:0:0:
449,186,99667,1,0,0:0:0:0:
449,186,99724,6,0,L|512:183,1,62.5,4|0,3:1|0:0,0:0:0:0:
493,64,99840,2,0,L|430:67,1,62.5
357,224,99955,1,8,0:1:0:0:
330,239,100013,1,0,0:0:0:0:
299,246,100070,1,0,0:0:0:0:
267,240,100128,1,0,0:0:0:0:
241,222,100186,6,0,P|212:217|181:224,1,62.5,4|0,3:1|0:0,0:0:0:0:
81,306,100301,2,0,P|100:281|109:252,1,62.5
88,126,100417,1,8,0:1:0:0:
88,94,100474,1,0,0:0:0:0:
87,62,100532,1,0,0:0:0:0:
87,30,100590,1,0,0:0:0:0:
86,0,100647,5,4,42:1:0:0:
49,42,100705,1,0,0:0:0:0:
49,98,100763,1,0,0:0:0:0:
83,143,100820,1,0,0:0:0:0:
138,153,100878,1,12,0:1:0:0:
187,127,100936,1,0,0:0:0:0:
209,75,100993,1,0,0:0:0:0:
255,43,101051,1,0,0:0:0:0:
310,33,101109,1,4,42:1:0:0:
362,51,101166,1,0,0:0:0:0:
400,91,101224,1,0,0:0:0:0:
415,144,101282,1,0,0:0:0:0:
406,200,101339,1,12,0:1:0:0:
364,246,101397,1,0,0:0:0:0:
304,263,101455,1,0,0:0:0:0:
242,251,101512,1,0,0:0:0:0:
197,206,101570,5,4,42:1:0:0:
198,193,101628,1,0,0:0:0:0:
199,180,101685,1,0,0:0:0:0:
200,167,101743,1,0,0:0:0:0:
200,154,101801,1,8,0:1:0:0:
201,141,101858,1,0,0:0:0:0:
202,127,101916,2,0,L|205:59,1,62.5
345,71,102031,6,0,P|320:90|291:99,1,62.5,0|0,3:0|0:0,0:0:0:0:
55,52,102147,1,0,0:0:0:0:
63,58,102204,2,0,P|86:78|115:90,1,62.5,0|8,0:0|0:1,0:0:0:0:
328,228,102320,1,0,0:0:0:0:
322,224,102377,2,0,P|293:211|270:190,1,62.5
74,213,102493,5,0,42:0:0:0:
74,213,102550,1,0,0:0:0:0:
74,213,102608,2,0,L|71:281,1,62.5
163,251,102723,1,8,0:1:0:0:
163,251,102781,1,0,0:0:0:0:
163,251,102839,2,0,L|160:319,1,62.5
249,351,102954,5,0,42:0:0:0:
249,351,103012,1,0,0:0:0:0:
249,351,103069,2,0,L|311:353,1,62.5
411,333,103185,1,8,0:1:0:0:
411,333,103242,1,0,0:0:0:0:
411,333,103300,2,0,L|473:335,1,62.5
315,202,103415,5,0,42:0:0:0:
312,164,103473,1,0,0:0:0:0:
309,126,103531,1,0,0:0:0:0:
306,88,103588,1,0,0:0:0:0:
303,50,103646,6,0,P|281:72|271:101,1,62.5,8|0,0:1|0:0,0:0:0:0:
324,183,103761,1,0,0:0:0:0:
324,183,103819,1,0,0:0:0:0:
324,183,103877,6,0,P|354:190|384:184,1,62.5,0|0,3:0|0:0,0:0:0:0:
429,105,103992,1,0,0:0:0:0:
428,98,104050,2,0,P|419:68|398:45,1,62.5,0|8,0:0|0:1,0:0:0:0:
276,98,104165,1,0,0:0:0:0:
270,101,104223,2,0,L|208:99,1,62.5
113,70,104338,5,0,42:0:0:0:
113,70,104396,1,0,0:0:0:0:
113,70,104453,2,0,L|115:132,1,62.5
18,170,104569,1,8,0:1:0:0:
18,170,104626,1,0,0:0:0:0:
18,170,104684,2,0,L|20:108,1,62.5
191,195,104799,5,0,42:0:0:0:
191,195,104857,1,0,0:0:0:0:
191,195,104915,2,0,L|193:257,1,62.5
96,295,105030,1,8,0:1:0:0:
96,295,105088,1,0,0:0:0:0:
96,295,105145,2,0,L|98:233,1,62.5
207,98,105261,6,0,L|209:36,1,62.5,4|0,3:1|0:0,0:0:0:0:
338,130,105376,2,0,L|283:159,1,62.5
301,1,105491,1,8,0:1:0:0:
301,1,105549,1,0,0:0:0:0:
301,1,105607,2,0,L|353:33,1,62.5
492,97,105722,6,0,L|430:95,1,62.5,0|0,3:0|0:0,0:0:0:0:
322,226,105838,2,0,L|384:228,1,62.5
354,33,105953,2,0,L|292:31,1,62.5,8|0,0:1|0:0,0:0:0:0:
184,162,106068,2,0,L|246:164,1,62.5
459,289,106184,6,0,B|468:261|468:261|460:229,1,62.5,4|0,3:1|0:0,0:0:0:0:
387,347,106299,2,0,B|355:338|355:338|336:317,1,62.5
374,196,106414,1,8,0:1:0:0:
374,196,106472,1,0,0:0:0:0:
374,196,106530,2,0,B|345:202|345:202|321:225,1,62.5
211,343,106645,6,0,L|213:281,1,62.5,0|0,3:0|0:0,0:0:0:0:
100,194,106760,2,0,L|102:256,1,62.5
309,309,106876,2,0,L|307:247,1,62.5,8|0,0:1|0:0,0:0:0:0:
7,157,106991,2,0,L|5:219,1,62.5
211,343,107106,6,0,L|213:281,3,62.5,4|0|0|0,3:1|0:0|0:0|0:0,0:0:0:0:
102,256,107337,2,0,L|100:194,3,62.5,8|0|0|0,0:1|0:0|0:0|0:0,0:0:0:0:
52,77,107568,5,4,42:1:0:0:
64,78,107625,1,0,0:0:0:0:
77,79,107683,1,0,0:0:0:0:
90,80,107741,1,0,0:0:0:0:
103,80,107798,1,8,0:1:0:0:
116,81,107856,1,0,0:0:0:0:
129,82,107914,1,0,0:0:0:0:
142,83,107971,1,0,0:0:0:0:
155,84,108029,5,4,42:1:0:0:
192,42,108087,1,0,0:0:0:0:
247,33,108144,1,0,0:0:0:0:
294,63,108202,1,0,0:0:0:0:
313,115,108260,1,12,0:1:0:0:
293,167,108317,1,0,0:0:0:0:
244,195,108375,1,0,0:0:0:0:
188,185,108433,1,0,0:0:0:0:
154,139,108490,1,4,42:1:0:0:
101,118,108548,1,0,0:0:0:0:
46,132,108606,1,0,0:0:0:0:
7,173,108663,1,0,0:0:0:0:
0,228,108721,1,12,0:1:0:0:
19,280,108779,1,0,0:0:0:0:
64,313,108836,1,0,0:0:0:0:
120,314,108894,1,0,0:0:0:0:
169,285,108952,5,4,42:1:0:0:
168,278,109009,1,0,0:0:0:0:
167,270,109067,2,0,L|232:273,1,62.5
271,358,109182,2,0,L|206:361,1,62.5,8|0,0:1|0:0,0:0:0:0:
145,181,109298,2,0,L|208:179,1,62.5
324,278,109413,5,0,42:0:0:0:
354,299,109471,1,0,0:0:0:0:
391,302,109528,1,0,0:0:0:0:
426,289,109586,1,0,0:0:0:0:
451,261,109644,1,8,0:1:0:0:
463,225,109701,1,0,0:0:0:0:
455,188,109759,1,0,0:0:0:0:
433,157,109817,1,0,0:0:0:0:
399,139,109874,6,0,P|392:110|396:78,1,62.5,0|0,3:0|0:0,0:0:0:0:
255,68,109990,1,0,0:0:0:0:
262,64,110047,2,0,P|291:52|314:30,1,62.5,0|8,0:0|0:1,0:0:0:0:
323,190,110163,1,0,0:0:0:0:
317,186,110220,2,0,P|292:168|262:158,1,62.5
59,226,110336,6,0,L|55:164,1,62.5,0|0,3:0|0:0,0:0:0:0:
46,69,110451,1,0,0:0:0:0:
46,69,110509,1,0,0:0:0:0:
46,69,110566,2,0,L|102:96,1,62.5,8|0,0:1|0:0,0:0:0:0:
172,244,110682,1,0,0:0:0:0:
172,244,110739,1,0,0:0:0:0:
172,244,110797,6,0,B|184:273|184:273|176:306,1,62.5,0|0,3:0|0:0,0:0:0:0:
342,207,110912,1,0,0:0:0:0:
334,205,110970,2,0,B|302:200|302:200|279:179,1,62.5,0|8,0:0|0:1,0:0:0:0:
281,371,111085,1,0,0:0:0:0:
287,364,111143,2,0,B|306:339|306:339|335:329,1,62.5
252,123,111259,5,0,42:0:0:0:
252,123,111316,1,0,0:0:0:0:
252,123,111374,2,0,L|279:179,1,62.5
398,334,111489,2,0,L|335:329,1,62.5,8|0,0:1|0:0,0:0:0:0:
142,355,111605,2,0,L|177:303,1,62.5
430,155,111720,6,0,L|425:217,1,62.5,0|0,3:0|0:0,0:0:0:0:
335,336,111835,1,0,0:0:0:0:
335,329,111893,2,0,L|330:266,1,62.5,0|8,0:0|0:1,0:0:0:0:
507,109,112008,1,0,0:0:0:0:
508,117,112066,2,0,L|512:179,1,62.5
249,292,112181,6,0,L|253:229,1,62.5,0|0,3:0|0:0,0:0:0:0:
260,105,112297,1,0,0:0:0:0:
236,96,112354,1,0,0:0:0:0:
211,100,112412,1,8,0:1:0:0:
186,106,112470,1,0,0:0:0:0:
165,120,112527,1,0,0:0:0:0:
141,127,112585,1,0,0:0:0:0:
116,125,112643,5,4,42:1:0:0:
116,116,112700,1,0,0:0:0:0:
117,108,112758,2,0,L|120:45,1,62.5
21,144,112873,2,0,L|18:81,1,62.5,8|0,0:1|0:0,0:0:0:0:
193,235,112989,2,0,L|196:172,1,62.5
129,311,113104,5,0,42:0:0:0:
160,330,113162,1,0,0:0:0:0:
197,335,113219,1,0,0:0:0:0:
233,328,113277,1,0,0:0:0:0:
263,305,113335,1,8,0:1:0:0:
293,283,113392,1,0,0:0:0:0:
329,273,113450,1,0,0:0:0:0:
366,276,113508,1,0,0:0:0:0:
399,294,113565,6,0,P|406:322|401:355,1,62.5,4|0,3:1|0:0,0:0:0:0:
438,212,113681,1,0,0:0:0:0:
444,207,113738,2,0,P|464:186|495:174,1,62.5,0|8,0:0|0:1,0:0:0:0:
356,215,113854,1,0,0:0:0:0:
347,212,113911,2,0,P|319:204|293:183,1,62.5
181,69,114027,5,0,42:0:0:0:
207,42,114084,1,0,0:0:0:0:
242,29,114142,1,0,0:0:0:0:
279,34,114200,1,0,0:0:0:0:
310,54,114257,1,8,0:1:0:0:
328,86,114315,1,0,0:0:0:0:
333,122,114373,1,0,0:0:0:0:
321,157,114430,1,0,0:0:0:0:
293,183,114488,5,4,42:1:0:0:
287,189,114546,1,0,0:0:0:0:
280,195,114603,2,0,L|202:190,1,62.5
181,277,114719,1,8,0:1:0:0:
181,277,114776,1,0,0:0:0:0:
181,277,114834,2,0,L|243:273,1,62.5
127,139,114949,5,4,42:1:0:0:
127,139,115007,1,0,0:0:0:0:
127,139,115065,2,0,L|123:201,1,62.5
90,350,115180,1,8,0:1:0:0:
90,350,115238,1,0,0:0:0:0:
90,350,115295,2,0,L|86:287,1,62.5
65,84,115411,6,0,P|90:65|120:55,3,62.5,4|0|0|0,3:1|0:0|0:0|0:0,0:0:0:0:
206,112,115641,2,0,P|209:142|203:173,3,62.5,12|0|0|0,0:1|0:0|0:0|0:0,0:0:0:0:
111,219,115872,5,4,42:1:0:0:
112,231,115930,1,0,0:0:0:0:
113,243,115987,1,0,0:0:0:0:
114,255,116045,1,0,0:0:0:0:
95,271,116103,1,12,0:1:0:0:
94,283,116160,1,0,0:0:0:0:
93,295,116218,1,0,0:0:0:0:
93,307,116276,1,0,0:0:0:0:
92,331,116333,5,4,42:1:0:0:
146,301,116391,1,0,0:0:0:0:
206,315,116449,1,0,0:0:0:0:
239,368,116506,1,0,0:0:0:0:
299,382,116564,1,12,0:1:0:0:
354,354,116622,1,0,0:0:0:0:
370,293,116679,1,0,0:0:0:0:
341,237,116737,1,0,0:0:0:0:
280,217,116795,1,4,42:1:0:0:
242,166,116853,1,0,0:0:0:0:
236,103,116910,1,0,0:0:0:0:
260,45,116968,1,0,0:0:0:0:
312,10,117026,1,12,0:1:0:0:
374,8,117083,1,0,0:0:0:0:
428,37,117141,1,0,0:0:0:0:
461,89,117199,1,0,0:0:0:0:
460,152,117256,6,0,L|457:219,1,62.5,4|0,3:1|0:0,0:0:0:0:
449,301,117372,1,0,0:0:0:0:
449,308,117429,2,0,L|446:375,1,62.5,0|12,0:0|0:1,0:0:0:0:
345,172,117545,1,0,0:0:0:0:
345,179,117602,2,0,L|348:246,1,62.5
237,295,117718,5,4,42:1:0:0:
200,320,117775,1,0,0:0:0:0:
156,326,117833,1,0,0:0:0:0:
114,313,117891,1,0,0:0:0:0:
82,283,117948,1,12,0:1:0:0:
66,241,118006,1,0,0:0:0:0:
69,197,118064,1,0,0:0:0:0:
91,159,118121,1,0,0:0:0:0:
128,134,118179,6,0,P|152:130|177:134,3,50,6|0|0|0,3:1|0:0|0:0|0:0,0:0:0:0:
231,72,118410,1,8,0:1:0:0:
231,72,118467,1,0,0:0:0:0:
231,72,118525,2,0,P|245:89|256:115,1,50
233,313,118640,6,0,P|217:293|208:270,3,50,2|0|0|0,3:1|0:0|0:0|0:0,0:0:0:0:
127,254,118871,1,8,0:1:0:0:
127,254,118929,1,0,0:0:0:0:
127,254,118986,2,0,P|135:232|152:210,1,50
312,171,119102,5,2,42:1:0:0:
327,172,119159,1,0,0:0:0:0:
342,173,119217,1,2,0:1:0:0:
356,173,119275,1,0,0:0:0:0:
370,174,119332,2,8,L|421:177,1,50,8|0,0:1|0:0,0:1:0:0:
440,260,119448,2,0,L|390:257,1,50,2|0,0:1|0:0,0:0:0:0:
291,154,119563,6,0,L|294:205,1,50,2|0,3:1|0:0,0:0:0:0:
218,281,119678,2,0,L|215:231,1,50,2|0,0:1|0:0,0:0:0:0:
206,106,119794,1,8,0:1:0:0:
205,91,119851,1,0,0:0:0:0:
204,76,119909,1,0,0:0:0:0:
204,60,119967,1,0,0:0:0:0:
203,45,120024,6,0,P|178:41|150:47,1,50,2|0,3:1|0:0,0:0:0:0:
88,170,120140,2,0,P|103:151|112:128,1,50,2|0,0:1|0:0,0:0:0:0:
36,9,120255,1,8,0:1:0:0:
36,9,120313,1,0,0:0:0:0:
36,9,120370,2,0,P|44:32|60:51,1,50
205,123,120486,5,2,42:1:0:0:
230,137,120543,1,0,0:0:0:0:
259,140,120601,1,2,0:1:0:0:
288,133,120659,1,0,0:0:0:0:
313,116,120716,1,8,0:1:0:0:
339,101,120774,1,0,0:0:0:0:
367,93,120832,1,0,0:0:0:0:
396,97,120889,1,0,0:0:0:0:
422,110,120947,5,2,42:1:0:0:
422,124,121005,1,0,0:0:0:0:
422,138,121062,1,0,0:0:0:0:
421,152,121120,1,0,0:0:0:0:
421,167,121178,5,10,0:1:0:0:
419,137,121235,1,0,0:0:0:0:
417,107,121293,1,0,0:0:0:0:
415,77,121351,1,0,0:0:0:0:
413,46,121408,5,2,42:1:0:0:
473,69,121466,1,0,0:0:0:0:
510,121,121524,1,0,0:0:0:0:
511,185,121581,1,0,0:0:0:0:
481,242,121639,1,8,0:1:0:0:
423,273,121697,1,0,0:0:0:0:
358,268,121754,1,0,0:0:0:0:
306,229,121812,1,0,0:0:0:0:
286,167,121870,6,0,L|289:118,3,50,2|0|0|0,3:1|0:0|0:0|0:0,0:0:0:0:
187,81,122100,1,8,0:1:0:0:
187,81,122158,1,0,0:0:0:0:
187,81,122216,2,0,L|190:130,1,50
109,194,122331,6,0,L|106:243,3,50,2|0|0|0,3:1|0:0|0:0|0:0,0:0:0:0:
208,280,122562,1,8,0:1:0:0:
208,280,122620,1,0,0:0:0:0:
208,280,122677,2,0,L|205:231,1,50
182,364,122793,5,2,42:1:0:0:
196,363,122850,1,0,0:0:0:0:
211,362,122908,1,2,0:1:0:0:
225,361,122966,1,0,0:0:0:0:
239,360,123023,6,0,P|262:368|282:383,1,50,8|0,0:1|0:0,0:0:0:0:
441,330,123139,2,0,P|460:345|484:353,1,50,2|0,0:1|0:0,0:0:0:0:
378,276,123254,2,0,P|400:266|419:249,1,50,2|0,3:1|0:0,0:0:0:0:
300,304,123369,2,0,P|303:279|298:254,1,50,2|0,0:1|0:0,0:0:0:0:
247,155,123485,1,8,0:1:0:0:
261,150,123542,1,0,0:0:0:0:
275,148,123600,1,0,0:0:0:0:
289,150,123658,1,0,0:0:0:0:
303,153,123715,6,0,L|358:149,1,50,2|0,3:1|0:0,0:0:0:0:
396,61,123831,2,0,L|367:19,1,50,2|0,0:1|0:0,0:0:0:0:
247,72,123946,1,8,0:1:0:0:
247,72,124004,1,0,0:0:0:0:
247,72,124061,2,0,L|269:27,1,50
453,143,124177,5,2,42:1:0:0:
453,152,124234,1,0,0:0:0:0:
453,161,124292,1,2,0:1:0:0:
453,171,124350,1,0,0:0:0:0:
453,180,124407,1,8,0:1:0:0:
452,189,124465,1,0,0:0:0:0:
452,198,124523,1,0,0:0:0:0:
452,207,124580,1,0,0:0:0:0:
452,217,124638,5,2,42:1:0:0:
425,231,124696,1,0,0:0:0:0:
395,233,124753,1,0,0:0:0:0:
367,222,124811,1,0,0:0:0:0:
342,203,124869,1,10,0:1:0:0:
317,185,124926,1,0,0:0:0:0:
287,177,124984,1,0,0:0:0:0:
257,183,125042,1,0,0:0:0:0:
230,198,125099,5,2,42:1:0:0:
269,242,125157,1,0,0:0:0:0:
273,301,125215,1,2,0:1:0:0:
243,353,125272,1,0,0:0:0:0:
188,378,125330,1,8,0:1:0:0:
129,367,125388,1,0,0:0:0:0:
87,323,125445,1,0,0:0:0:0:
80,263,125503,1,0,0:0:0:0:
107,209,125561,5,6,42:1:0:0:
106,188,125618,1,0,0:0:0:0:
105,168,125676,1,0,0:0:0:0:
104,148,125734,1,0,0:0:0:0:
103,128,125791,1,8,0:1:0:0:
102,107,125849,1,0,0:0:0:0:
101,87,125907,2,0,L|98:36,1,50
200,150,126022,5,2,42:1:0:0:
219,153,126080,1,0,0:0:0:0:
238,151,126137,1,0,0:0:0:0:
257,145,126195,1,0,0:0:0:0:
276,139,126253,1,8,0:1:0:0:
295,136,126310,1,0,0:0:0:0:
314,139,126368,2,0,P|340:143|370:137,1,50
406,17,126483,5,2,42:1:0:0:
396,17,126541,1,0,0:0:0:0:
385,17,126599,1,2,0:1:0:0:
375,17,126656,1,0,0:0:0:0:
363,17,126714,2,0,P|348:36|339:60,1,50,8|0,0:1|0:0,0:0:0:0:
443,120,126829,2,0,P|434:96|418:77,1,50,2|0,0:1|0:0,0:0:0:0:
363,139,126945,6,0,L|368:198,1,50,2|0,3:1|0:0,0:0:0:0:
428,247,127060,2,0,L|423:306,1,50,2|0,0:1|0:0,0:0:0:0:
393,375,127175,1,8,0:1:0:0:
373,372,127233,1,0,0:0:0:0:
352,369,127291,1,0,0:0:0:0:
332,366,127348,1,0,0:0:0:0:
312,364,127406,6,0,B|289:355|289:355|262:362,1,50,2|0,3:1|0:0,0:0:0:0:
165,384,127521,2,0,B|184:368|184:368|191:341,1,50,2|0,0:1|0:0,0:0:0:0:
221,246,127637,1,8,0:1:0:0:
221,246,127694,1,0,0:0:0:0:
221,246,127752,2,0,B|224:270|224:270|244:290,1,50
272,182,127868,5,2,42:1:0:0:
245,167,127925,1,0,0:0:0:0:
215,163,127983,1,2,0:1:0:0:
186,171,128041,1,0,0:0:0:0:
162,189,128098,1,8,0:1:0:0:
137,206,128156,1,0,0:0:0:0:
107,211,128214,1,0,0:0:0:0:
76,208,128271,1,0,0:0:0:0:
50,191,128329,5,2,42:1:0:0:
51,176,128387,1,0,0:0:0:0:
52,161,128444,1,0,0:0:0:0:
53,146,128502,1,0,0:0:0:0:
54,130,128560,5,10,0:1:0:0:
57,159,128617,1,0,0:0:0:0:
58,188,128675,1,0,0:0:0:0:
59,217,128733,1,0,0:0:0:0:
60,247,128790,5,2,42:1:0:0:
95,211,128848,1,0,0:0:0:0:
141,193,128906,1,2,0:1:0:0:
190,196,128963,1,0,0:0:0:0:
234,220,129021,1,8,0:1:0:0:
263,260,129079,1,0,0:0:0:0:
306,284,129136,1,0,0:0:0:0:
355,282,129194,1,0,0:0:0:0:
397,255,129252,5,6,42:1:0:0:
398,235,129309,1,0,0:0:0:0:
399,215,129367,1,0,0:0:0:0:
400,195,129425,1,0,0:0:0:0:
401,175,129482,1,8,0:1:0:0:
401,154,129540,1,0,0:0:0:0:
401,134,129598,2,0,L|403:79,1,50
303,101,129713,5,2,42:1:0:0:
284,109,129771,1,0,0:0:0:0:
264,112,129828,1,0,0:0:0:0:
244,110,129886,1,0,0:0:0:0:
225,102,129944,1,8,0:1:0:0:
206,94,130001,1,0,0:0:0:0:
186,91,130059,2,0,L|131:93,1,50
34,201,130174,5,6,42:1:0:0:
60,186,130232,1,0,0:0:0:0:
89,182,130290,1,2,0:1:0:0:
118,186,130347,1,0,0:0:0:0:
145,197,130405,1,8,0:1:0:0:
168,215,130463,1,0,0:0:0:0:
183,241,130520,2,0,P|189:265|184:295,1,50,2|0,0:1|0:0,0:0:0:0:
68,384,130636,5,2,42:1:0:0:
97,382,130693,1,0,0:0:0:0:
127,380,130751,1,2,0:1:0:0:
156,378,130809,1,0,0:0:0:0:
185,377,130866,1,8,0:1:0:0:
214,375,130924,1,0,0:0:0:0:
244,374,130982,2,0,L|306:370,1,50
431,287,131097,5,6,42:1:0:0:
457,257,131155,1,0,0:0:0:0:
464,217,131212,1,2,0:1:0:0:
452,178,131270,1,0,0:0:0:0:
422,150,131328,1,8,0:1:0:0:
383,139,131385,1,0,0:0:0:0:
344,147,131443,1,0,0:0:0:0:
314,174,131501,1,0,0:0:0:0:
300,211,131558,5,6,42:1:0:0:
343,200,131616,1,0,0:0:0:0:
373,167,131674,1,2,0:1:0:0:
382,122,131731,1,0,0:0:0:0:
368,79,131789,1,8,0:1:0:0:
331,52,131847,1,0,0:0:0:0:
286,47,131904,1,0,0:0:0:0:
245,67,131962,1,0,0:0:0:0:
222,105,132020,5,6,42:1:0:0:
225,134,132077,1,0,0:0:0:0:
228,163,132135,1,0,0:0:0:0:
231,193,132193,1,0,0:0:0:0:
234,222,132250,5,14,0:1:0:0:
235,182,132308,1,0,0:0:0:0:
237,142,132366,1,0,0:0:0:0:
238,102,132423,1,0,0:0:0:0:
239,61,132481,5,6,42:1:0:0:
188,29,132539,1,0,0:0:0:0:
128,32,132596,1,2,0:1:0:0:
80,68,132654,1,0,0:0:0:0:
63,126,132712,1,12,0:1:0:0:
78,183,132769,1,0,0:0:0:0:
126,218,132827,1,0,0:0:0:0:
185,221,132885,1,0,0:0:0:0:
236,189,132942,5,4,42:1:0:0:
