osu file format v14

[General]
AudioFilename: audio117,7.mp3
AudioLeadIn: 0
PreviewTime: 90287
Countdown: 0
SampleSet: Normal
StackLeniency: 0.2
Mode: 0
LetterboxInBreaks: 0
WidescreenStoryboard: 0

[Editor]
DistanceSpacing: 1.2
BeatDivisor: 4
GridSize: 32
TimelineZoom: 1.9

[Metadata]
Title:Bon Appetit S (Oldskool HappyHardcore Remix) (Short Ver.)
TitleUnicode:ぼなぺてぃーと♡S (Oldskool HappyHardcore Remix) (Short Ver.)
Artist:K A Z M A S A
ArtistUnicode:K A Z M A S A
Creator:BarkingMadDog
Version:blend s (200 bpm)
Source:ブレンド・S
Tags:Kazmasa Blend S Opening ブレンド・A Blend A 桜ノ宮苺香 Sakuranomiya Maika 和氣あず未 Waki Azumi日向夏帆 Hinata Kaho 鬼頭明里 Kitou Akari 星川麻冬 Hoshikawa Mafuyu 春野杏 Haruno Anzu stream stamina
BeatmapID:2082007
BeatmapSetID:859515

[Difficulty]
HPDrainRate:5.4
CircleSize:4
OverallDifficulty:9
ApproachRate:9.6
SliderMultiplier:2
SliderTickRate:1

[Events]
//Background and Video events
0,0,"blend s.png",0,0
//Break Periods
//Storyboard Layer 0 (Background)
//Storyboard Layer 1 (Fail)
//Storyboard Layer 2 (Pass)
//Storyboard Layer 3 (Foreground)
//Storyboard Sound Samples

[TimingPoints]
68,299.865060722675,4,1,1,35,1,0
7264,-100,4,1,1,35,0,0
9664,-100,4,1,1,45,0,0
16860,-100,4,1,1,45,0,0
19259,-100,4,1,1,50,0,0
38450,-80,4,1,1,60,0,0
69636,-100,4,1,1,50,0,0
79232,-80,4,1,1,70,0,0
91226,-66.6666666666667,4,1,1,80,0,1
122412,-80,4,1,1,60,0,0
153598,-100,4,1,1,50,0,0
172790,-100,4,1,1,50,0,0

[HitObjects]
152,94,7264,5,0,43:0:0:0:
153,103,7339,1,0,0:0:0:0:
154,113,7414,1,0,0:0:0:0:
154,122,7489,1,0,0:0:0:0:
155,131,7564,1,8,0:1:0:0:
156,140,7639,1,0,0:0:0:0:
157,149,7714,1,0,0:0:0:0:
158,159,7789,1,0,0:0:0:0:
158,168,7864,5,0,43:0:0:0:
129,159,7939,1,0,0:0:0:0:
99,162,8014,1,0,0:0:0:0:
72,175,8089,1,0,0:0:0:0:
50,196,8164,1,8,0:1:0:0:
39,224,8239,1,0,0:0:0:0:
37,253,8314,1,0,0:0:0:0:
45,281,8389,1,0,0:0:0:0:
62,305,8464,5,0,43:0:0:0:
95,267,8539,1,0,0:0:0:0:
143,254,8614,1,0,0:0:0:0:
191,268,8689,1,0,0:0:0:0:
224,304,8764,1,8,0:1:0:0:
245,349,8839,1,0,0:0:0:0:
294,372,8914,1,0,0:0:0:0:
348,365,8988,1,0,0:0:0:0:
385,323,9063,1,0,43:0:0:0:
388,268,9138,1,0,0:0:0:0:
355,223,9213,1,0,0:0:0:0:
302,207,9288,1,0,0:0:0:0:
268,162,9363,1,8,0:1:0:0:
272,107,9438,1,0,0:0:0:0:
309,66,9513,1,0,0:0:0:0:
363,56,9588,1,0,0:0:0:0:
410,84,9663,5,12,43:1:0:0:
178,207,9813,2,0,L|183:108,1,100,0|8,0:0|0:1,0:0:0:0:
325,29,10113,2,0,L|320:128,1,100,0|0,0:0|3:0,0:0:0:0:
174,211,10413,2,0,L|179:112,1,100,0|8,0:0|0:1,0:0:0:0:
321,33,10713,2,0,L|316:132,1,100,0|0,0:0|3:0,0:0:0:0:
170,215,11013,2,0,L|175:116,1,100,0|8,0:0|0:1,0:0:0:0:
317,37,11312,2,0,L|312:136,1,100,0|0,0:0|3:0,0:0:0:0:
305,235,11612,1,0,0:0:0:0:
400,91,11762,1,8,0:1:0:0:
394,190,11912,1,0,0:0:0:0:
317,37,12062,5,0,43:0:0:0:
170,215,12212,2,0,B|121:228|121:228|76:210,1,100,0|8,0:0|0:1,0:0:0:0:
30,53,12512,2,0,B|79:40|79:40|124:58,1,100,0|0,0:0|3:0,0:0:0:0:
172,222,12812,2,0,B|123:235|123:235|78:217,1,100,0|8,0:0|0:1,0:0:0:0:
32,60,13112,2,0,B|81:47|81:47|126:65,1,100,0|0,0:0|3:0,0:0:0:0:
175,230,13411,2,0,B|126:243|126:243|81:225,1,100,0|8,0:0|0:1,0:0:0:0:
35,68,13711,2,0,B|84:55|84:55|129:73,1,100,0|0,0:0|3:0,0:0:0:0:
178,236,14011,1,0,0:0:0:0:
294,112,14161,1,8,0:1:0:0:
129,73,14311,1,0,0:0:0:0:
271,204,14461,5,4,43:1:0:0:
459,151,14611,2,0,P|496:119|511:72,1,100,0|8,0:0|0:1,0:0:0:0:
271,204,14911,2,0,P|279:252|312:289,1,100,0|0,0:0|0:0,3:0:0:0:
386,86,15211,2,0,P|377:37|344:0,1,100,0|8,0:0|0:1,0:0:0:0:
271,204,15511,1,0,0:0:0:0:
459,151,15660,5,4,43:1:0:0:
195,107,15810,2,0,L|294:112,1,100,0|8,0:0|0:1,0:0:0:0:
439,275,16110,2,0,L|340:270,1,100,0|0,0:0|3:0,0:0:0:0:
175,231,16410,1,0,0:0:0:0:
366,179,16560,1,8,0:1:0:0:
316,360,16710,1,0,0:0:0:0:
257,145,16860,5,4,43:1:0:0:
258,135,16935,1,0,0:0:0:0:
259,125,17010,1,0,0:0:0:0:
260,115,17085,1,0,0:0:0:0:
261,105,17160,1,8,0:1:0:0:
262,95,17235,1,0,0:0:0:0:
263,84,17310,1,0,0:0:0:0:
264,74,17385,1,0,0:0:0:0:
265,64,17460,5,4,43:1:0:0:
285,86,17535,1,0,0:0:0:0:
291,115,17610,1,0,0:0:0:0:
287,144,17685,1,0,0:0:0:0:
268,167,17760,1,8,0:1:0:0:
243,183,17835,1,0,0:0:0:0:
213,187,17909,1,0,0:0:0:0:
183,179,17984,1,0,0:0:0:0:
159,160,18059,5,4,43:1:0:0:
207,148,18134,1,0,0:0:0:0:
254,163,18209,1,0,0:0:0:0:
283,203,18284,1,0,0:0:0:0:
283,252,18359,1,12,0:1:0:0:
302,297,18434,1,0,0:0:0:0:
343,323,18509,1,0,0:0:0:0:
393,324,18584,1,0,0:0:0:0:
438,303,18659,1,4,43:1:0:0:
470,264,18734,1,0,0:0:0:0:
477,214,18809,1,0,0:0:0:0:
456,167,18884,1,0,0:0:0:0:
418,134,18959,1,12,0:1:0:0:
395,89,19034,1,0,0:0:0:0:
401,39,19109,1,0,0:0:0:0:
437,4,19184,1,0,0:0:0:0:
487,0,19259,6,0,L|483:49,3,50,6|0|0|0,3:1|0:0|0:0|0:0,0:0:0:0:
512,129,19559,1,8,0:1:0:0:
512,129,19634,1,0,0:0:0:0:
512,129,19709,2,0,L|462:132,1,50
339,110,19859,6,0,L|342:159,3,50,2|0|0|0,3:1|0:0|0:0|0:0,0:0:0:0:
364,242,20158,1,8,0:1:0:0:
364,242,20233,1,0,0:0:0:0:
364,242,20308,2,0,L|314:239,1,50
214,233,20458,5,2,43:1:0:0:
198,232,20533,1,0,0:0:0:0:
183,231,20608,1,2,0:1:0:0:
168,230,20683,1,0,0:0:0:0:
153,229,20758,2,0,L|156:279,1,50,8|0,0:1|0:0,0:0:0:0:
83,382,20908,2,0,L|80:332,1,50,2|0,0:1|0:0,0:0:0:0:
19,241,21058,6,0,P|44:235|78:239,1,50,2|0,3:1|0:0,0:0:0:0:
167,378,21208,2,0,P|191:379|216:373,1,50,2|0,0:1|0:0,0:0:0:0:
331,280,21358,1,8,0:1:0:0:
344,276,21433,1,0,0:0:0:0:
358,274,21508,1,0,0:0:0:0:
372,276,21583,1,0,0:0:0:0:
387,279,21658,6,0,L|437:282,1,50,2|0,3:1|0:0,0:0:0:0:
371,155,21808,1,2,0:1:0:0:
371,155,21883,1,0,0:0:0:0:
371,155,21958,2,0,L|343:196,1,50,8|0,0:1|0:0,0:0:0:0:
486,203,22108,2,0,L|463:158,1,50
399,78,22258,5,2,43:1:0:0:
369,71,22332,1,0,0:0:0:0:
339,79,22407,1,2,0:1:0:0:
315,96,22482,1,0,0:0:0:0:
299,121,22557,1,8,0:1:0:0:
273,137,22632,1,0,0:0:0:0:
242,139,22707,1,0,0:0:0:0:
212,132,22782,1,0,0:0:0:0:
191,110,22857,5,2,43:1:0:0:
176,111,22932,1,0,0:0:0:0:
161,113,23007,1,0,0:0:0:0:
145,114,23082,1,0,0:0:0:0:
130,116,23157,5,10,0:1:0:0:
159,119,23232,1,0,0:0:0:0:
188,120,23307,1,0,0:0:0:0:
218,120,23382,1,0,0:0:0:0:
247,121,23457,5,2,43:1:0:0:
225,65,23532,1,0,0:0:0:0:
173,33,23607,1,2,0:1:0:0:
112,37,23682,1,0,0:0:0:0:
65,75,23757,1,8,0:1:0:0:
49,132,23832,1,0,0:0:0:0:
68,188,23907,1,0,0:0:0:0:
117,223,23982,1,0,0:0:0:0:
176,225,24057,6,0,L|233:229,3,50,2|0|0|0,3:1|0:0|0:0|0:0,0:0:0:0:
200,98,24357,1,8,0:1:0:0:
200,98,24432,1,0,0:0:0:0:
200,98,24507,2,0,L|203:147,1,50
211,312,24656,6,0,L|268:308,3,50,2|0|0|0,3:1|0:0|0:0|0:0,0:0:0:0:
352,340,24956,1,8,0:1:0:0:
352,340,25031,1,0,0:0:0:0:
352,340,25106,2,0,L|355:290,1,50
362,190,25256,5,2,43:1:0:0:
363,180,25331,1,0,0:0:0:0:
364,170,25406,1,2,0:1:0:0:
365,160,25481,1,0,0:0:0:0:
366,150,25556,6,0,L|370:85,1,50,8|0,0:1|0:0,0:0:0:0:
275,19,25706,2,0,L|278:68,1,50,2|0,0:1|0:0,0:0:0:0:
219,155,25856,6,0,L|169:151,1,50,2|0,3:1|0:0,0:0:0:0:
119,58,26006,2,0,L|69:61,1,50,2|0,0:1|0:0,0:0:0:0:
84,212,26156,1,8,0:1:0:0:
85,221,26231,1,0,0:0:0:0:
86,230,26306,1,0,0:0:0:0:
87,239,26381,1,0,0:0:0:0:
87,248,26456,6,0,P|69:265|46:274,1,50,2|0,3:1|0:0,0:0:0:0:
114,360,26606,1,2,0:1:0:0:
114,360,26681,1,0,0:0:0:0:
113,360,26755,2,0,P|137:366|157:382,1,50,8|0,0:1|0:0,0:0:0:0:
197,279,26905,2,0,P|192:255|195:231,1,50
306,319,27055,5,2,43:1:0:0:
315,318,27130,1,0,0:0:0:0:
325,317,27205,1,2,0:1:0:0:
334,316,27280,1,0,0:0:0:0:
343,315,27355,1,8,0:1:0:0:
352,315,27430,1,0,0:0:0:0:
362,315,27505,1,0,0:0:0:0:
371,314,27580,1,0,0:0:0:0:
380,313,27655,5,2,43:1:0:0:
355,295,27730,1,0,0:0:0:0:
326,284,27805,1,0,0:0:0:0:
296,287,27880,1,0,0:0:0:0:
269,301,27955,1,10,0:1:0:0:
249,323,28030,1,0,0:0:0:0:
221,335,28105,1,0,0:0:0:0:
190,336,28180,1,0,0:0:0:0:
162,325,28255,5,2,43:1:0:0:
209,288,28330,1,0,0:0:0:0:
234,233,28405,1,2,0:1:0:0:
226,172,28480,1,0,0:0:0:0:
188,125,28555,1,8,0:1:0:0:
132,102,28630,1,0,0:0:0:0:
72,110,28705,1,0,0:0:0:0:
26,149,28780,1,0,0:0:0:0:
5,205,28855,5,6,43:1:0:0:
24,204,28930,1,0,0:0:0:0:
43,202,29004,1,0,0:0:0:0:
63,201,29079,1,0,0:0:0:0:
82,199,29154,1,8,0:1:0:0:
101,198,29229,1,0,0:0:0:0:
120,196,29304,2,0,L|115:140,1,50
105,294,29454,5,2,43:1:0:0:
124,297,29529,1,0,0:0:0:0:
143,295,29604,1,0,0:0:0:0:
161,288,29679,1,0,0:0:0:0:
177,278,29754,1,8,0:1:0:0:
195,271,29829,1,0,0:0:0:0:
214,268,29904,2,0,P|240:264|272:273,1,50
390,359,30054,5,2,43:1:0:0:
383,356,30129,1,0,0:0:0:0:
376,353,30204,1,2,0:1:0:0:
369,349,30279,1,0,0:0:0:0:
360,343,30354,2,0,P|343:322|335:290,1,50,8|0,0:1|0:0,0:0:0:0:
328,224,30504,2,0,P|337:199|361:176,1,50,2|0,0:1|0:0,0:0:0:0:
451,259,30654,6,0,L|394:255,1,50,2|0,3:1|0:0,0:0:0:0:
204,193,30804,2,0,L|261:189,1,50,2|0,0:1|0:0,0:0:0:0:
384,94,30954,1,8,0:1:0:0:
385,73,31029,1,0,0:0:0:0:
387,53,31104,1,0,0:0:0:0:
390,33,31179,1,0,0:0:0:0:
391,13,31253,6,0,P|417:9|449:18,1,50,2|0,3:1|0:0,0:0:0:0:
316,75,31403,1,2,0:1:0:0:
316,75,31478,1,0,0:0:0:0:
316,75,31553,2,0,P|299:54|291:22,1,50,8|0,0:1|0:0,0:0:0:0:
408,109,31703,2,0,P|398:133|374:156,1,50
265,206,31853,5,2,43:1:0:0:
237,218,31928,1,0,0:0:0:0:
206,221,32003,1,2,0:1:0:0:
177,213,32078,1,0,0:0:0:0:
153,194,32153,1,8,0:1:0:0:
138,167,32228,1,0,0:0:0:0:
133,137,32303,1,0,0:0:0:0:
139,107,32378,1,0,0:0:0:0:
156,82,32453,5,2,43:1:0:0:
155,67,32528,1,0,0:0:0:0:
153,51,32603,1,0,0:0:0:0:
152,36,32678,1,0,0:0:0:0:
150,21,32753,5,10,0:1:0:0:
148,50,32828,1,0,0:0:0:0:
148,80,32903,1,0,0:0:0:0:
146,109,32978,1,0,0:0:0:0:
146,138,33053,5,2,43:1:0:0:
189,112,33128,1,0,0:0:0:0:
238,115,33203,1,2,0:1:0:0:
276,147,33278,1,0,0:0:0:0:
289,195,33353,1,8,0:1:0:0:
325,228,33427,1,0,0:0:0:0:
374,234,33502,1,0,0:0:0:0:
419,211,33577,1,0,0:0:0:0:
438,165,33652,5,6,43:1:0:0:
421,153,33727,1,0,0:0:0:0:
401,147,33802,1,0,0:0:0:0:
380,147,33877,1,0,0:0:0:0:
360,151,33952,1,8,0:1:0:0:
341,159,34027,1,0,0:0:0:0:
324,170,34102,2,0,L|328:223,1,50
355,322,34252,5,2,43:1:0:0:
335,326,34327,1,0,0:0:0:0:
315,327,34402,1,0,0:0:0:0:
295,322,34477,1,0,0:0:0:0:
276,313,34552,1,8,0:1:0:0:
256,307,34627,1,0,0:0:0:0:
236,305,34702,2,0,L|184:308,1,50
45,345,34852,5,6,43:1:0:0:
36,316,34927,1,0,0:0:0:0:
39,286,35002,1,2,0:1:0:0:
55,261,35077,1,0,0:0:0:0:
72,236,35152,1,8,0:1:0:0:
80,207,35227,1,0,0:0:0:0:
81,177,35302,2,0,L|77:115,1,50,2|0,0:1|0:0,0:0:0:0:
200,38,35452,5,2,43:1:0:0:
199,67,35527,1,0,0:0:0:0:
197,96,35602,1,2,0:1:0:0:
196,125,35676,1,0,0:0:0:0:
194,154,35751,1,8,0:1:0:0:
191,184,35826,1,0,0:0:0:0:
189,213,35901,2,0,L|185:262,1,50
331,359,36051,5,6,43:1:0:0:
370,367,36126,1,0,0:0:0:0:
409,358,36201,1,2,0:1:0:0:
438,330,36276,1,0,0:0:0:0:
451,292,36351,1,8,0:1:0:0:
444,252,36426,1,0,0:0:0:0:
421,219,36501,1,0,0:0:0:0:
385,200,36576,1,0,0:0:0:0:
345,203,36651,5,6,43:1:0:0:
384,234,36726,1,0,0:0:0:0:
433,234,36801,1,2,0:1:0:0:
475,208,36876,1,0,0:0:0:0:
492,161,36951,1,8,0:1:0:0:
481,112,37026,1,0,0:0:0:0:
443,78,37101,1,0,0:0:0:0:
393,74,37176,1,0,0:0:0:0:
349,98,37251,5,6,43:1:0:0:
319,96,37326,1,0,0:0:0:0:
288,93,37401,1,0,0:0:0:0:
258,90,37476,1,0,0:0:0:0:
228,87,37551,5,14,0:1:0:0:
267,84,37626,1,0,0:0:0:0:
307,85,37701,1,0,0:0:0:0:
346,82,37776,1,0,0:0:0:0:
385,79,37850,5,6,0:1:0:0:
365,135,37925,1,0,0:0:0:0:
316,171,38000,1,2,0:1:0:0:
256,170,38075,1,0,0:0:0:0:
208,133,38150,1,12,0:1:0:0:
166,90,38225,1,0,0:0:0:0:
107,77,38300,1,0,0:0:0:0:
51,102,38375,1,0,0:0:0:0:
21,154,38450,5,4,43:1:0:0:
22,166,38525,1,0,0:0:0:0:
23,178,38600,1,0,0:0:0:0:
24,190,38675,1,0,0:0:0:0:
25,202,38750,1,8,0:1:0:0:
26,214,38825,1,0,0:0:0:0:
26,226,38900,2,0,L|31:313,1,62.5
193,382,39050,6,0,L|198:295,1,62.5,0|0,3:0|0:0,0:0:0:0:
333,253,39200,1,0,0:0:0:0:
327,256,39275,2,0,L|249:295,1,62.5,0|8,0:0|0:1,0:0:0:0:
143,200,39425,1,0,0:0:0:0:
148,203,39500,2,0,L|220:250,1,62.5
410,289,39650,5,0,43:0:0:0:
410,289,39725,1,0,0:0:0:0:
409,289,39800,2,0,P|416:258|412:227,1,62.5
477,178,39950,1,8,0:1:0:0:
477,178,40025,1,0,0:0:0:0:
477,178,40099,2,0,P|451:155|421:144,1,62.5
414,64,40249,1,0,43:0:0:0:
414,64,40324,1,0,0:0:0:0:
414,64,40399,2,0,P|381:74|357:95,1,62.5
283,61,40549,1,8,0:1:0:0:
283,61,40624,1,0,0:0:0:0:
283,61,40699,2,0,P|275:94|282:125,1,62.5
214,172,40849,5,0,43:0:0:0:
176,168,40924,1,0,0:0:0:0:
138,165,40999,1,0,0:0:0:0:
100,162,41074,1,0,0:0:0:0:
62,160,41149,2,0,L|66:95,1,62.5,8|0,0:1|0:0,0:0:0:0:
130,280,41299,1,0,0:0:0:0:
130,280,41374,1,0,0:0:0:0:
130,280,41449,6,0,L|192:283,1,62.5,0|0,3:0|0:0,0:0:0:0:
237,378,41599,1,0,0:0:0:0:
229,380,41674,2,0,L|164:384,1,62.5,0|8,0:0|0:1,0:0:0:0:
147,189,41824,1,0,0:0:0:0:
155,187,41899,2,0,L|220:183,1,62.5
393,271,42049,5,0,43:0:0:0:
393,271,42124,1,0,0:0:0:0:
393,271,42199,2,0,P|427:276|464:267,1,62.5
340,206,42348,1,8,0:1:0:0:
340,206,42423,1,0,0:0:0:0:
340,206,42498,2,0,P|318:232|307:269,1,62.5
425,196,42648,1,0,43:0:0:0:
425,196,42723,1,0,0:0:0:0:
425,196,42798,2,0,P|414:166|394:142,1,62.5
423,65,42948,2,0,P|392:59|361:64,1,62.5,8|0,0:1|0:0,0:0:0:0:
238,115,43098,1,0,0:0:0:0:
238,115,43173,1,0,0:0:0:0:
238,115,43248,6,0,L|242:46,1,62.5,4|0,3:1|0:0,0:0:0:0:
145,7,43398,2,0,L|142:70,1,62.5
40,87,43548,1,8,0:1:0:0:
40,87,43623,1,0,0:0:0:0:
40,87,43698,2,0,L|36:149,1,62.5
259,211,43848,6,0,P|228:215|198:209,1,62.5,0|0,3:0|0:0,0:0:0:0:
97,222,43998,2,0,P|116:247|126:277,1,62.5
188,357,44148,2,0,P|200:329|221:306,1,62.5,8|0,0:1|0:0,0:0:0:0:
295,122,44298,1,0,0:0:0:0:
295,122,44373,1,0,0:0:0:0:
295,122,44448,6,0,L|357:125,1,62.5,4|0,3:1|0:0,0:0:0:0:
395,205,44597,2,0,L|333:209,1,62.5
407,52,44747,1,8,0:1:0:0:
407,52,44822,1,0,0:0:0:0:
407,52,44897,2,0,L|469:55,1,62.5
219,154,45047,6,0,P|212:124|216:93,1,62.5,0|0,3:0|0:0,0:0:0:0:
132,191,45197,2,0,P|107:172|78:164,1,62.5
141,36,45347,2,0,P|119:57|90:69,1,62.5,8|0,0:1|0:0,0:0:0:0:
208,248,45497,1,0,0:0:0:0:
208,248,45572,1,0,0:0:0:0:
208,248,45647,6,0,L|205:310,1,62.5,4|0,3:1|0:0,0:0:0:0:
120,348,45797,2,0,L|117:285,1,62.5
215,124,45947,1,8,0:1:0:0:
238,103,46022,1,0,0:0:0:0:
267,92,46097,1,0,0:0:0:0:
298,92,46172,1,0,0:0:0:0:
327,101,46247,6,0,P|361:107|400:98,1,62.5,4|0,3:1|0:0,0:0:0:0:
425,17,46397,2,0,P|391:11|352:20,1,62.5
280,174,46547,1,8,0:1:0:0:
282,205,46622,1,0,0:0:0:0:
285,235,46697,1,0,0:0:0:0:
288,265,46771,1,0,0:0:0:0:
290,297,46846,5,4,43:1:0:0:
234,283,46921,1,0,0:0:0:0:
180,300,46996,1,0,0:0:0:0:
148,346,47071,1,0,0:0:0:0:
95,365,47146,1,12,0:1:0:0:
41,348,47221,1,0,0:0:0:0:
10,300,47296,1,0,0:0:0:0:
13,244,47371,1,0,0:0:0:0:
47,199,47446,1,4,43:1:0:0:
101,186,47521,1,0,0:0:0:0:
152,162,47596,1,0,0:0:0:0:
179,113,47671,1,0,0:0:0:0:
168,57,47746,1,12,0:1:0:0:
127,18,47821,1,0,0:0:0:0:
70,12,47896,1,0,0:0:0:0:
21,39,47971,1,0,0:0:0:0:
0,91,48046,5,4,43:1:0:0:
12,90,48121,1,0,0:0:0:0:
24,89,48196,1,0,0:0:0:0:
36,88,48271,1,0,0:0:0:0:
48,87,48346,1,8,0:1:0:0:
60,86,48421,1,0,0:0:0:0:
72,86,48496,2,0,L|144:81,1,62.5
304,152,48646,6,0,L|242:148,1,62.5,0|0,3:0|0:0,0:0:0:0:
376,77,48796,1,0,0:0:0:0:
380,84,48871,2,0,L|407:140,1,62.5,0|8,0:0|0:1,0:0:0:0:
278,59,49020,1,0,0:0:0:0:
283,53,49095,2,0,L|317:1,1,62.5
369,231,49245,5,0,43:0:0:0:
369,231,49320,1,0,0:0:0:0:
369,231,49395,2,0,L|364:293,1,62.5
271,276,49545,1,8,0:1:0:0:
271,276,49620,1,0,0:0:0:0:
271,276,49695,2,0,L|275:338,1,62.5
189,380,49845,1,0,43:0:0:0:
189,380,49920,1,0,0:0:0:0:
189,380,49995,2,0,L|193:317,1,62.5
118,270,50145,1,8,0:1:0:0:
118,270,50220,1,0,0:0:0:0:
118,270,50295,2,0,L|113:207,1,62.5
208,82,50445,5,0,43:0:0:0:
239,62,50520,1,0,0:0:0:0:
275,54,50595,1,0,0:0:0:0:
311,63,50670,1,0,0:0:0:0:
338,86,50745,2,0,L|336:149,1,62.5,8|0,0:1|0:0,0:0:0:0:
408,220,50895,1,0,0:0:0:0:
408,220,50970,1,0,0:0:0:0:
408,220,51045,6,0,P|427:195|437:166,1,62.5,0|0,3:0|0:0,0:0:0:0:
264,220,51194,1,0,0:0:0:0:
260,215,51269,2,0,P|242:189|233:159,1,62.5,0|8,0:0|0:1,0:0:0:0:
376,313,51419,1,0,0:0:0:0:
381,316,51494,2,0,P|411:320|442:314,1,62.5
281,313,51644,5,0,43:0:0:0:
281,313,51719,1,0,0:0:0:0:
281,313,51794,2,0,L|217:316,1,62.5
155,384,51944,1,8,0:1:0:0:
155,384,52019,1,0,0:0:0:0:
155,384,52094,2,0,L|125:327,1,62.5
32,322,52244,1,0,43:0:0:0:
32,322,52319,1,0,0:0:0:0:
32,322,52394,2,0,L|61:265,1,62.5
31,178,52544,2,0,L|93:180,1,62.5,8|0,0:1|0:0,0:0:0:0:
191,185,52694,1,0,0:0:0:0:
191,185,52769,1,0,0:0:0:0:
191,185,52844,6,0,L|257:189,1,62.5,4|0,3:1|0:0,0:0:0:0:
214,102,52994,2,0,L|148:106,1,62.5
239,272,53144,1,8,0:1:0:0:
239,272,53219,1,0,0:0:0:0:
239,272,53294,2,0,L|305:268,1,62.5
475,178,53443,6,0,P|477:146|470:116,1,62.5,0|0,3:0|0:0,0:0:0:0:
411,241,53593,2,0,P|436:258|466:268,1,62.5
388,154,53743,2,0,P|359:167|336:188,1,62.5,8|0,0:1|0:0,0:0:0:0:
457,358,53893,1,0,0:0:0:0:
457,358,53968,1,0,0:0:0:0:
457,358,54043,6,0,L|390:354,1,62.5,4|0,3:1|0:0,0:0:0:0:
326,275,54193,2,0,L|259:279,1,62.5
195,358,54343,1,8,0:1:0:0:
195,358,54418,1,0,0:0:0:0:
195,358,54493,2,0,L|128:354,1,62.5
41,99,54643,6,0,B|71:104|71:104|95:124,1,62.5,0|0,3:0|0:0,0:0:0:0:
205,167,54793,2,0,B|184:190|184:190|155:201,1,62.5
64,275,54943,2,0,B|53:245|53:245|58:214,1,62.5,8|0,0:1|0:0,0:0:0:0:
193,81,55093,1,0,0:0:0:0:
193,81,55168,1,0,0:0:0:0:
193,81,55243,6,0,L|259:84,3,62.5,4|0|0|0,3:1|0:0|0:0|0:0,0:0:0:0:
286,200,55543,2,0,L|352:197,3,62.5,8|0|0|0,0:1|0:0|0:0|0:0,0:0:0:0:
436,177,55842,5,4,43:1:0:0:
434,188,55917,1,0,0:0:0:0:
434,201,55992,1,0,0:0:0:0:
433,213,56067,1,0,0:0:0:0:
432,225,56142,1,8,0:1:0:0:
431,237,56217,1,0,0:0:0:0:
430,249,56292,1,0,0:0:0:0:
429,261,56367,1,0,0:0:0:0:
429,273,56442,5,4,43:1:0:0:
481,252,56517,1,0,0:0:0:0:
503,200,56592,1,0,0:0:0:0:
491,145,56667,1,0,0:0:0:0:
445,112,56742,1,12,0:1:0:0:
388,118,56817,1,0,0:0:0:0:
348,157,56892,1,0,0:0:0:0:
342,212,56967,1,0,0:0:0:0:
307,256,57042,1,4,43:1:0:0:
252,272,57117,1,0,0:0:0:0:
198,256,57192,1,0,0:0:0:0:
161,213,57267,1,0,0:0:0:0:
155,157,57342,1,12,0:1:0:0:
180,106,57417,1,0,0:0:0:0:
227,75,57492,1,0,0:0:0:0:
283,76,57567,1,0,0:0:0:0:
328,108,57642,5,4,43:1:0:0:
327,115,57717,1,0,0:0:0:0:
326,122,57792,2,0,L|322:184,1,62.5
242,224,57941,2,0,L|238:162,1,62.5,8|0,0:1|0:0,0:0:0:0:
407,85,58091,2,0,L|411:147,1,62.5
445,260,58241,5,0,43:0:0:0:
409,239,58316,1,0,0:0:0:0:
371,239,58391,1,0,0:0:0:0:
336,252,58466,1,0,0:0:0:0:
307,276,58541,1,8,0:1:0:0:
279,301,58616,1,0,0:0:0:0:
242,307,58691,1,0,0:0:0:0:
205,298,58766,1,0,0:0:0:0:
175,274,58841,6,0,L|110:277,1,62.5,0|0,3:0|0:0,0:0:0:0:
74,361,58991,1,0,0:0:0:0:
84,360,59066,2,0,L|147:358,1,62.5,0|8,0:0|0:1,0:0:0:0:
208,189,59216,1,0,0:0:0:0:
201,189,59291,2,0,L|138:191,1,62.5
46,227,59441,6,0,B|35:197|35:197|42:168,1,62.5,0|0,3:0|0:0,0:0:0:0:
59,69,59591,1,0,0:0:0:0:
59,69,59666,1,0,0:0:0:0:
59,69,59741,2,0,B|90:74|90:74|112:95,1,62.5,8|0,0:1|0:0,0:0:0:0:
143,207,59891,1,0,0:0:0:0:
140,198,59966,1,0,0:0:0:0:
138,191,60041,6,0,L|206:189,1,62.5,0|0,3:0|0:0,0:0:0:0:
319,246,60190,1,0,0:0:0:0:
315,241,60265,2,0,L|279:183,1,62.5,0|8,0:0|0:1,0:0:0:0:
127,58,60415,1,0,0:0:0:0:
132,64,60490,2,0,L|167:121,1,62.5
211,312,60640,5,0,43:0:0:0:
211,312,60715,1,0,0:0:0:0:
211,312,60790,2,0,L|240:256,1,62.5
272,64,60940,2,0,L|242:119,1,62.5,8|0,0:1|0:0,0:0:0:0:
138,191,61090,2,0,L|206:189,1,62.5
326,121,61240,6,0,L|388:119,1,62.5,0|0,3:0|0:0,0:0:0:0:
430,205,61390,1,0,0:0:0:0:
422,203,61465,2,0,L|360:202,1,62.5,0|8,0:0|0:1,0:0:0:0:
318,287,61615,1,0,0:0:0:0:
325,287,61690,2,0,L|388:286,1,62.5
422,371,61840,6,0,L|360:370,1,62.5,0|0,3:0|0:0,0:0:0:0:
241,293,61990,1,0,0:0:0:0:
216,294,62065,1,0,0:0:0:0:
191,295,62140,1,8,0:1:0:0:
165,296,62215,1,0,0:0:0:0:
140,297,62290,1,0,0:0:0:0:
115,298,62364,1,0,0:0:0:0:
90,299,62439,5,4,43:1:0:0:
91,292,62514,1,0,0:0:0:0:
92,285,62589,2,0,L|96:223,1,62.5
168,170,62739,2,0,L|172:108,1,62.5,8|0,0:1|0:0,0:0:0:0:
12,248,62889,2,0,L|16:186,1,62.5
117,46,63039,5,0,43:0:0:0:
150,29,63114,1,0,0:0:0:0:
187,25,63189,1,0,0:0:0:0:
221,40,63264,1,0,0:0:0:0:
244,69,63339,1,8,0:1:0:0:
271,94,63414,1,0,0:0:0:0:
307,103,63489,1,0,0:0:0:0:
343,96,63564,1,0,0:0:0:0:
373,74,63639,6,0,P|400:53|429:45,1,62.5,4|0,3:1|0:0,0:0:0:0:
357,173,63789,1,0,0:0:0:0:
350,172,63864,2,0,P|318:157|297:137,1,62.5,0|8,0:0|0:1,0:0:0:0:
446,137,64014,1,0,0:0:0:0:
447,143,64089,2,0,P|450:177|443:205,1,62.5
345,332,64239,5,0,43:0:0:0:
317,357,64314,1,0,0:0:0:0:
280,367,64389,1,0,0:0:0:0:
242,359,64464,1,0,0:0:0:0:
212,335,64538,1,8,0:1:0:0:
197,300,64613,1,0,0:0:0:0:
198,262,64688,1,0,0:0:0:0:
216,229,64763,1,0,0:0:0:0:
246,207,64838,5,4,43:1:0:0:
251,214,64913,1,0,0:0:0:0:
257,220,64988,2,0,L|319:224,1,62.5
361,119,65138,1,8,0:1:0:0:
361,119,65213,1,0,0:0:0:0:
361,119,65288,2,0,L|299:123,1,62.5
194,136,65438,5,4,43:1:0:0:
194,136,65513,1,0,0:0:0:0:
194,136,65588,2,0,L|198:74,1,62.5
93,28,65738,1,8,0:1:0:0:
93,28,65813,1,0,0:0:0:0:
93,28,65888,2,0,L|97:90,1,62.5
105,197,66038,6,0,P|74:200|43:194,3,62.5,4|0|0|0,3:1|0:0|0:0|0:0,0:0:0:0:
203,244,66338,2,0,P|190:272|169:296,3,62.5,12|0|0|0,0:1|0:0|0:0|0:0,0:0:0:0:
292,182,66638,5,4,43:1:0:0:
291,170,66713,1,0,0:0:0:0:
290,158,66787,1,0,0:0:0:0:
288,146,66862,1,0,0:0:0:0:
280,123,66937,1,12,0:1:0:0:
281,111,67012,1,0,0:0:0:0:
282,99,67087,1,0,0:0:0:0:
284,87,67162,1,0,0:0:0:0:
288,62,67237,5,4,43:1:0:0:
342,29,67312,1,0,0:0:0:0:
404,35,67387,1,0,0:0:0:0:
449,77,67462,1,0,0:0:0:0:
461,138,67537,1,12,0:1:0:0:
437,195,67612,1,0,0:0:0:0:
381,224,67687,1,0,0:0:0:0:
319,215,67762,1,0,0:0:0:0:
274,171,67837,1,4,43:1:0:0:
212,161,67912,1,0,0:0:0:0:
156,190,67987,1,0,0:0:0:0:
130,246,68062,1,0,0:0:0:0:
139,307,68137,1,12,0:1:0:0:
184,349,68212,1,0,0:0:0:0:
246,357,68287,1,0,0:0:0:0:
301,329,68362,1,0,0:0:0:0:
326,272,68437,6,0,L|321:209,1,62.5,4|0,3:1|0:0,0:0:0:0:
312,131,68587,1,0,0:0:0:0:
311,125,68662,2,0,L|306:62,1,62.5,0|12,0:0|0:1,0:0:0:0:
434,240,68812,1,0,0:0:0:0:
434,232,68887,2,0,L|439:170,1,62.5
227,248,69036,5,4,43:1:0:0:
200,264,69111,1,0,0:0:0:0:
169,271,69186,1,0,0:0:0:0:
138,262,69261,1,0,0:0:0:0:
113,242,69336,1,12,0:1:0:0:
87,223,69411,1,0,0:0:0:0:
56,217,69486,1,0,0:0:0:0:
25,225,69561,1,0,0:0:0:0:
0,244,69636,6,0,P|18:260|40:271,3,50,6|0|0|0,3:1|0:0|0:0|0:0,0:0:0:0:
55,353,69936,2,0,P|78:344|99:331,1,50,8|0,0:1|0:0,0:0:0:0:
122,250,70086,1,2,0:1:0:0:
122,250,70161,1,2,0:1:0:0:
122,250,70236,6,0,L|119:199,1,50,2|0,3:1|0:0,0:0:0:0:
137,98,70386,2,0,L|134:48,1,50,2|0,0:1|0:0,0:0:0:0:
220,214,70536,2,0,L|217:164,1,50,10|0,0:1|0:0,0:0:0:0:
39,134,70686,2,0,L|36:84,1,50,2|0,0:1|0:0,0:0:0:0:
235,62,70836,5,2,43:1:0:0:
253,55,70911,1,0,0:0:0:0:
272,52,70986,1,0,0:0:0:0:
291,51,71061,1,0,0:0:0:0:
310,55,71136,1,8,0:1:0:0:
328,62,71210,1,0,0:0:0:0:
345,71,71285,1,2,0:1:0:0:
359,85,71360,1,2,0:1:0:0:
371,100,71435,6,0,P|396:104|423:100,1,50,2|0,3:1|0:0,0:0:0:0:
499,9,71585,2,0,P|483:28|473:54,1,50,2|0,0:1|0:0,0:0:0:0:
512,164,71735,2,0,P|502:140|485:118,1,50,10|0,0:1|0:0,0:0:0:0:
402,28,71885,2,0,P|377:24|352:27,1,50,2|0,0:1|0:0,0:0:0:0:
409,215,72035,5,2,43:1:0:0:
411,235,72110,1,0,0:0:0:0:
412,254,72185,1,0,0:0:0:0:
413,273,72260,1,0,0:0:0:0:
414,292,72335,1,8,0:1:0:0:
415,312,72410,1,0,0:0:0:0:
417,331,72485,1,2,0:1:0:0:
418,350,72560,1,2,0:1:0:0:
420,369,72635,6,0,P|443:359|462:343,1,50,2|0,3:1|0:0,0:0:0:0:
312,267,72785,2,0,P|293:253|269:245,1,50,2|0,0:1|0:0,0:0:0:0:
395,288,72935,2,0,P|398:263|394:238,1,50,10|0,0:1|0:0,0:0:0:0:
254,329,73085,2,0,P|230:339|211:355,1,50,2|0,0:1|0:0,0:0:0:0:
289,187,73235,5,2,43:1:0:0:
289,187,73310,1,0,0:0:0:0:
289,187,73385,2,0,L|284:133,1,50
449,121,73534,2,0,L|444:71,1,50,10|0,0:1|0:0,0:0:0:0:
369,153,73684,2,0,L|365:104,1,50,2|0,0:1|0:0,0:0:0:0:
293,0,73834,5,2,43:1:0:0:
293,0,73909,1,0,0:0:0:0:
293,0,73984,2,0,L|297:49,1,50
125,69,74134,2,0,L|130:119,1,50,10|0,0:1|0:0,0:0:0:0:
213,34,74284,2,0,L|209:84,1,50,2|0,0:1|0:0,0:0:0:0:
129,255,74434,5,2,43:1:0:0:
148,260,74509,1,0,0:0:0:0:
167,259,74584,1,0,0:0:0:0:
185,252,74659,1,0,0:0:0:0:
202,242,74734,1,8,0:1:0:0:
219,233,74809,1,0,0:0:0:0:
238,231,74884,1,2,0:1:0:0:
258,232,74959,1,2,0:1:0:0:
277,237,75034,6,0,P|283:262|279:292,1,50,2|0,3:1|0:0,0:0:0:0:
208,168,75184,2,0,P|226:150|249:140,1,50,2|0,0:1|0:0,0:0:0:0:
184,262,75334,2,0,P|160:255|139:240,1,50,10|0,0:1|0:0,0:0:0:0:
370,212,75484,2,0,P|393:218|414:233,1,50,2|0,0:1|0:0,0:0:0:0:
253,329,75633,5,2,43:1:0:0:
238,342,75708,1,0,0:0:0:0:
220,351,75783,1,0,0:0:0:0:
200,355,75858,1,0,0:0:0:0:
179,357,75933,1,8,0:1:0:0:
159,354,76008,1,0,0:0:0:0:
139,348,76083,1,2,0:1:0:0:
122,336,76158,1,2,0:1:0:0:
108,320,76233,6,0,L|111:270,1,50,2|0,3:1|0:0,0:0:0:0:
98,120,76383,2,0,L|101:170,1,50,2|0,0:1|0:0,0:0:0:0:
27,290,76533,2,0,L|24:240,1,50,10|0,0:1|0:0,0:0:0:0:
182,102,76683,2,0,L|179:152,1,50,2|0,0:1|0:0,0:0:0:0:
190,302,76833,5,6,43:1:0:0:
190,302,76908,1,0,0:0:0:0:
190,302,76983,2,0,L|240:299,1,50,2|0,0:1|0:1,0:0:0:0:
338,278,77133,1,10,0:1:0:0:
338,288,77208,1,2,0:1:0:0:
338,297,77283,1,2,0:1:0:0:
338,306,77358,1,0,0:0:0:0:
338,315,77433,6,0,L|335:365,1,50,6|0,3:1|0:0,0:0:0:0:
416,270,77583,1,0,0:0:0:0:
410,265,77658,2,0,L|368:237,1,50,2|8,0:1|0:1,0:0:0:0:
411,355,77808,1,0,0:0:0:0:
417,352,77882,2,0,L|461:329,1,50,2|0,0:1|0:0,0:0:0:0:
366,147,78032,5,4,43:1:0:0:
325,117,78107,1,0,0:0:0:0:
274,119,78182,1,2,0:1:0:0:
233,148,78257,1,0,0:0:0:0:
218,195,78332,1,14,0:1:0:0:
181,228,78407,1,2,0:1:0:0:
132,241,78482,1,2,0:1:0:0:
84,227,78557,1,0,0:0:0:0:
49,190,78632,5,6,43:1:0:0:
97,177,78707,1,0,0:0:0:0:
145,190,78782,1,0,0:0:0:0:
181,228,78857,1,2,0:1:0:0:
188,277,78932,1,12,0:1:0:0:
170,323,79007,1,0,0:0:0:0:
130,352,79082,1,2,0:1:0:0:
79,356,79157,1,0,0:0:0:0:
34,332,79232,6,0,P|26:300|32:268,1,62.5,6|0,3:1|0:0,0:0:0:0:
125,199,79382,2,0,P|155:208|180:227,1,62.5
192,343,79532,1,10,0:1:0:0:
192,343,79607,1,0,0:0:0:0:
192,343,79682,2,0,P|169:364|141:376,1,62.5
27,332,79832,6,0,P|19:300|25:268,1,62.5,2|0,3:1|0:0,0:0:0:0:
128,192,79982,2,0,P|159:201|184:222,1,62.5
196,349,80131,1,10,0:1:0:0:
196,349,80206,1,0,0:0:0:0:
196,349,80281,2,0,P|172:371|141:382,1,62.5
118,290,80431,6,0,L|122:227,1,62.5,2|0,3:1|0:0,0:0:0:0:
219,185,80581,2,0,L|224:248,1,62.5,2|0,0:1|0:0,0:0:0:0:
320,290,80731,2,0,L|324:227,1,62.5,10|0,0:1|0:0,0:0:0:0:
421,185,80881,2,0,L|425:247,1,62.5,2|0,0:1|0:0,0:0:0:0:
471,363,81031,6,0,L|408:358,1,62.5,2|0,3:1|0:0,0:0:0:0:
496,241,81181,1,0,0:0:0:0:
488,242,81256,2,0,L|425:246,1,62.5,0|10,0:0|0:1,0:0:0:0:
509,140,81406,1,0,0:0:0:0:
501,139,81481,2,0,L|438:134,1,62.5
228,222,81631,6,0,B|256:217|256:217|281:195,1,62.5,2|0,3:1|0:0,0:0:0:0:
300,73,81781,2,0,B|282:50|282:50|250:39,1,62.5
134,85,81931,1,10,0:1:0:0:
134,85,82006,1,0,0:0:0:0:
134,85,82081,2,0,B|123:111|123:111|130:144,1,62.5
232,228,82231,6,0,B|260:223|260:223|285:201,1,62.5,2|0,3:1|0:0,0:0:0:0:
303,66,82380,2,0,B|285:43|285:43|253:32,1,62.5
126,85,82530,1,10,0:1:0:0:
126,85,82605,1,0,0:0:0:0:
126,85,82680,2,0,B|115:111|115:111|122:144,1,62.5
221,128,82830,6,0,L|284:123,1,62.5,2|0,3:1|0:0,0:0:0:0:
325,212,82980,2,0,L|262:207,1,62.5,2|0,0:1|0:0,0:0:0:0:
158,291,83130,2,0,L|221:286,1,62.5,10|0,0:1|0:0,0:0:0:0:
262,375,83280,2,0,L|199:370,1,62.5,2|0,0:1|0:0,0:0:0:0:
16,192,83430,6,0,L|73:164,1,62.5,2|0,3:1|0:0,0:0:0:0:
87,74,83580,1,0,0:0:0:0:
93,79,83655,2,0,L|145:114,1,62.5,0|10,0:0|0:1,0:0:0:0:
73,323,83805,1,0,0:0:0:0:
73,316,83880,2,0,L|78:253,1,62.5
228,89,84030,6,0,L|223:152,1,62.5,2|0,3:1|0:0,0:0:0:0:
311,195,84180,2,0,L|306:132,1,62.5
386,22,84330,1,10,0:1:0:0:
386,22,84405,1,0,0:0:0:0:
386,22,84480,2,0,L|381:85,1,62.5
288,274,84629,6,0,P|318:277|348:268,1,62.5,2|0,3:1|0:0,0:0:0:0:
464,162,84779,2,0,P|445:186|438:216,1,62.5
472,370,84929,1,10,0:1:0:0:
472,370,85004,1,0,0:0:0:0:
472,370,85079,2,0,P|459:341|437:320,1,62.5
211,237,85229,6,0,L|206:300,1,62.5,2|0,3:1|0:0,0:0:0:0:
74,384,85379,2,0,L|69:321,1,62.5,2|0,0:1|0:0,0:0:0:0:
217,232,85529,2,0,L|212:295,1,62.5,10|0,0:1|0:0,0:0:0:0:
80,379,85679,2,0,L|75:316,1,62.5,2|0,0:1|0:0,0:0:0:0:
192,149,85829,5,2,43:1:0:0:
192,149,85904,1,0,0:0:0:0:
192,149,85979,2,0,L|255:154,1,62.5
103,236,86129,1,10,0:1:0:0:
103,236,86204,1,0,0:0:0:0:
103,236,86279,2,0,L|40:241,1,62.5,2|2,0:1|0:1,0:0:0:0:
230,69,86429,5,6,43:1:0:0:
230,69,86504,1,0,0:0:0:0:
230,69,86579,2,0,L|293:64,1,62.5
374,225,86729,1,10,0:1:0:0:
374,225,86803,1,0,0:0:0:0:
374,225,86878,2,0,L|311:230,1,62.5
438,151,87028,6,0,P|459:172|470:205,1,62.5,2|0,3:1|0:0,0:0:0:0:
342,285,87178,1,0,0:0:0:0:
345,278,87253,2,0,P|352:248|375:222,1,62.5,0|8,0:0|0:1,0:0:0:0:
509,293,87403,1,0,0:0:0:0:
502,296,87478,2,0,P|472:303|438:296,1,62.5,2|0,0:1|0:0,0:0:0:0:
343,132,87628,6,0,L|348:61,3,62.5,6|0|0|0,3:1|0:0|0:0|0:0,0:0:0:0:
214,277,87928,2,0,L|218:339,3,62.5,10|0|0|0,0:1|0:0|0:0|0:0,0:0:0:0:
183,186,88228,5,6,43:1:0:0:
184,173,88303,1,0,0:0:0:0:
185,160,88378,1,0,0:0:0:0:
186,147,88453,1,2,0:1:0:0:
187,134,88528,1,8,0:1:0:0:
188,121,88603,1,0,0:0:0:0:
189,108,88678,1,2,0:1:0:0:
190,95,88753,1,0,0:0:0:0:
191,82,88828,5,6,43:1:0:0:
155,46,88903,1,0,0:0:0:0:
105,38,88977,1,0,0:0:0:0:
59,57,89052,1,0,0:0:0:0:
29,97,89127,1,12,0:1:0:0:
27,146,89202,1,0,0:0:0:0:
50,190,89277,1,0,0:0:0:0:
94,213,89352,1,0,0:0:0:0:
143,215,89427,1,4,43:1:0:0:
185,240,89502,1,0,0:0:0:0:
204,285,89577,1,0,0:0:0:0:
200,335,89652,1,0,0:0:0:0:
168,373,89727,1,12,0:1:0:0:
119,383,89802,1,0,0:0:0:0:
69,374,89877,1,0,0:0:0:0:
36,335,89952,1,0,0:0:0:0:
29,285,90027,5,4,43:1:0:0:
52,277,90102,1,0,0:0:0:0:
76,275,90177,1,0,0:0:0:0:
99,283,90252,1,0,0:0:0:0:
120,295,90327,1,14,0:1:0:0:
139,310,90402,1,0,0:0:0:0:
163,316,90477,1,0,0:0:0:0:
187,315,90552,1,0,0:0:0:0:
210,306,90627,5,6,0:1:0:0:
158,260,90702,1,0,0:0:0:0:
151,191,90777,1,0,0:0:0:0:
188,133,90852,1,0,0:0:0:0:
255,115,90927,1,14,0:1:0:0:
317,144,91002,1,0,0:0:0:0:
358,198,91077,1,0,0:0:0:0:
425,209,91152,1,0,0:0:0:0:
486,177,91226,6,0,B|430:126|430:126|441:274,1,225.000008583069,6|0,3:1|0:0,0:0:0:0:
478,365,91526,2,0,L|398:360,1,75.0000028610231,8|0,0:1|0:0,0:0:0:0:
348,285,91676,1,0,0:0:0:0:
348,285,91751,1,0,0:0:0:0:
348,285,91826,6,0,L|268:290,1,75.0000028610231,2|0,3:1|0:0,0:0:0:0:
118,293,91976,1,0,0:0:0:0:
123,297,92051,2,0,P|149:322|184:335,1,75.0000028610231,2|8,0:1|0:1,0:0:0:0:
197,161,92201,1,0,0:0:0:0:
190,163,92276,2,0,P|154:173|125:197,1,75.0000028610231,2|0,0:1|0:0,0:0:0:0:
261,274,92426,5,2,43:1:0:0:
267,281,92501,1,0,0:0:0:0:
273,289,92576,2,0,L|268:209,1,75.0000028610231
426,67,92726,1,10,0:1:0:0:
432,60,92801,1,0,0:0:0:0:
438,52,92876,2,0,L|433:126,1,75.0000028610231
358,318,93026,5,2,43:1:0:0:
352,325,93101,1,0,0:0:0:0:
346,333,93176,2,0,L|351:253,1,75.0000028610231
362,104,93326,1,10,0:1:0:0:
356,97,93401,1,0,0:0:0:0:
350,89,93475,2,0,L|355:169,1,75.0000028610231
429,303,93625,5,2,43:1:0:0:
387,335,93700,1,0,0:0:0:0:
334,339,93775,1,0,0:0:0:0:
286,316,93850,1,0,0:0:0:0:
258,271,93925,1,8,0:1:0:0:
220,233,94000,1,0,0:0:0:0:
168,221,94075,1,2,0:1:0:0:
117,235,94150,1,2,0:1:0:0:
85,276,94225,6,0,P|75:312|81:349,1,75.0000028610231,2|0,3:1|0:0,0:0:0:0:
177,188,94375,1,0,0:0:0:0:
172,184,94450,2,0,P|145:157|110:144,1,75.0000028610231,2|8,0:1|0:1,0:0:0:0:
200,306,94600,1,0,0:0:0:0:
208,305,94675,2,0,P|244:295|273:271,1,75.0000028610231,2|0,0:1|0:0,0:0:0:0:
295,34,94825,5,2,43:1:0:0:
299,42,94900,1,0,0:0:0:0:
303,49,94975,2,0,L|381:53,1,75.0000028610231
441,137,95125,1,10,0:1:0:0:
437,145,95200,1,0,0:0:0:0:
433,152,95275,2,0,L|358:155,1,75.0000028610231
291,245,95425,5,0,43:1:0:0:
291,245,95500,1,0,0:0:0:0:
291,245,95575,2,0,L|248:179,1,75.0000028610231
139,168,95724,1,10,0:1:0:0:
139,168,95799,1,0,0:0:0:0:
139,168,95874,2,0,L|174:98,1,75.0000028610231
329,319,96024,6,0,B|296:331|296:331|258:320,1,75.0000028610231,6|0,3:1|0:0,0:0:0:0:
76,267,96174,2,0,B|109:255|109:255|147:266,1,75.0000028610231
226,384,96324,2,0,L|220:234,1,150.000005722046,10|0,0:1|0:0,0:0:0:0:
308,177,96549,1,2,0:1:0:0:
314,172,96624,6,0,L|316:97,1,75.0000028610231,2|0,3:1|0:0,0:0:0:0:
212,48,96774,2,0,L|214:122,1,75.0000028610231,2|0,0:1|0:0,0:0:0:0:
319,166,96924,2,0,L|321:91,1,75.0000028610231,10|0,0:1|0:0,0:0:0:0:
217,42,97074,2,0,L|219:116,1,75.0000028610231,2|0,0:1|0:0,0:0:0:0:
419,216,97224,6,0,B|457:227|457:227|490:215,1,75.0000028610231,4|0,3:1|0:0,0:0:0:0:
231,337,97374,2,0,B|198:349|198:349|160:338,1,75.0000028610231,2|0,0:1|0:0,0:0:0:0:
397,126,97524,2,0,L|391:275,1,150.000005722046,10|0,0:1|0:0,0:0:0:0:
316,379,97749,1,2,0:1:0:0:
311,384,97824,6,0,L|315:304,1,75.0000028610231,2|0,3:1|0:0,0:0:0:0:
474,244,97973,2,0,L|477:168,1,75.0000028610231,2|0,0:1|0:0,0:0:0:0:
306,379,98123,2,0,L|310:299,1,75.0000028610231,10|0,0:1|0:0,0:0:0:0:
469,240,98273,2,0,L|473:160,1,75.0000028610231,2|0,0:1|0:0,0:0:0:0:
284,169,98423,6,0,P|247:159|210:165,1,75.0000028610231,4|0,3:1|0:0,0:0:0:0:
109,275,98573,2,0,P|134:248|149:207,1,75.0000028610231,2|0,0:1|0:0,0:0:0:0:
105,72,98723,1,2,0:1:0:0:
105,72,98798,1,0,0:0:0:0:
105,72,98873,2,0,P|115:107|143:140,1,75.0000028610231
256,308,99023,6,0,L|221:241,1,75.0000028610231,4|0,3:1|0:0,0:0:0:0:
0,180,99173,2,0,L|74:183,1,75.0000028610231,2|0,0:1|0:0,0:0:0:0:
241,27,99323,1,10,0:1:0:0:
241,27,99398,1,0,0:0:0:0:
241,27,99473,2,0,L|200:89,1,75.0000028610231
109,275,99623,5,6,43:1:0:0:
133,337,99698,1,0,0:0:0:0:
190,371,99773,1,0,0:0:0:0:
257,359,99848,1,2,0:1:0:0:
301,308,99923,1,12,0:1:0:0:
302,240,99998,1,0,0:0:0:0:
259,187,100072,1,2,0:1:0:0:
235,123,100147,1,0,0:0:0:0:
251,57,100222,1,6,43:1:0:0:
300,11,100297,1,0,0:0:0:0:
366,1,100372,1,0,0:0:0:0:
428,28,100447,1,0,0:0:0:0:
464,84,100522,1,12,0:1:0:0:
466,151,100597,1,0,0:0:0:0:
429,207,100672,1,0,0:0:0:0:
367,233,100747,1,0,0:0:0:0:
299,221,100822,6,0,B|216:216|216:216|180:260|180:260|84:255,1,225.000008583069,6|0,3:1|0:0,0:0:0:0:
48,150,101122,2,0,L|123:147,1,75.0000028610231,8|0,0:1|0:0,0:0:0:0:
259,318,101272,1,2,0:1:0:0:
259,318,101347,1,2,0:1:0:0:
259,318,101422,6,0,L|333:321,1,75.0000028610231,2|0,3:1|0:0,0:0:0:0:
345,151,101572,1,0,0:0:0:0:
339,158,101647,2,0,L|298:220,1,75.0000028610231,2|8,0:1|0:1,0:0:0:0:
441,314,101797,1,0,0:0:0:0:
437,307,101872,2,0,L|402:240,1,75.0000028610231,2|0,0:1|0:0,0:0:0:0:
306,81,102022,5,2,43:1:0:0:
301,74,102097,1,0,0:0:0:0:
297,68,102172,2,0,P|261:62|221:73,1,75.0000028610231
23,176,102321,1,10,0:1:0:0:
28,183,102396,1,0,0:0:0:0:
33,190,102471,2,0,P|69:196|108:185,1,75.0000028610231
348,171,102621,5,2,43:1:0:0:
343,164,102696,1,0,0:0:0:0:
339,158,102771,2,0,P|303:152|263:163,1,75.0000028610231
65,266,102921,1,10,0:1:0:0:
70,273,102996,1,0,0:0:0:0:
75,280,103071,2,0,P|111:286|150:275,1,75.0000028610231
307,322,103221,5,2,43:1:0:0:
354,343,103296,1,0,0:0:0:0:
406,338,103371,1,0,0:0:0:0:
448,308,103446,1,0,0:0:0:0:
470,260,103521,1,8,0:1:0:0:
464,207,103596,1,0,0:0:0:0:
431,165,103671,1,2,0:1:0:0:
381,147,103746,1,2,0:1:0:0:
329,155,103821,6,0,L|335:230,1,75.0000028610231,2|0,3:1|0:0,0:0:0:0:
223,94,103971,1,0,0:0:0:0:
222,103,104046,2,0,L|216:178,1,75.0000028610231,2|8,0:1|0:1,0:0:0:0:
102,40,104196,1,0,0:0:0:0:
103,50,104271,2,0,L|109:125,1,75.0000028610231,2|0,0:1|0:0,0:0:0:0:
130,306,104421,5,2,43:1:0:0:
126,312,104496,1,0,0:0:0:0:
122,319,104570,2,0,L|116:244,1,75.0000028610231
13,193,104720,1,10,0:1:0:0:
9,187,104795,1,0,0:0:0:0:
5,180,104870,2,0,L|-1:255,1,75.0000028610231
200,364,105020,5,2,43:1:0:0:
200,364,105095,1,0,0:0:0:0:
200,364,105170,2,0,L|274:358,1,75.0000028610231
254,247,105320,1,10,0:1:0:0:
254,247,105395,1,0,0:0:0:0:
254,247,105470,2,0,L|328:253,1,75.0000028610231
392,351,105620,6,0,B|431:358|431:358|466:343,1,75.0000028610231,4|0,3:1|0:0,0:0:0:0:
359,188,105770,2,0,B|333:218|333:218|328:256,1,75.0000028610231,2|0,0:1|0:0,0:0:0:0:
512,237,105920,2,0,L|501:83,1,150.000005722046,10|0,0:1|0:0,0:0:0:0:
503,11,106145,1,2,0:1:0:0:
495,12,106220,6,0,L|407:16,1,75.0000028610231,2|0,3:1|0:0,0:0:0:0:
312,116,106370,2,0,L|386:112,1,75.0000028610231,2|0,0:1|0:0,0:0:0:0:
341,18,106520,2,0,L|253:22,1,75.0000028610231,10|0,0:1|0:0,0:0:0:0:
158,122,106670,2,0,L|232:118,1,75.0000028610231,2|0,0:1|0:0,0:0:0:0:
379,184,106819,6,0,B|392:151|392:151|385:112,1,75.0000028610231,4|0,3:1|0:0,0:0:0:0:
279,313,106969,2,0,B|265:345|265:345|272:384,1,75.0000028610231,2|0,0:1|0:0,0:0:0:0:
453,213,107119,2,0,L|290:219,1,150.000005722046,10|0,0:1|0:0,0:0:0:0:
197,168,107344,1,2,0:1:0:0:
198,177,107419,6,0,L|201:251,1,75.0000028610231,2|0,3:1|0:0,0:0:0:0:
97,296,107569,2,0,L|101:222,1,75.0000028610231,2|0,0:1|0:0,0:0:0:0:
306,143,107719,2,0,L|302:217,1,75.0000028610231,10|0,0:1|0:0,0:0:0:0:
3,338,107869,2,0,L|0:263,1,75.0000028610231,2|0,0:1|0:0,0:0:0:0:
129,68,108019,5,6,43:1:0:0:
129,68,108094,1,0,0:0:0:0:
129,68,108169,2,0,P|166:79|193:101,1,75.0000028610231
38,109,108319,1,10,0:1:0:0:
38,109,108394,1,0,0:0:0:0:
38,109,108469,2,0,P|29:71|35:36,1,75.0000028610231
116,242,108619,6,0,L|120:168,1,75.0000028610231,6|0,3:1|0:0,0:0:0:0:
206,309,108769,1,0,0:0:0:0:
205,301,108844,2,0,L|201:226,1,75.0000028610231,2|8,0:1|0:1,0:0:0:0:
296,101,108993,1,0,0:0:0:0:
296,109,109068,2,0,L|292:183,1,75.0000028610231
363,342,109218,5,6,43:1:0:0:
429,350,109293,1,0,0:0:0:0:
481,306,109368,1,0,0:0:0:0:
481,238,109443,1,0,0:0:0:0:
431,192,109518,1,14,0:1:0:0:
364,199,109593,1,0,0:0:0:0:
325,254,109668,1,0,0:0:0:0:
291,313,109743,1,0,0:0:0:0:
227,334,109818,1,6,43:1:0:0:
167,302,109893,1,0,0:0:0:0:
147,237,109968,1,0,0:0:0:0:
177,175,110043,1,0,0:0:0:0:
240,153,110118,1,14,0:1:0:0:
268,92,110193,1,0,0:0:0:0:
247,27,110268,1,0,0:0:0:0:
184,0,110343,1,0,0:0:0:0:
120,22,110418,5,6,43:1:0:0:
121,31,110493,1,0,0:0:0:0:
122,40,110568,2,0,L|126:115,1,75.0000028610231
197,225,110718,2,0,L|130:190,1,75.0000028610231,8|0,0:1|0:0,0:0:0:0:
0,196,110868,2,0,L|62:155,1,75.0000028610231,2|0,0:1|0:0,0:0:0:0:
255,109,111018,5,2,43:1:0:0:
255,109,111093,1,0,0:0:0:0:
255,108,111168,2,0,P|291:101|327:111,1,75.0000028610231
454,179,111317,2,0,P|480:153|493:118,1,75.0000028610231,8|0,0:1|0:0,0:0:0:0:
377,45,111467,2,0,P|401:73|410:109,1,75.0000028610231,2|0,0:1|0:0,0:0:0:0:
333,256,111617,6,0,L|329:330,1,75.0000028610231,2|0,3:1|0:0,0:0:0:0:
233,382,111767,1,0,0:0:0:0:
233,374,111842,2,0,L|229:299,1,75.0000028610231,2|8,0:1|0:1,0:0:0:0:
428,214,111992,1,0,0:0:0:0:
428,222,112067,2,0,L|424:296,1,75.0000028610231,2|0,0:1|0:0,0:0:0:0:
132,338,112217,5,2,41:1:0:0:
132,338,112292,1,0,0:0:0:0:
132,338,112367,2,0,P|108:309|98:273,1,75.0000028610231
237,202,112517,2,0,P|224:237|198:264,1,75.0000028610231,10|0,0:1|0:0,0:0:0:0:
67,179,112667,2,0,P|103:172|139:182,1,75.0000028610231,2|0,0:1|0:0,0:0:0:0:
294,285,112817,6,0,L|368:279,1,75.0000028610231,2|0,3:1|0:0,0:0:0:0:
238,384,112967,1,0,0:0:0:0:
263,383,113042,2,0,L|338:378,1,75.0000028610231,2|8,0:1|0:1,0:0:0:0:
124,215,113192,1,0,0:0:0:0:
149,214,113267,2,0,L|223:208,1,75.0000028610231,2|0,0:1|0:0,0:0:0:0:
462,306,113416,6,0,B|470:271|470:271|457:234,1,75.0000028610231,2|0,3:1|0:0,0:0:0:0:
496,121,113566,1,0,0:0:0:0:
489,123,113641,2,0,B|454:133|454:133|429:163,1,75.0000028610231,2|8,0:1|0:1,0:0:0:0:
311,186,113791,1,0,0:0:0:0:
317,191,113866,2,0,B|343:215|343:215|381:222,1,75.0000028610231,2|0,0:1|0:0,0:0:0:0:
345,9,114016,6,0,L|339:83,1,75.0000028610231,2|0,3:1|0:0,0:0:0:0:
231,259,114166,1,0,0:0:0:0:
229,237,114241,2,0,L|223:163,1,75.0000028610231,2|0,0:1|0:1,0:0:0:0:
436,33,114391,1,0,0:0:0:0:
434,55,114466,2,0,L|428:129,1,75.0000028610231,2|0,0:1|0:0,0:0:0:0:
272,331,114616,6,0,P|236:341|199:335,1,75.0000028610231,2|0,3:1|0:0,0:0:0:0:
180,152,114766,1,0,0:0:0:0:
187,157,114841,2,0,P|213:182|227:217,1,75.0000028610231,2|8,0:1|0:1,0:0:0:0:
77,326,114991,1,0,0:0:0:0:
79,318,115066,2,0,P|87:281|111:253,1,75.0000028610231,2|0,0:1|0:0,0:0:0:0:
295,124,115216,5,6,43:1:0:0:
301,120,115291,1,0,0:0:0:0:
307,114,115366,2,0,L|301:40,1,75.0000028610231
389,159,115516,2,0,L|456:190,1,75.0000028610231,8|0,0:1|0:0,0:0:0:0:
309,207,115665,2,0,L|247:249,1,75.0000028610231,2|0,0:1|0:0,0:0:0:0:
387,66,115815,5,2,43:1:0:0:
387,66,115890,1,0,0:0:0:0:
387,66,115965,2,0,L|448:23,1,75.0000028610231
390,252,116115,2,0,L|396:326,1,75.0000028610231,8|0,0:1|0:0,0:0:0:0:
228,162,116265,2,0,L|160:130,1,75.0000028610231,2|0,0:1|0:0,0:0:0:0:
389,159,116415,6,0,B|427:166|427:166|453:190,1,75.0000028610231,6|0,3:1|0:0,0:0:0:0:
310,200,116565,1,0,0:0:0:0:
309,207,116640,2,0,B|301:245|301:245|277:271,1,75.0000028610231,2|8,0:1|0:1,0:0:0:0:
310,122,116790,1,0,0:0:0:0:
307,114,116865,2,0,B|294:77|294:77|301:42,1,75.0000028610231,2|0,0:1|0:0,0:0:0:0:
428,289,117015,5,2,43:1:0:0:
390,252,117090,1,0,0:0:0:0:
338,240,117165,1,0,0:0:0:0:
288,257,117240,1,0,0:0:0:0:
253,296,117315,1,8,0:1:0:0:
215,333,117390,1,0,0:0:0:0:
163,345,117465,1,2,0:1:0:0:
113,328,117540,1,2,0:1:0:0:
78,289,117615,5,6,43:1:0:0:
79,281,117690,1,0,0:0:0:0:
80,273,117765,2,0,L|83:198,1,75.0000028610231
195,129,117914,1,10,0:1:0:0:
195,129,117989,1,0,0:0:0:0:
195,129,118064,2,0,L|192:204,1,75.0000028610231
299,282,118214,5,6,43:1:0:0:
299,282,118289,1,0,0:0:0:0:
299,282,118364,2,0,L|302:207,1,75.0000028610231
413,137,118514,1,10,0:1:0:0:
413,137,118589,1,0,0:0:0:0:
413,137,118664,2,0,L|410:212,1,75.0000028610231
295,364,118814,5,6,43:1:0:0:
258,354,118889,1,0,0:0:0:0:
229,328,118964,1,0,0:0:0:0:
218,292,119039,1,0,0:0:0:0:
221,254,119114,1,14,0:1:0:0:
241,222,119189,1,0,0:0:0:0:
273,203,119264,1,0,0:0:0:0:
310,200,119339,1,0,0:0:0:0:
345,212,119414,1,4,43:1:0:0:
382,207,119489,1,0,0:0:0:0:
413,185,119564,1,0,0:0:0:0:
432,152,119639,1,0,0:0:0:0:
432,114,119714,1,12,0:1:0:0:
416,80,119789,1,0,0:0:0:0:
387,56,119864,1,2,0:1:0:0:
350,47,119939,1,2,0:1:0:0:
313,56,120014,5,6,43:1:0:0:
317,123,120088,1,0,0:0:0:0:
320,190,120163,1,0,0:0:0:0:
322,258,120238,1,0,0:0:0:0:
326,325,120313,1,14,0:1:0:0:
382,288,120388,1,0,0:0:0:0:
390,221,120463,1,0,0:0:0:0:
347,168,120538,1,0,0:0:0:0:
279,167,120613,1,6,43:1:0:0:
232,215,120688,1,0,0:0:0:0:
209,278,120763,1,0,0:0:0:0:
148,308,120838,1,0,0:0:0:0:
81,296,120913,1,14,0:1:0:0:
38,243,120988,1,0,0:0:0:0:
39,175,121063,1,0,0:0:0:0:
83,124,121138,1,0,0:0:0:0:
150,113,121213,6,0,L|146:192,1,75.0000028610231,4|0,3:1|0:0,0:0:0:0:
216,312,121363,1,2,0:1:0:0:
208,306,121438,2,0,L|145:265,1,75.0000028610231,0|12,0:0|0:1,0:0:0:0:
2,263,121588,1,2,0:1:0:0:
10,258,121663,2,0,L|76:223,1,75.0000028610231
276,177,121813,5,6,43:1:0:0:
346,151,121888,1,0,0:0:0:0:
417,172,121963,1,0,0:0:0:0:
460,232,122038,1,0,0:0:0:0:
458,307,122113,1,12,0:1:0:0:
412,366,122188,1,0,0:0:0:0:
339,384,122263,1,0,0:0:0:0:
270,353,122337,1,0,0:0:0:0:
235,286,122412,5,4,43:1:0:0:
246,281,122487,1,0,0:0:0:0:
258,279,122562,1,0,0:0:0:0:
270,278,122637,1,0,0:0:0:0:
282,279,122712,1,8,0:1:0:0:
294,282,122787,1,0,0:0:0:0:
305,286,122862,2,0,P|337:292|372:285,1,62.5
458,269,123012,6,0,P|446:239|426:216,1,62.5,0|0,3:0|0:0,0:0:0:0:
331,206,123162,1,0,0:0:0:0:
334,199,123237,2,0,P|345:170|366:146,1,62.5,0|8,0:0|0:1,0:0:0:0:
459,137,123387,1,0,0:0:0:0:
457,130,123462,2,0,P|445:100|425:77,1,62.5
274,60,123612,5,0,43:0:0:0:
274,60,123687,1,0,0:0:0:0:
274,60,123762,2,0,L|211:63,1,62.5
238,149,123912,1,8,0:1:0:0:
238,149,123987,1,0,0:0:0:0:
238,149,124062,2,0,L|160:144,1,62.5
76,237,124212,5,0,43:0:0:0:
76,237,124287,1,0,0:0:0:0:
76,237,124362,2,0,L|154:232,1,62.5
49,322,124512,1,8,0:1:0:0:
49,322,124586,1,0,0:0:0:0:
49,322,124661,2,0,L|127:317,1,62.5
236,311,124811,5,0,43:0:0:0:
273,311,124886,1,0,0:0:0:0:
310,312,124961,1,0,0:0:0:0:
347,312,125036,1,0,0:0:0:0:
384,313,125111,2,0,L|379:235,1,62.5,8|0,0:1|0:0,0:0:0:0:
373,158,125261,1,0,0:0:0:0:
373,158,125336,1,0,0:0:0:0:
373,158,125411,6,0,L|367:80,1,62.5,0|0,3:0|0:0,0:0:0:0:
504,4,125561,1,0,0:0:0:0:
498,8,125636,2,0,L|432:51,1,62.5,0|8,0:0|0:1,0:0:0:0:
223,18,125786,1,0,0:0:0:0:
230,23,125861,2,0,L|299:58,1,62.5
409,233,126011,5,0,43:0:0:0:
409,233,126086,1,0,0:0:0:0:
409,233,126161,2,0,P|379:240|348:237,1,62.5
300,303,126311,1,8,0:1:0:0:
300,303,126386,1,0,0:0:0:0:
300,303,126461,2,0,P|278:281|265:253,1,62.5
183,243,126611,1,0,43:0:0:0:
183,243,126686,1,0,0:0:0:0:
183,243,126760,2,0,P|191:213|209:187,1,62.5
177,111,126910,2,0,P|207:103|238:106,1,62.5,8|0,0:1|0:0,0:0:0:0:
348,237,127060,1,0,0:0:0:0:
348,237,127135,1,0,0:0:0:0:
348,237,127210,6,0,L|344:168,1,62.5,4|0,3:1|0:0,0:0:0:0:
448,262,127360,2,0,L|445:200,1,62.5
280,374,127510,1,8,0:1:0:0:
280,374,127585,1,0,0:0:0:0:
280,374,127660,2,0,L|276:311,1,62.5
76,261,127810,6,0,B|48:254|48:254|16:264,1,62.5,0|0,3:0|0:0,0:0:0:0:
148,187,127960,2,0,B|168:166|168:166|174:133,1,62.5
176,286,128110,2,0,B|183:313|183:313|209:335,1,62.5,8|0,0:1|0:0,0:0:0:0:
69,184,128260,1,0,0:0:0:0:
69,184,128335,1,0,0:0:0:0:
69,184,128410,6,0,B|61:156|61:156|35:134,1,62.5,4|0,3:1|0:0,0:0:0:0:
215,223,128560,2,0,B|243:230|243:230|274:219,1,62.5
112,331,128710,1,8,0:1:0:0:
112,331,128785,1,0,0:0:0:0:
112,331,128860,2,0,B|91:351|91:351|85:384,1,62.5
237,145,129009,6,0,L|233:82,1,62.5,0|0,3:0|0:0,0:0:0:0:
357,224,129159,2,0,L|353:286,1,62.5
334,106,129309,2,0,L|337:43,1,62.5,8|0,0:1|0:0,0:0:0:0:
449,186,129459,1,0,0:0:0:0:
449,186,129534,1,0,0:0:0:0:
449,186,129609,6,0,L|512:183,1,62.5,4|0,3:1|0:0,0:0:0:0:
493,64,129759,2,0,L|430:67,1,62.5
357,224,129909,1,8,0:1:0:0:
330,239,129984,1,0,0:0:0:0:
299,246,130059,1,0,0:0:0:0:
267,240,130134,1,0,0:0:0:0:
241,222,130209,6,0,P|212:217|181:224,1,62.5,4|0,3:1|0:0,0:0:0:0:
81,306,130359,2,0,P|100:281|109:252,1,62.5
88,126,130509,1,8,0:1:0:0:
88,94,130584,1,0,0:0:0:0:
87,62,130659,1,0,0:0:0:0:
87,30,130734,1,0,0:0:0:0:
86,0,130809,5,4,43:1:0:0:
49,42,130884,1,0,0:0:0:0:
49,98,130959,1,0,0:0:0:0:
83,143,131034,1,0,0:0:0:0:
138,153,131109,1,12,0:1:0:0:
187,127,131183,1,0,0:0:0:0:
209,75,131258,1,0,0:0:0:0:
255,43,131333,1,0,0:0:0:0:
310,33,131408,1,4,43:1:0:0:
362,51,131483,1,0,0:0:0:0:
400,91,131558,1,0,0:0:0:0:
415,144,131633,1,0,0:0:0:0:
406,200,131708,1,12,0:1:0:0:
364,246,131783,1,0,0:0:0:0:
304,263,131858,1,0,0:0:0:0:
242,251,131933,1,0,0:0:0:0:
197,206,132008,5,4,43:1:0:0:
198,193,132083,1,0,0:0:0:0:
199,180,132158,1,0,0:0:0:0:
200,167,132233,1,0,0:0:0:0:
200,154,132308,1,8,0:1:0:0:
201,141,132383,1,0,0:0:0:0:
202,127,132458,2,0,L|205:59,1,62.5
345,71,132608,6,0,P|320:90|291:99,1,62.5,0|0,3:0|0:0,0:0:0:0:
55,52,132758,1,0,0:0:0:0:
63,58,132833,2,0,P|86:78|115:90,1,62.5,0|8,0:0|0:1,0:0:0:0:
328,228,132983,1,0,0:0:0:0:
322,224,133058,2,0,P|293:211|270:190,1,62.5
74,213,133208,5,0,43:0:0:0:
74,213,133283,1,0,0:0:0:0:
74,213,133358,2,0,L|71:281,1,62.5
163,251,133507,1,8,0:1:0:0:
163,251,133582,1,0,0:0:0:0:
163,251,133657,2,0,L|160:319,1,62.5
249,351,133807,5,0,43:0:0:0:
249,351,133882,1,0,0:0:0:0:
249,351,133957,2,0,L|311:353,1,62.5
411,333,134107,1,8,0:1:0:0:
411,333,134182,1,0,0:0:0:0:
411,333,134257,2,0,L|473:335,1,62.5
315,202,134407,5,0,43:0:0:0:
312,164,134482,1,0,0:0:0:0:
309,126,134557,1,0,0:0:0:0:
306,88,134632,1,0,0:0:0:0:
303,50,134707,6,0,P|281:72|271:101,1,62.5,8|0,0:1|0:0,0:0:0:0:
324,183,134857,1,0,0:0:0:0:
324,183,134932,1,0,0:0:0:0:
324,183,135007,6,0,P|354:190|384:184,1,62.5,0|0,3:0|0:0,0:0:0:0:
429,105,135157,1,0,0:0:0:0:
428,98,135232,2,0,P|419:68|398:45,1,62.5,0|8,0:0|0:1,0:0:0:0:
276,98,135382,1,0,0:0:0:0:
270,101,135457,2,0,L|208:99,1,62.5
113,70,135607,5,0,43:0:0:0:
113,70,135681,1,0,0:0:0:0:
113,70,135756,2,0,L|115:132,1,62.5
18,170,135906,1,8,0:1:0:0:
18,170,135981,1,0,0:0:0:0:
18,170,136056,2,0,L|20:108,1,62.5
191,195,136206,5,0,43:0:0:0:
191,195,136281,1,0,0:0:0:0:
191,195,136356,2,0,L|193:257,1,62.5
96,295,136506,1,8,0:1:0:0:
96,295,136581,1,0,0:0:0:0:
96,295,136656,2,0,L|98:233,1,62.5
207,98,136806,6,0,L|209:36,1,62.5,4|0,3:1|0:0,0:0:0:0:
338,130,136956,2,0,L|283:159,1,62.5
301,1,137106,1,8,0:1:0:0:
301,1,137181,1,0,0:0:0:0:
301,1,137256,2,0,L|353:33,1,62.5
492,97,137406,6,0,L|430:95,1,62.5,0|0,3:0|0:0,0:0:0:0:
322,226,137556,2,0,L|384:228,1,62.5
354,33,137706,2,0,L|292:31,1,62.5,8|0,0:1|0:0,0:0:0:0:
184,162,137855,2,0,L|246:164,1,62.5
459,289,138005,6,0,B|468:261|468:261|460:229,1,62.5,4|0,3:1|0:0,0:0:0:0:
387,347,138155,2,0,B|355:338|355:338|336:317,1,62.5
374,196,138305,1,8,0:1:0:0:
374,196,138380,1,0,0:0:0:0:
374,196,138455,2,0,B|345:202|345:202|321:225,1,62.5
211,343,138605,6,0,L|213:281,1,62.5,0|0,3:0|0:0,0:0:0:0:
100,194,138755,2,0,L|102:256,1,62.5
309,309,138905,2,0,L|307:247,1,62.5,8|0,0:1|0:0,0:0:0:0:
7,157,139055,2,0,L|5:219,1,62.5
211,343,139205,6,0,L|213:281,3,62.5,4|0|0|0,3:1|0:0|0:0|0:0,0:0:0:0:
102,256,139505,2,0,L|100:194,3,62.5,8|0|0|0,0:1|0:0|0:0|0:0,0:0:0:0:
52,77,139805,5,4,43:1:0:0:
64,78,139880,1,0,0:0:0:0:
77,79,139955,1,0,0:0:0:0:
90,80,140030,1,0,0:0:0:0:
103,80,140104,1,8,0:1:0:0:
116,81,140179,1,0,0:0:0:0:
129,82,140254,1,0,0:0:0:0:
142,83,140329,1,0,0:0:0:0:
155,84,140404,5,4,43:1:0:0:
192,42,140479,1,0,0:0:0:0:
247,33,140554,1,0,0:0:0:0:
294,63,140629,1,0,0:0:0:0:
313,115,140704,1,12,0:1:0:0:
293,167,140779,1,0,0:0:0:0:
244,195,140854,1,0,0:0:0:0:
188,185,140929,1,0,0:0:0:0:
154,139,141004,1,4,43:1:0:0:
101,118,141079,1,0,0:0:0:0:
46,132,141154,1,0,0:0:0:0:
7,173,141229,1,0,0:0:0:0:
0,228,141304,1,12,0:1:0:0:
19,280,141379,1,0,0:0:0:0:
64,313,141454,1,0,0:0:0:0:
120,314,141529,1,0,0:0:0:0:
169,285,141604,5,4,43:1:0:0:
168,278,141679,1,0,0:0:0:0:
167,270,141754,2,0,L|232:273,1,62.5
271,358,141904,2,0,L|206:361,1,62.5,8|0,0:1|0:0,0:0:0:0:
145,181,142054,2,0,L|208:179,1,62.5
324,278,142204,5,0,43:0:0:0:
354,299,142279,1,0,0:0:0:0:
391,302,142353,1,0,0:0:0:0:
426,289,142428,1,0,0:0:0:0:
451,261,142503,1,8,0:1:0:0:
463,225,142578,1,0,0:0:0:0:
455,188,142653,1,0,0:0:0:0:
433,157,142728,1,0,0:0:0:0:
399,139,142803,6,0,P|392:110|396:78,1,62.5,0|0,3:0|0:0,0:0:0:0:
255,68,142953,1,0,0:0:0:0:
262,64,143028,2,0,P|291:52|314:30,1,62.5,0|8,0:0|0:1,0:0:0:0:
323,190,143178,1,0,0:0:0:0:
317,186,143253,2,0,P|292:168|262:158,1,62.5
59,226,143403,6,0,L|55:164,1,62.5,0|0,3:0|0:0,0:0:0:0:
46,69,143553,1,0,0:0:0:0:
46,69,143628,1,0,0:0:0:0:
46,69,143703,2,0,L|102:96,1,62.5,8|0,0:1|0:0,0:0:0:0:
172,244,143853,1,0,0:0:0:0:
172,244,143928,1,0,0:0:0:0:
172,244,144003,6,0,B|184:273|184:273|176:306,1,62.5,0|0,3:0|0:0,0:0:0:0:
342,207,144153,1,0,0:0:0:0:
334,205,144228,2,0,B|302:200|302:200|279:179,1,62.5,0|8,0:0|0:1,0:0:0:0:
281,371,144378,1,0,0:0:0:0:
287,364,144453,2,0,B|306:339|306:339|335:329,1,62.5
252,123,144602,5,0,43:0:0:0:
252,123,144677,1,0,0:0:0:0:
252,123,144752,2,0,L|279:179,1,62.5
398,334,144902,2,0,L|335:329,1,62.5,8|0,0:1|0:0,0:0:0:0:
142,355,145052,2,0,L|177:303,1,62.5
430,155,145202,6,0,L|425:217,1,62.5,0|0,3:0|0:0,0:0:0:0:
335,336,145352,1,0,0:0:0:0:
335,329,145427,2,0,L|330:266,1,62.5,0|8,0:0|0:1,0:0:0:0:
507,109,145577,1,0,0:0:0:0:
508,117,145652,2,0,L|512:179,1,62.5
249,292,145802,6,0,L|253:229,1,62.5,0|0,3:0|0:0,0:0:0:0:
260,105,145952,1,0,0:0:0:0:
236,96,146027,1,0,0:0:0:0:
211,100,146102,1,8,0:1:0:0:
186,106,146177,1,0,0:0:0:0:
165,120,146252,1,0,0:0:0:0:
141,127,146327,1,0,0:0:0:0:
116,125,146402,5,4,43:1:0:0:
116,116,146477,1,0,0:0:0:0:
117,108,146552,2,0,L|120:45,1,62.5
21,144,146702,2,0,L|18:81,1,62.5,8|0,0:1|0:0,0:0:0:0:
193,235,146851,2,0,L|196:172,1,62.5
129,311,147001,5,0,43:0:0:0:
160,330,147076,1,0,0:0:0:0:
197,335,147151,1,0,0:0:0:0:
233,328,147226,1,0,0:0:0:0:
263,305,147301,1,8,0:1:0:0:
293,283,147376,1,0,0:0:0:0:
329,273,147451,1,0,0:0:0:0:
366,276,147526,1,0,0:0:0:0:
399,294,147601,6,0,P|406:322|401:355,1,62.5,4|0,3:1|0:0,0:0:0:0:
438,212,147751,1,0,0:0:0:0:
444,207,147826,2,0,P|464:186|495:174,1,62.5,0|8,0:0|0:1,0:0:0:0:
356,215,147976,1,0,0:0:0:0:
347,212,148051,2,0,P|319:204|293:183,1,62.5
181,69,148201,5,0,43:0:0:0:
207,42,148276,1,0,0:0:0:0:
242,29,148351,1,0,0:0:0:0:
279,34,148426,1,0,0:0:0:0:
310,54,148501,1,8,0:1:0:0:
328,86,148576,1,0,0:0:0:0:
333,122,148651,1,0,0:0:0:0:
321,157,148726,1,0,0:0:0:0:
293,183,148801,5,4,43:1:0:0:
287,189,148876,1,0,0:0:0:0:
280,195,148951,2,0,L|202:190,1,62.5
181,277,149100,1,8,0:1:0:0:
181,277,149175,1,0,0:0:0:0:
181,277,149250,2,0,L|243:273,1,62.5
127,139,149400,5,4,43:1:0:0:
127,139,149475,1,0,0:0:0:0:
127,139,149550,2,0,L|123:201,1,62.5
90,350,149700,1,8,0:1:0:0:
90,350,149775,1,0,0:0:0:0:
90,350,149850,2,0,L|86:287,1,62.5
65,84,150000,6,0,P|90:65|120:55,3,62.5,4|0|0|0,3:1|0:0|0:0|0:0,0:0:0:0:
206,112,150300,2,0,P|209:142|203:173,3,62.5,12|0|0|0,0:1|0:0|0:0|0:0,0:0:0:0:
111,219,150600,5,4,43:1:0:0:
112,231,150675,1,0,0:0:0:0:
113,243,150750,1,0,0:0:0:0:
114,255,150825,1,0,0:0:0:0:
95,271,150900,1,12,0:1:0:0:
94,283,150975,1,0,0:0:0:0:
93,295,151050,1,0,0:0:0:0:
93,307,151125,1,0,0:0:0:0:
92,331,151199,5,4,43:1:0:0:
146,301,151274,1,0,0:0:0:0:
206,315,151349,1,0,0:0:0:0:
239,368,151424,1,0,0:0:0:0:
299,382,151499,1,12,0:1:0:0:
354,354,151574,1,0,0:0:0:0:
370,293,151649,1,0,0:0:0:0:
341,237,151724,1,0,0:0:0:0:
280,217,151799,1,4,43:1:0:0:
242,166,151874,1,0,0:0:0:0:
236,103,151949,1,0,0:0:0:0:
260,45,152024,1,0,0:0:0:0:
312,10,152099,1,12,0:1:0:0:
374,8,152174,1,0,0:0:0:0:
428,37,152249,1,0,0:0:0:0:
461,89,152324,1,0,0:0:0:0:
460,152,152399,6,0,L|457:219,1,62.5,4|0,3:1|0:0,0:0:0:0:
449,301,152549,1,0,0:0:0:0:
449,308,152624,2,0,L|446:375,1,62.5,0|12,0:0|0:1,0:0:0:0:
345,172,152774,1,0,0:0:0:0:
345,179,152849,2,0,L|348:246,1,62.5
237,295,152999,5,4,43:1:0:0:
200,320,153074,1,0,0:0:0:0:
156,326,153149,1,0,0:0:0:0:
114,313,153224,1,0,0:0:0:0:
82,283,153299,1,12,0:1:0:0:
66,241,153374,1,0,0:0:0:0:
69,197,153448,1,0,0:0:0:0:
91,159,153523,1,0,0:0:0:0:
128,134,153598,6,0,P|152:130|177:134,3,50,6|0|0|0,3:1|0:0|0:0|0:0,0:0:0:0:
231,72,153898,1,8,0:1:0:0:
231,72,153973,1,0,0:0:0:0:
231,72,154048,2,0,P|245:89|256:115,1,50
233,313,154198,6,0,P|217:293|208:270,3,50,2|0|0|0,3:1|0:0|0:0|0:0,0:0:0:0:
127,254,154498,1,8,0:1:0:0:
127,254,154573,1,0,0:0:0:0:
127,254,154648,2,0,P|135:232|152:210,1,50
312,171,154798,5,2,43:1:0:0:
327,172,154873,1,0,0:0:0:0:
342,173,154948,1,2,0:1:0:0:
356,173,155023,1,0,0:0:0:0:
370,174,155098,2,8,L|421:177,1,50,8|0,0:1|0:0,0:1:0:0:
440,260,155248,2,0,L|390:257,1,50,2|0,0:1|0:0,0:0:0:0:
291,154,155398,6,0,L|294:205,1,50,2|0,3:1|0:0,0:0:0:0:
218,281,155548,2,0,L|215:231,1,50,2|0,0:1|0:0,0:0:0:0:
206,106,155697,1,8,0:1:0:0:
205,91,155772,1,0,0:0:0:0:
204,76,155847,1,0,0:0:0:0:
204,60,155922,1,0,0:0:0:0:
203,45,155997,6,0,P|178:41|150:47,1,50,2|0,3:1|0:0,0:0:0:0:
88,170,156147,2,0,P|103:151|112:128,1,50,2|0,0:1|0:0,0:0:0:0:
36,9,156297,1,8,0:1:0:0:
36,9,156372,1,0,0:0:0:0:
36,9,156447,2,0,P|44:32|60:51,1,50
205,123,156597,5,2,43:1:0:0:
230,137,156672,1,0,0:0:0:0:
259,140,156747,1,2,0:1:0:0:
288,133,156822,1,0,0:0:0:0:
313,116,156897,1,8,0:1:0:0:
339,101,156972,1,0,0:0:0:0:
367,93,157047,1,0,0:0:0:0:
396,97,157122,1,0,0:0:0:0:
422,110,157197,5,2,43:1:0:0:
422,124,157272,1,0,0:0:0:0:
422,138,157347,1,0,0:0:0:0:
421,152,157422,1,0,0:0:0:0:
421,167,157497,5,10,0:1:0:0:
419,137,157572,1,0,0:0:0:0:
417,107,157647,1,0,0:0:0:0:
415,77,157722,1,0,0:0:0:0:
413,46,157797,5,2,43:1:0:0:
473,69,157871,1,0,0:0:0:0:
510,121,157946,1,0,0:0:0:0:
511,185,158021,1,0,0:0:0:0:
481,242,158096,1,8,0:1:0:0:
423,273,158171,1,0,0:0:0:0:
358,268,158246,1,0,0:0:0:0:
306,229,158321,1,0,0:0:0:0:
286,167,158396,6,0,L|289:118,3,50,2|0|0|0,3:1|0:0|0:0|0:0,0:0:0:0:
187,81,158696,1,8,0:1:0:0:
187,81,158771,1,0,0:0:0:0:
187,81,158846,2,0,L|190:130,1,50
109,194,158996,6,0,L|106:243,3,50,2|0|0|0,3:1|0:0|0:0|0:0,0:0:0:0:
208,280,159296,1,8,0:1:0:0:
208,280,159371,1,0,0:0:0:0:
208,280,159446,2,0,L|205:231,1,50
182,364,159596,5,2,43:1:0:0:
196,363,159671,1,0,0:0:0:0:
211,362,159746,1,2,0:1:0:0:
225,361,159821,1,0,0:0:0:0:
239,360,159896,6,0,P|262:368|282:383,1,50,8|0,0:1|0:0,0:0:0:0:
441,330,160046,2,0,P|460:345|484:353,1,50,2|0,0:1|0:0,0:0:0:0:
378,276,160195,2,0,P|400:266|419:249,1,50,2|0,3:1|0:0,0:0:0:0:
300,304,160345,2,0,P|303:279|298:254,1,50,2|0,0:1|0:0,0:0:0:0:
247,155,160495,1,8,0:1:0:0:
261,150,160570,1,0,0:0:0:0:
275,148,160645,1,0,0:0:0:0:
289,150,160720,1,0,0:0:0:0:
303,153,160795,6,0,L|358:149,1,50,2|0,3:1|0:0,0:0:0:0:
396,61,160945,2,0,L|367:19,1,50,2|0,0:1|0:0,0:0:0:0:
247,72,161095,1,8,0:1:0:0:
247,72,161170,1,0,0:0:0:0:
247,72,161245,2,0,L|269:27,1,50
453,143,161395,5,2,43:1:0:0:
453,152,161470,1,0,0:0:0:0:
453,161,161545,1,2,0:1:0:0:
453,171,161620,1,0,0:0:0:0:
453,180,161695,1,8,0:1:0:0:
452,189,161770,1,0,0:0:0:0:
452,198,161845,1,0,0:0:0:0:
452,207,161920,1,0,0:0:0:0:
452,217,161995,5,2,43:1:0:0:
425,231,162070,1,0,0:0:0:0:
395,233,162145,1,0,0:0:0:0:
367,222,162220,1,0,0:0:0:0:
342,203,162294,1,10,0:1:0:0:
317,185,162369,1,0,0:0:0:0:
287,177,162444,1,0,0:0:0:0:
257,183,162519,1,0,0:0:0:0:
230,198,162594,5,2,43:1:0:0:
269,242,162669,1,0,0:0:0:0:
273,301,162744,1,2,0:1:0:0:
243,353,162819,1,0,0:0:0:0:
188,378,162894,1,8,0:1:0:0:
129,367,162969,1,0,0:0:0:0:
87,323,163044,1,0,0:0:0:0:
80,263,163119,1,0,0:0:0:0:
107,209,163194,5,6,43:1:0:0:
106,188,163269,1,0,0:0:0:0:
105,168,163344,1,0,0:0:0:0:
104,148,163419,1,0,0:0:0:0:
103,128,163494,1,8,0:1:0:0:
102,107,163569,1,0,0:0:0:0:
101,87,163644,2,0,L|98:36,1,50
200,150,163794,5,2,43:1:0:0:
219,153,163869,1,0,0:0:0:0:
238,151,163944,1,0,0:0:0:0:
257,145,164019,1,0,0:0:0:0:
276,139,164094,1,8,0:1:0:0:
295,136,164169,1,0,0:0:0:0:
314,139,164244,2,0,P|340:143|370:137,1,50
406,17,164394,5,2,43:1:0:0:
396,17,164469,1,0,0:0:0:0:
385,17,164543,1,2,0:1:0:0:
375,17,164618,1,0,0:0:0:0:
363,17,164693,2,0,P|348:36|339:60,1,50,8|0,0:1|0:0,0:0:0:0:
443,120,164843,2,0,P|434:96|418:77,1,50,2|0,0:1|0:0,0:0:0:0:
363,139,164993,6,0,L|368:198,1,50,2|0,3:1|0:0,0:0:0:0:
428,247,165143,2,0,L|423:306,1,50,2|0,0:1|0:0,0:0:0:0:
393,375,165293,1,8,0:1:0:0:
373,372,165368,1,0,0:0:0:0:
352,369,165443,1,0,0:0:0:0:
332,366,165518,1,0,0:0:0:0:
312,364,165593,6,0,B|289:355|289:355|262:362,1,50,2|0,3:1|0:0,0:0:0:0:
165,384,165743,2,0,B|184:368|184:368|191:341,1,50,2|0,0:1|0:0,0:0:0:0:
221,246,165893,1,8,0:1:0:0:
221,246,165968,1,0,0:0:0:0:
221,246,166043,2,0,B|224:270|224:270|244:290,1,50
272,182,166193,5,2,43:1:0:0:
245,167,166268,1,0,0:0:0:0:
215,163,166343,1,2,0:1:0:0:
186,171,166418,1,0,0:0:0:0:
162,189,166493,1,8,0:1:0:0:
137,206,166568,1,0,0:0:0:0:
107,211,166643,1,0,0:0:0:0:
76,208,166718,1,0,0:0:0:0:
50,191,166792,5,2,43:1:0:0:
51,176,166867,1,0,0:0:0:0:
52,161,166942,1,0,0:0:0:0:
53,146,167017,1,0,0:0:0:0:
54,130,167092,5,10,0:1:0:0:
57,159,167167,1,0,0:0:0:0:
58,188,167242,1,0,0:0:0:0:
59,217,167317,1,0,0:0:0:0:
60,247,167392,5,2,43:1:0:0:
95,211,167467,1,0,0:0:0:0:
141,193,167542,1,2,0:1:0:0:
190,196,167617,1,0,0:0:0:0:
234,220,167692,1,8,0:1:0:0:
263,260,167767,1,0,0:0:0:0:
306,284,167842,1,0,0:0:0:0:
355,282,167917,1,0,0:0:0:0:
397,255,167992,5,6,43:1:0:0:
398,235,168067,1,0,0:0:0:0:
399,215,168142,1,0,0:0:0:0:
400,195,168217,1,0,0:0:0:0:
401,175,168292,1,8,0:1:0:0:
401,154,168367,1,0,0:0:0:0:
401,134,168442,2,0,L|403:79,1,50
303,101,168592,5,2,43:1:0:0:
284,109,168667,1,0,0:0:0:0:
264,112,168742,1,0,0:0:0:0:
244,110,168817,1,0,0:0:0:0:
225,102,168892,1,8,0:1:0:0:
206,94,168966,1,0,0:0:0:0:
186,91,169041,2,0,L|131:93,1,50
34,201,169191,5,6,43:1:0:0:
60,186,169266,1,0,0:0:0:0:
89,182,169341,1,2,0:1:0:0:
118,186,169416,1,0,0:0:0:0:
145,197,169491,1,8,0:1:0:0:
168,215,169566,1,0,0:0:0:0:
183,241,169641,2,0,P|189:265|184:295,1,50,2|0,0:1|0:0,0:0:0:0:
68,384,169791,5,2,43:1:0:0:
97,382,169866,1,0,0:0:0:0:
127,380,169941,1,2,0:1:0:0:
156,378,170016,1,0,0:0:0:0:
185,377,170091,1,8,0:1:0:0:
214,375,170166,1,0,0:0:0:0:
244,374,170241,2,0,L|306:370,1,50
431,287,170391,5,6,43:1:0:0:
457,257,170466,1,0,0:0:0:0:
464,217,170541,1,2,0:1:0:0:
452,178,170616,1,0,0:0:0:0:
422,150,170691,1,8,0:1:0:0:
383,139,170766,1,0,0:0:0:0:
344,147,170841,1,0,0:0:0:0:
314,174,170916,1,0,0:0:0:0:
300,211,170991,5,6,43:1:0:0:
343,200,171066,1,0,0:0:0:0:
373,167,171141,1,2,0:1:0:0:
382,122,171215,1,0,0:0:0:0:
368,79,171290,1,8,0:1:0:0:
331,52,171365,1,0,0:0:0:0:
286,47,171440,1,0,0:0:0:0:
245,67,171515,1,0,0:0:0:0:
222,105,171590,5,6,43:1:0:0:
225,134,171665,1,0,0:0:0:0:
228,163,171740,1,0,0:0:0:0:
231,193,171815,1,0,0:0:0:0:
234,222,171890,5,14,0:1:0:0:
235,182,171965,1,0,0:0:0:0:
237,142,172040,1,0,0:0:0:0:
238,102,172115,1,0,0:0:0:0:
239,61,172190,5,6,43:1:0:0:
188,29,172265,1,0,0:0:0:0:
128,32,172340,1,2,0:1:0:0:
80,68,172415,1,0,0:0:0:0:
63,126,172490,1,12,0:1:0:0:
78,183,172565,1,0,0:0:0:0:
126,218,172640,1,0,0:0:0:0:
185,221,172715,1,0,0:0:0:0:
236,189,172790,5,4,43:1:0:0:
