osu file format v14

[General]
AudioFilename: audio.mp3
AudioLeadIn: 0
PreviewTime: 20042
Countdown: 0
SampleSet: Soft
StackLeniency: 0.6
Mode: 0
LetterboxInBreaks: 0
WidescreenStoryboard: 1

[Editor]
Bookmarks: 39242,58442
DistanceSpacing: 0.8
BeatDivisor: 4
GridSize: 32
TimelineZoom: 1

[Metadata]
Title:After All
TitleUnicode:アフターオール
Artist:JynX
ArtistUnicode:ジンクス
Creator:NothingnessZ
Version:Normal
Source:Len'en
Tags:Reactivate Majestical Imperial stage 6
BeatmapID:1180405
BeatmapSetID:557943

[Difficulty]
HPDrainRate:5
CircleSize:3.5
OverallDifficulty:5
ApproachRate:5.8
SliderMultiplier:1.2
SliderTickRate:1

[Events]
//Background and Video events
0,0,"background.jpg",0,0
//Break Periods
//Storyboard Layer 0 (Background)
//Storyboard Layer 1 (Fail)
//Storyboard Layer 2 (Pass)
//Storyboard Layer 3 (Foreground)
//Storyboard Sound Samples

[TimingPoints]
842,600,4,2,0,20,1,0
39242,-100,4,2,0,25,0,1
58442,-100,4,2,0,20,0,0

[Colours]
Combo1 : 90,90,90
Combo2 : 170,170,170

[HitObjects]
320,128,842,5,0,0:0:0:0:
224,160,1442,1,0,0:0:0:0:
136,192,2042,2,0,B|104:240|104:312,1,120,2|0,0:0|0:0,0:0:0:0:
192,264,3242,1,0,0:0:0:0:
288,288,3842,1,0,0:0:0:0:
384,304,4442,2,0,B|416:272|448:208|448:176,1,120,2|0,0:0|0:0,0:0:0:0:
400,120,5642,6,0,B|360:104|272:104,1,120
192,128,6842,1,2,0:0:0:0:
136,208,7442,2,0,P|136:272|168:336,2,120
72,136,9242,2,0,L|64:72,4,60,2|0|0|0|0,0:0|0:0|0:0|0:0|0:0,0:0:0:0:
64,232,11042,5,0,0:0:0:0:
136,296,11642,1,2,0:0:0:0:
232,288,12242,2,0,B|264:256|328:256|360:288,1,120
408,344,13442,2,0,B|440:280|408:216,1,120,0|2,0:0|0:0,0:0:0:0:
368,136,14642,1,0,0:0:0:0:
280,96,15242,5,0,0:0:0:0:
184,96,15842,2,0,P|128:88|56:88,2,120,0|2|0,0:0|0:0|0:0,0:0:0:0:
192,192,17642,1,0,0:0:0:0:
96,192,18242,1,0,0:0:0:0:
96,288,18842,2,0,L|160:296,4,60,2|0|0|0|0,0:0|0:0|0:0|0:0|0:0,0:0:0:0:
0,288,20642,5,0,0:0:0:0:
0,192,21242,2,0,P|32:128|96:96,1,120,2|0,0:0|0:0,0:0:0:0:
160,64,22442,1,0,0:0:0:0:
256,96,23042,1,0,0:0:0:0:
352,64,23642,2,0,P|416:96|448:160,1,120,2|0,0:0|0:0,0:0:0:0:
448,224,24842,6,0,P|448:288|456:352,2,120,0|0|2,0:0|0:0|0:0,0:0:0:0:
448,128,26642,1,0,0:0:0:0:
352,96,27242,2,0,P|288:88|232:88,1,120
136,96,28442,2,0,L|72:88,4,60,2|0|0|0|0,0:0|0:0|0:0|0:0|0:0,0:0:0:0:
128,192,30242,6,0,P|128:256|136:312,1,120,0|2,0:0|0:0,0:0:0:0:
232,296,31442,1,0,0:0:0:0:
328,288,32042,1,0,0:0:0:0:
392,216,32642,2,0,P|408:168|408:96,1,120,0|2,0:0|0:0,0:0:0:0:
328,48,33842,1,0,0:0:0:0:
232,56,34442,5,0,0:0:0:0:
136,64,35042,1,0,0:0:0:0:
88,144,35642,2,0,P|80:224|88:272,1,120,2|0,0:0|0:0,0:0:0:0:
176,296,36842,1,0,0:0:0:0:
272,320,37442,1,0,0:0:0:0:
368,320,38042,2,0,L|432:320,1,60,2|0,0:0|0:0,0:0:0:0:
472,320,38642,2,0,L|472:256,1,60
472,216,39242,1,0,0:0:0:0:
320,224,39842,5,0,0:0:0:0:
352,128,40442,1,8,0:0:0:0:
416,64,41042,2,0,L|480:0,2,60,0|2|0,0:0|0:0|0:0,0:0:0:0:
320,64,42242,1,0,0:0:0:0:
224,96,42842,2,0,L|160:32,4,60,8|0|0|2|0,0:0|0:0|0:0|0:0|0:0,0:0:0:0:
128,160,44642,5,0,0:0:0:0:
128,256,45242,1,8,0:0:0:0:
224,288,45842,2,0,L|216:352,2,60,0|2|0,0:0|0:0|0:0,0:0:0:0:
320,288,47042,1,0,0:0:0:0:
416,256,47642,2,0,L|480:320,4,60,8|0|0|2|0,0:0|0:0|0:0|0:0|0:0,0:0:0:0:
416,160,49442,5,0,0:0:0:0:
384,64,50042,1,8,0:0:0:0:
288,96,50642,2,0,L|224:96,1,60,0|2,0:0|0:0,0:0:0:0:
192,96,51242,1,0,0:0:0:0:
96,96,51842,1,0,0:0:0:0:
96,192,52442,2,0,L|40:216,1,60,8|0,0:0|0:0,0:0:0:0:
40,264,53042,2,0,L|96:288,1,60,0|2,0:0|0:0,0:0:0:0:
136,312,53642,1,0,0:0:0:0:
232,320,54242,6,0,P|296:352|360:352,1,120,0|8,0:0|0:0,0:0:0:0:
312,264,55442,2,0,L|376:256,1,60,0|2,0:0|0:0,0:0:0:0:
416,248,56042,2,0,P|480:184|480:152,1,120
392,128,57242,2,0,L|352:120,6,30,8|0|0|0|0|0|2,0:0|0:0|0:0|0:0|0:0|0:0|0:0,0:0:0:0:
