osu file format v14

[General]
AudioFilename: audio.mp3
AudioLeadIn: 0
PreviewTime: 84963
Countdown: 0
SampleSet: Soft
StackLeniency: 0.7
Mode: 0
LetterboxInBreaks: 0
WidescreenStoryboard: 1

[Editor]
Bookmarks: 24298,36450,48602,60754,72906,85058,97210,109362,121514
DistanceSpacing: 1
BeatDivisor: 4
GridSize: 32
TimelineZoom: 1.6

[Metadata]
Title:why you gotta?
TitleUnicode:why you gotta?
Artist:Juxie!
ArtistUnicode:Juxie!
Creator:hehe
Version:normal?
Source:
Tags:rap soundcloud hip-hop hiphop english hip hop
BeatmapID:3817089
BeatmapSetID:1857193

[Difficulty]
HPDrainRate:3
CircleSize:3.6
OverallDifficulty:4
ApproachRate:5
SliderMultiplier:1.2
SliderTickRate:1

[Events]
//Background and Video events
0,0,"smaltiddy.jpg",0,0
//Break Periods
2,48423,53478
2,72726,77212
//Storyboard Layer 0 (Background)
//Storyboard Layer 1 (Fail)
//Storyboard Layer 2 (Pass)
//Storyboard Layer 3 (Foreground)
//Storyboard Layer 4 (Overlay)
//Storyboard Sound Samples

[TimingPoints]
24299,379.746835443038,4,2,1,80,1,0
24299,-100,4,2,1,80,0,1
36450,-100,4,2,1,70,0,0
54678,-100,4,2,1,60,0,0
60754,-100,4,2,1,70,0,0
78412,-100,4,2,1,60,0,0
85058,-100,4,2,1,80,0,1
97210,-100,4,2,1,70,0,0
109362,-100,4,2,1,50,0,0

[Colours]
Combo1 : 223,223,223
Combo2 : 159,159,159
Combo3 : 121,191,255
Combo4 : 50,115,255
Combo5 : 255,133,124
Combo6 : 255,37,37

[HitObjects]
84,125,24298,53,4,3:1:0:0:
198,89,24678,2,0,L|195:156,1,60
233,197,25058,2,0,B|302:198|273:226|349:227,1,120,8|0,0:0|0:0,0:0:0:0:
410,223,25628,1,0,0:0:0:0:
410,223,25817,1,0,0:0:0:0:
491,134,26197,2,0,P|476:70|407:48,2,120,4|0|0,3:1|0:0|0:0,0:0:0:0:
509,252,27336,5,4,3:1:0:0:
460,361,27716,2,0,L|398:371,1,60
363,324,28096,2,0,P|305:304|222:311,1,120,8|0,0:0|0:0,0:0:0:0:
191,328,28666,1,2,0:3:0:0:
83,375,29045,1,2,0:3:0:0:
83,375,29235,2,0,P|73:328|51:250,1,120,4|8,3:1|0:0,0:0:0:0:
96,215,29805,2,0,P|92:166|119:96,1,120,4|0,3:1|0:0,0:0:0:0:
161,61,30374,69,0,3:0:0:0:
220,165,30754,2,0,L|286:146,1,60
328,114,31134,2,0,B|342:182|365:157|379:243,1,120,8|0,0:0|0:0,0:0:0:0:
363,282,31704,1,0,0:0:0:0:
363,282,31893,1,0,0:0:0:0:
460,351,32273,2,0,P|482:297|479:216,1,120,4|8,3:1|0:0,0:0:0:0:
508,181,32843,2,0,L|372:198,1,120,4|0,3:1|0:0,0:0:0:0:
329,206,33412,5,0,3:0:0:0:
229,138,33792,1,0,0:0:0:0:
172,243,34172,2,0,P|128:202|132:129,1,120,8|0,0:0|0:0,0:0:0:0:
151,90,34742,1,2,0:3:0:0:
265,55,35121,1,2,0:3:0:0:
265,55,35311,2,0,P|331:64|406:56,1,120,0|8,3:0|0:0,0:0:0:0:
440,39,35881,1,0,3:0:0:0:
498,208,36450,38,0,L|359:186,1,120,4|0,3:1|0:0,0:0:0:0:
320,176,37020,1,0,0:0:0:0:
320,176,37210,2,0,L|186:200,1,120,8|0,0:0|0:0,0:0:0:0:
143,211,37780,1,0,0:0:0:0:
143,211,37969,1,0,0:0:0:0:
101,98,38349,1,4,3:1:0:0:
201,32,38729,2,0,P|267:41|305:102,1,120
390,158,39488,6,0,P|370:219|359:295,1,120,4|0,3:1|0:0,0:0:0:0:
476,306,40248,2,0,P|496:245|507:169,1,120,8|0,0:0|0:0,0:0:0:0:
475,138,40817,1,2,0:3:0:0:
495,19,41197,1,2,0:3:0:0:
495,19,41387,2,0,P|429:42|359:51,1,120,4|8,3:1|0:0,0:0:0:0:
333,10,41957,2,0,L|323:81,1,60,4|0,3:1|0:0,0:0:0:0:
219,128,42526,70,0,L|238:255,1,120,0|0,3:0|0:0,0:0:0:0:
191,286,43096,1,0,0:0:0:0:
191,286,43286,2,0,P|257:273|315:299,1,120,8|0,0:0|0:0,0:0:0:0:
345,334,43855,1,0,0:0:0:0:
345,334,44045,1,0,0:0:0:0:
462,357,44425,1,4,3:1:0:0:
505,245,44805,1,8,0:0:0:0:
505,245,44995,2,0,L|468:115,1,120,4|0,3:1|0:0,0:0:0:0:
453,72,45564,5,0,3:0:0:0:
344,20,45944,1,0,0:0:0:0:
237,75,46324,1,8,0:0:0:0:
230,194,46704,1,0,0:0:0:0:
230,194,46893,2,0,P|183:202|107:235,1,120,2|2,0:3|0:3,0:0:0:0:
73,271,47463,2,0,P|26:235|46:158,1,120,0|8,3:0|0:0,0:0:0:0:
69,134,48033,1,0,3:0:0:0:
69,134,48223,1,0,0:0:0:0:
333,176,54678,38,0,P|329:123|325:45,2,120,0|0|8,0:0|0:0|0:0,0:0:0:0:
270,278,55817,1,0,0:0:0:0:
184,193,56197,2,0,P|180:140|176:62,2,120,0|0|8,0:0|0:0|0:0,0:0:0:0:
121,295,57336,1,0,0:0:0:0:
223,357,57716,6,0,P|281:319|341:312,1,120
443,352,58476,2,0,L|456:220,1,120,8|0,0:0|0:0,0:0:0:0:
506,202,59045,2,0,L|489:69,1,120,2|2,0:3|0:3,0:0:0:0:
478,23,59615,1,0,0:0:0:0:
369,74,59995,1,8,0:0:0:0:
257,29,60374,1,0,0:0:0:0:
154,90,60754,6,0,P|71:103|49:147,1,120,4|0,3:1|0:0,0:0:0:0:
1,236,61514,2,0,P|68:238|136:257,1,120,8|0,0:0|0:0,0:0:0:0:
229,203,62273,1,0,0:0:0:0:
275,313,62653,1,4,3:1:0:0:
393,290,63033,2,0,P|427:242|414:176,1,120
444,129,63602,1,0,0:0:0:0:
444,129,63792,6,0,L|318:146,1,120,4|0,3:1|0:0,0:0:0:0:
269,38,64552,2,0,L|143:21,1,120,8|0,0:0|0:0,0:0:0:0:
91,8,65121,1,2,0:3:0:0:
1,87,65501,1,2,0:3:0:0:
1,87,65691,2,0,P|49:149|60:209,1,120,4|8,3:1|0:0,0:0:0:0:
113,213,66261,2,0,P|63:261|42:316,1,120,4|0,3:1|0:0,0:0:0:0:
12,358,66830,70,0,L|143:340,1,120,0|0,3:0|0:0,0:0:0:0:
247,371,67590,2,0,P|246:313|264:244,1,120,8|0,0:0|0:0,0:0:0:0:
231,136,68349,1,0,0:0:0:0:
314,49,68729,1,4,3:1:0:0:
419,106,69109,1,8,0:0:0:0:
419,106,69298,2,0,L|445:232,1,120,4|0,3:1|0:0,0:0:0:0:
500,243,69868,6,0,P|500:293|438:329,1,120,0|0,3:0|0:0,0:0:0:0:
332,369,70628,2,0,L|204:338,1,120,8|0,0:0|0:0,0:0:0:0:
157,324,71197,1,2,0:3:0:0:
49,377,71577,1,2,0:3:0:0:
49,377,71767,2,0,P|51:305|49:248,2,120,0|8|0,3:0|0:0|0:0,0:0:0:0:
280,219,78412,37,2,0:0:0:0:
280,219,78602,2,0,P|336:211|413:211,2,120,0|2|0,0:0|0:0|0:0,0:0:0:0:
207,195,81640,5,0,0:0:0:0:
256,192,82020,12,0,83539,0:0:0:0:
428,259,85058,53,4,3:1:0:0:
314,295,85438,2,0,L|317:228,1,60
279,187,85818,2,0,B|210:186|239:158|163:157,1,120,8|0,0:0|0:0,0:0:0:0:
102,161,86388,1,0,0:0:0:0:
102,161,86577,1,0,0:0:0:0:
21,250,86957,2,0,P|36:314|105:336,2,120,4|0|0,3:1|0:0|0:0,0:0:0:0:
3,132,88096,5,4,3:1:0:0:
52,23,88476,2,0,L|114:13,1,60
149,60,88856,2,0,P|207:80|290:73,1,120,8|0,0:0|0:0,0:0:0:0:
321,56,89426,1,2,0:3:0:0:
429,9,89805,1,2,0:3:0:0:
429,9,89995,2,0,P|439:56|461:134,1,120,4|8,3:1|0:0,0:0:0:0:
416,169,90565,2,0,P|420:218|393:288,1,120,4|0,3:1|0:0,0:0:0:0:
351,323,91134,69,0,3:0:0:0:
292,219,91514,2,0,L|226:238,1,60
184,270,91894,2,0,B|170:202|147:227|133:141,1,120,8|0,0:0|0:0,0:0:0:0:
149,102,92464,1,0,0:0:0:0:
149,102,92653,1,0,0:0:0:0:
52,33,93033,2,0,P|30:87|33:168,1,120,4|8,3:1|0:0,0:0:0:0:
4,203,93603,2,0,L|140:186,1,120,4|0,3:1|0:0,0:0:0:0:
183,178,94172,5,0,3:0:0:0:
283,246,94552,1,0,0:0:0:0:
340,141,94932,2,0,P|384:182|380:255,1,120,8|0,0:0|0:0,0:0:0:0:
361,294,95502,1,2,0:3:0:0:
247,329,95881,1,2,0:3:0:0:
247,329,96071,6,0,P|181:320|106:328,1,120,0|8,3:0|0:0,0:0:0:0:
72,345,96641,1,0,3:0:0:0:
14,176,97210,38,0,L|153:198,1,120,4|0,3:1|0:0,0:0:0:0:
192,208,97780,1,0,0:0:0:0:
192,208,97970,2,0,L|326:184,1,120,8|0,0:0|0:0,0:0:0:0:
369,173,98540,1,0,0:0:0:0:
369,173,98729,1,0,0:0:0:0:
411,286,99109,1,4,3:1:0:0:
311,352,99489,2,0,P|245:343|207:282,1,120
122,226,100248,6,0,P|142:165|153:89,1,120,4|0,3:1|0:0,0:0:0:0:
36,78,101008,2,0,P|16:139|5:215,1,120,8|0,0:0|0:0,0:0:0:0:
37,246,101577,1,2,0:3:0:0:
17,365,101957,1,2,0:3:0:0:
17,365,102147,2,0,P|83:342|153:333,1,120,4|8,3:1|0:0,0:0:0:0:
179,374,102717,2,0,L|189:303,1,60,4|0,3:1|0:0,0:0:0:0:
293,256,103286,70,0,L|274:129,1,120,0|0,3:0|0:0,0:0:0:0:
321,98,103856,1,0,0:0:0:0:
321,98,104046,2,0,P|255:111|197:85,1,120,8|0,0:0|0:0,0:0:0:0:
167,50,104615,1,0,0:0:0:0:
167,50,104805,1,0,0:0:0:0:
50,27,105185,1,4,3:1:0:0:
7,139,105565,1,8,0:0:0:0:
7,139,105755,2,0,L|44:269,1,120,4|0,3:1|0:0,0:0:0:0:
59,312,106324,5,0,3:0:0:0:
168,364,106704,1,0,0:0:0:0:
275,309,107084,1,8,0:0:0:0:
282,190,107464,1,0,0:0:0:0:
282,190,107653,2,0,P|329:182|405:149,1,120,2|2,0:3|0:3,0:0:0:0:
439,113,108223,2,0,P|486:149|466:226,1,120,0|8,3:0|0:0,0:0:0:0:
443,250,108793,1,0,3:0:0:0:
443,250,108983,1,0,0:0:0:0:
256,192,109362,12,0,113919,0:0:0:0:
201,35,115438,38,0,L|78:46,2,120,0|0|8,0:0|0:0|0:0,0:0:0:0:
271,132,116577,1,0,0:0:0:0:
340,229,116957,2,0,L|463:240,2,120,0|0|8,0:0|0:0|0:0,0:0:0:0:
270,326,118096,1,0,0:0:0:0:
159,372,118476,6,0,P|126:307|141:242,1,120
76,155,119235,2,0,L|211:135,1,120,8|0,0:0|0:0,0:0:0:0:
229,87,119805,2,0,L|356:110,1,120,2|2,0:3|0:3,0:0:0:0:
405,120,120374,1,0,0:0:0:0:
378,237,120754,1,8,0:0:0:0:
474,308,121134,1,0,0:0:0:0:
