osu file format v14

[General]
AudioFilename: audio.mp3
AudioLeadIn: 0
PreviewTime: 84963
Countdown: 0
SampleSet: Soft
StackLeniency: 0.7
Mode: 0
LetterboxInBreaks: 0
WidescreenStoryboard: 0

[Editor]
Bookmarks: 24298,36450,48602,60754,72906,85058,97210,109362,121514
DistanceSpacing: 1.4
BeatDivisor: 8
GridSize: 32
TimelineZoom: 2.599999

[Metadata]
Title:why you gotta?
TitleUnicode:why you gotta?
Artist:Juxie!
ArtistUnicode:Juxie!
Creator:hehe
Version:extra?
Source:
Tags:rap soundcloud hip-hop hiphop english hip hop
BeatmapID:3816975
BeatmapSetID:1857193

[Difficulty]
HPDrainRate:5
CircleSize:4
OverallDifficulty:8.5
ApproachRate:9.2
SliderMultiplier:1.4
SliderTickRate:1

[Events]
//Background and Video events
0,0,"smaltiddy.jpg",0,0
//Break Periods
2,48801,54078
//Storyboard Layer 0 (Background)
//Storyboard Layer 1 (Fail)
//Storyboard Layer 2 (Pass)
//Storyboard Layer 3 (Foreground)
//Storyboard Layer 4 (Overlay)
//Storyboard Sound Samples

[TimingPoints]
24299,379.746835443038,4,2,1,80,1,0
24299,-50,4,2,1,80,0,1
24821,-50,4,2,1,5,0,1
24867,-50,4,2,1,80,0,1
25960,-50,4,2,1,5,0,1
26006,-50,4,2,1,80,0,1
26957,-200,4,2,1,80,0,1
27289,-50,4,2,1,5,0,1
27336,-50,4,2,1,80,0,1
27479,-50,4,2,1,5,0,1
27525,-50,4,2,1,80,0,1
28998,-50,4,2,1,5,0,1
29044,-50,4,2,1,80,0,1
29567,-50,4,2,1,5,0,1
29613,-50,4,2,1,80,0,1
30897,-50,4,2,1,5,0,1
30943,-50,4,2,1,80,0,1
32036,-50,4,2,1,5,0,1
32082,-50,4,2,1,80,0,1
33555,-50,4,2,1,5,0,1
33601,-50,4,2,1,80,0,1
35074,-50,4,2,1,5,0,1
35120,-50,4,2,1,80,0,1
36450,-62.5,4,2,1,70,0,0
39109,-125,4,2,1,70,0,0
39488,-62.5,4,2,1,70,0,0
41340,-62.5,4,2,1,5,0,0
41386,-62.5,4,2,1,70,0,0
42146,-125,4,2,1,70,0,0
42525,-62.5,4,2,1,70,0,0
45184,-125,4,2,1,70,0,0
45517,-50,4,2,1,5,0,0
45563,-62.5,4,2,1,70,0,0
47416,-62.5,4,2,1,5,0,0
47462,-62.5,4,2,1,70,0,0
48222,-125,4,2,1,70,0,0
48601,-100,4,2,1,60,0,0
60754,-50,4,2,1,70,0,0
63412,-200,4,2,1,70,0,0
63792,-50,4,2,1,70,0,0
65454,-50,4,2,1,5,0,0
65500,-50,4,2,1,70,0,0
66023,-50,4,2,1,5,0,0
66069,-50,4,2,1,70,0,0
68681,-50,4,2,1,5,0,0
68727,-50,4,2,1,70,0,0
71530,-50,4,2,1,5,0,0
71576,-50,4,2,1,70,0,0
72906,-125,4,2,1,50,0,0
78412,-125,4,2,1,60,0,0
85058,-50,4,2,1,80,0,1
85580,-50,4,2,1,5,0,1
85626,-50,4,2,1,80,0,1
86719,-50,4,2,1,5,0,1
86765,-50,4,2,1,80,0,1
87716,-200,4,2,1,80,0,1
88048,-50,4,2,1,5,0,1
88094,-50,4,2,1,80,0,1
88095,-50,4,2,1,80,0,1
88238,-50,4,2,1,5,0,1
88284,-50,4,2,1,80,0,1
89757,-50,4,2,1,5,0,1
89803,-50,4,2,1,80,0,1
90327,-50,4,2,1,5,0,1
90373,-50,4,2,1,80,0,1
91656,-50,4,2,1,5,0,1
91702,-50,4,2,1,80,0,1
92795,-50,4,2,1,5,0,1
92841,-50,4,2,1,80,0,1
94314,-50,4,2,1,5,0,1
94360,-50,4,2,1,80,0,1
95833,-50,4,2,1,5,0,1
95879,-50,4,2,1,80,0,1
97210,-62.5,4,2,1,70,0,0
99868,-125,4,2,1,70,0,0
100248,-62.5,4,2,1,70,0,0
102099,-62.5,4,2,1,5,0,0
102145,-62.5,4,2,1,70,0,0
102906,-125,4,2,1,70,0,0
103285,-62.5,4,2,1,70,0,0
105944,-125,4,2,1,70,0,0
106323,-62.5,4,2,1,70,0,0
108175,-62.5,4,2,1,5,0,0
108221,-62.5,4,2,1,70,0,0
108982,-125,4,2,1,70,0,0
109361,-100,4,2,1,70,0,0

[Colours]
Combo1 : 223,223,223
Combo2 : 159,159,159
Combo3 : 121,191,255
Combo4 : 50,115,255
Combo5 : 255,133,124
Combo6 : 255,37,37

[HitObjects]
181,306,24298,53,4,3:1:0:0:
153,234,24393,1,0,0:0:0:0:
170,310,24488,1,0,0:0:0:0:
363,357,24678,6,0,P|387:304|342:255,1,105
365,256,24868,2,0,P|311:255|293:282,1,70
98,339,25058,70,0,B|177:318|148:384|245:359,1,140,8|0,0:0|0:0,0:0:0:0:
483,204,25438,1,0,0:0:0:0:
292,312,25627,2,0,L|301:263,2,35
400,381,25817,6,0,P|382:333|378:267,1,105
388,274,26007,2,0,P|397:223|411:194,1,70
498,81,26197,70,0,B|499:35|463:6|463:6|517:0|542:67|496:102,1,210,4|0,3:1|0:0,0:0:0:0:
404,206,26577,2,0,P|349:214|333:83,1,210
423,80,26957,6,0,P|425:110|432:140,1,61.25
432,140,27336,70,0,P|483:147|514:207,1,105,4|0,3:1|0:0,0:0:0:0:
504,198,27526,2,0,P|492:252|456:263,1,70
348,315,27716,6,0,P|343:283|329:242,3,46.6666666666667
399,70,28096,2,0,P|385:152|384:224,1,140,8|0,0:0|0:0,0:0:0:0:
512,363,28476,69,0,0:0:0:0:
292,260,28665,2,0,P|296:236|295:201,2,35,2|0|0,0:3|0:0|0:0,0:0:0:0:
445,262,28855,6,0,P|399:281|341:325,1,105
360,323,29045,2,0,P|356:347|357:382,2,35,2|0|0,0:3|0:3|0:0,0:0:0:0:
216,234,29235,70,0,B|204:215|181:209|181:209|193:132|193:132|239:198|239:198|220:212|216:234,1,245,4|0,3:1|0:0,0:0:0:0:
238,312,29615,1,8,0:0:0:0:
41,348,29805,6,0,P|36:289|19:195,1,140,4|0,3:1|0:0,0:0:0:0:
23,210,30374,69,0,3:0:0:0:
138,237,30469,1,0,0:0:0:0:
33,201,30564,1,0,0:0:0:0:
93,21,30754,6,0,P|49:24|31:82,1,105
23,84,30944,2,0,P|49:126|86:125,1,70
223,154,31134,70,0,L|212:76,1,70,8|0,0:0|0:0,0:0:0:0:
210,148,31324,2,0,L|132:159,1,70
204,161,31514,2,0,L|215:239,1,70
217,167,31703,2,0,L|295:156,1,70
501,114,31893,6,0,B|414:103|414:103|393:57,1,105
406,87,32083,1,0,0:0:0:0:
227,251,32273,70,0,B|271:262|271:262|314:213|389:208|389:208|411:170,1,210,4|0,3:1|0:0,0:0:0:0:
306,196,32653,1,8,0:0:0:0:
332,382,32843,6,0,P|379:363|330:299,1,140,4|0,3:1|0:0,0:0:0:0:
349,298,33412,70,0,P|295:285|245:285,1,105,0|0,3:0|0:0,0:0:0:0:
237,276,33602,2,0,P|196:293|162:321,1,70
13,339,33792,6,0,P|8:371|-3:415,3,46.6666666666667
208,204,34172,2,0,P|122:218|127:285,1,140,8|0,0:0|0:0,0:0:0:0:
347,376,34552,69,0,0:0:0:0:
289,126,34741,2,0,L|249:131,2,35,2|0|0,0:3|0:0|0:0,0:0:0:0:
132,167,34931,6,0,P|147:115|173:68,1,105
166,62,35121,2,0,L|206:67,2,35,2|0|0,0:3|0:0|0:0,0:0:0:0:
249,311,35311,70,0,B|230:294|204:290|204:290|220:262|213:218|213:218|221:281|243:300,1,210,0|0,3:0|0:0,0:0:0:0:
326,287,35691,1,8,0:0:0:0:
491,196,35881,6,0,P|491:153|464:126,1,70,0|0,3:0|0:0,0:0:0:0:
326,287,36071,2,0,P|416:298|469:325,1,140
181,376,36450,37,4,3:1:0:0:
133,314,36545,1,0,0:0:0:0:
193,263,36640,1,0,0:0:0:0:
362,315,36830,6,0,P|356:288|352:260,1,56
287,332,37020,2,0,P|280:304|276:276,1,56
152,122,37210,69,8,0:0:0:0:
321,91,37400,1,0,0:0:0:0:
352,260,37590,1,0,0:0:0:0:
183,291,37779,1,0,0:0:0:0:
308,5,37969,6,0,P|284:66|271:189,1,168
275,246,38349,2,0,P|204:246|210:147,1,168,4|0,3:1|0:0,0:0:0:0:
316,105,38729,69,0,0:0:0:0:
112,18,38919,1,0,0:0:0:0:
13,229,39109,2,0,P|49:207|95:204,1,84
96,192,39488,6,0,P|106:231|131:252,1,56,4|0,3:1|0:0,0:0:0:0:
188,208,39678,2,0,P|178:169|153:148,1,56
19,380,39868,70,0,P|48:369|79:368,3,37.3333333333333
109,255,40248,1,8,0:0:0:0:
195,325,40437,1,0,0:0:0:0:
300,362,40627,1,0,0:0:0:0:
411,362,40817,2,0,P|411:327|402:289,1,56,2|0,0:3|0:0,0:0:0:0:
267,146,41007,5,0,0:0:0:0:
455,194,41197,2,0,P|415:205|379:227,1,84,2|0,0:3|0:0,0:0:0:0:
327,285,41387,2,0,P|342:206|347:116,1,168,4|0,3:1|0:0,0:0:0:0:
338,41,41767,69,8,0:0:0:0:
395,336,41957,1,4,3:1:0:0:
338,41,42146,2,0,B|385:40|370:63|425:57,1,84
469,0,42526,5,0,3:0:0:0:
512,66,42621,1,0,0:0:0:0:
463,127,42716,1,0,0:0:0:0:
269,233,42906,70,0,P|222:217|191:212,1,56
295,161,43096,2,0,P|248:145|217:140,1,56
227,42,43286,5,8,0:0:0:0:
36,84,43476,1,0,0:0:0:0:
78,275,43665,1,0,0:0:0:0:
269,233,43855,1,0,0:0:0:0:
76,15,44045,70,0,P|149:19|166:110,1,168
156,179,44425,2,0,B|206:182|229:217|229:217|217:167|245:131,1,168,4|0,3:1|0:0,0:0:0:0:
171,100,44805,5,8,0:0:0:0:
383,245,44995,1,4,3:1:0:0:
469,15,45184,2,0,P|484:79|504:111,1,98
511,107,45564,70,0,P|481:98|439:105,1,56,0|0,3:0|0:0,0:0:0:0:
391,46,45754,2,0,P|363:60|338:95,1,56
240,265,45944,6,0,P|235:237|230:212,3,37.3333333333333
334,75,46324,1,8,0:0:0:0:
320,185,46513,1,0,0:0:0:0:
256,276,46703,1,0,0:0:0:0:
158,327,46893,2,0,P|151:296|148:248,1,56,2|0,0:3|0:0,0:0:0:0:
174,52,47083,69,0,0:0:0:0:
84,226,47273,2,0,P|102:173|109:124,1,84,2|0,0:3|0:0,0:0:0:0:
72,77,47463,2,0,P|144:67|185:143,1,168,0|0,3:0|0:0,0:0:0:0:
168,218,47843,5,8,0:0:0:0:
419,117,48033,1,0,3:0:0:0:
168,218,48222,2,0,B|156:267|185:302|185:302|181:329,1,112,0|2,0:0|0:0,0:0:0:0:
125,265,54678,37,0,0:0:0:0:
125,265,54773,1,0,0:0:0:0:
125,265,54868,1,0,0:0:0:0:
208,235,55057,1,0,0:0:0:0:
297,240,55247,1,0,0:0:0:0:
511,254,55438,5,8,0:0:0:0:
436,335,55627,1,0,0:0:0:0:
329,365,55817,1,0,0:0:0:0:
223,336,56007,1,0,0:0:0:0:
38,258,56197,69,0,0:0:0:0:
169,277,56386,1,0,0:0:0:0:
297,240,56576,1,0,0:0:0:0:
398,152,56766,1,0,0:0:0:0:
242,19,56957,5,8,0:0:0:0:
262,97,57146,1,0,0:0:0:0:
242,19,57336,1,0,0:0:0:0:
16,212,57716,69,0,0:0:0:0:
117,203,57906,1,0,0:0:0:0:
135,303,58096,2,0,L|113:299,3,23.3333333333333
198,359,58476,6,0,P|254:356|262:273,1,140,8|0,0:0|0:0,0:0:0:0:
223,155,59045,2,0,P|222:193|224:232,1,70,2|0,0:3|0:0,0:0:0:0:
277,94,59425,2,0,P|278:56|276:17,1,70,2|0,0:3|0:0,0:0:0:0:
276,24,59805,69,0,0:0:0:0:
230,98,59994,1,8,0:0:0:0:
260,181,60184,1,0,0:0:0:0:
343,209,60374,1,0,0:0:0:0:
129,357,60754,37,4,3:1:0:0:
105,279,60849,1,0,0:0:0:0:
181,262,60944,1,0,0:0:0:0:
407,321,61134,70,0,B|417:292|413:267|413:267|431:229,1,70
466,178,61324,2,0,B|464:145|444:128|444:128|440:86,1,70
505,284,61514,6,0,P|421:290|411:161,1,210,8|0,0:0|0:0,0:0:0:0:
390,185,61893,1,0,0:0:0:0:
468,37,62083,2,0,L|506:27,2,35
478,159,62273,69,0,0:0:0:0:
273,24,62463,1,0,0:0:0:0:
121,221,62653,6,0,B|93:170|93:170|149:194|149:194|123:238|139:287,1,210,4|0,3:1|0:0,0:0:0:0:
339,326,63033,2,0,P|339:257|215:231,1,210
137,366,63412,70,0,P|172:350|192:346,1,52.5
185,346,63792,5,4,3:1:0:0:
0,285,63982,1,0,0:0:0:0:
140,145,64172,2,0,P|145:170|146:195,3,46.6666666666667
77,315,64552,70,0,P|94:284|125:264,1,70,8|0,0:0|0:0,0:0:0:0:
213,118,64741,2,0,P|196:87|165:66,1,70
13,57,64931,5,0,0:0:0:0:
192,230,65121,2,0,L|233:218,2,35,2|0|0,0:3|0:0|0:0,0:0:0:0:
309,196,65311,70,0,P|296:247|292:299,1,105
299,312,65501,2,0,L|258:300,2,35,2|0|0,0:3|0:3|0:0,0:0:0:0:
420,169,65691,6,0,B|503:159|503:159|504:136|514:123|514:123|496:122|482:108|482:108|420:169,1,245,4|0,3:1|0:0,0:0:0:0:
380,238,66071,1,8,0:0:0:0:
282,50,66260,70,0,B|201:58|236:0|144:16,1,140,4|0,3:1|0:0,0:0:0:0:
152,14,66830,5,0,3:0:0:0:
172,101,66925,1,0,0:0:0:0:
90,122,67020,1,0,0:0:0:0:
358,190,67210,70,0,B|420:198|420:198|436:228,1,70
229,162,67400,2,0,B|286:137|286:137|315:155,1,70
496,56,67590,5,8,0:0:0:0:
496,56,67779,1,0,0:0:0:0:
229,162,67969,70,0,L|234:119,1,35
512,274,68349,6,0,P|457:287|423:304,1,70
291,281,68539,2,0,P|342:304|391:358,1,105
382,350,68729,69,4,3:1:0:0:
430,114,68919,1,0,0:0:0:0:
199,286,69109,6,0,P|166:279|162:223,1,70,8|0,0:0|0:0,0:0:0:0:
279,205,69298,2,0,P|277:265|186:295,1,140,4|0,3:1|0:0,0:0:0:0:
212,301,69868,69,0,3:0:0:0:
4,202,70058,1,0,0:0:0:0:
163,30,70248,2,0,P|188:22|220:22,3,46.6666666666667
94,0,70627,6,0,B|77:20|77:20|71:51|97:72,1,70,8|0,0:0|0:0,0:0:0:0:
250,166,70817,2,0,B|261:189|261:189|259:221|228:234,1,70
104,325,71007,69,0,0:0:0:0:
139,144,71197,2,0,L|150:91,2,35,2|0|0,0:3|0:0|0:0,0:0:0:0:
148,384,71387,6,0,P|134:329|105:273,1,105
104,286,71577,2,0,L|93:233,2,35,2|0|0,0:3|0:0|0:0,0:0:0:0:
343,384,71767,70,0,B|396:321|492:331|492:331|514:283,1,210,0|0,3:0|0:0,0:0:0:0:
510,291,72146,1,8,0:0:0:0:
28,41,72906,70,0,B|51:73|78:76|78:76|138:28|225:15|296:43|296:43|331:26|331:26|366:102|244:237|99:202,1,672,2|2,0:0|0:0,0:0:0:0:
319,306,75564,69,2,0:0:0:0:
319,306,75944,2,0,B|303:197|352:104|461:72|461:72|481:42|481:42|523:179|488:315|360:377,1,728,2|2,0:0|0:0,0:0:0:0:
121,191,78982,6,0,B|113:149|65:113|-70:199|28:338|108:321|97:291|147:291|174:353|174:353|184:282|244:301|265:122|148:101|114:147|121:191,1,672,2|0,0:0|0:0,0:0:0:0:
250,22,81830,69,2,0:0:0:0:
250,22,82020,1,2,0:0:0:0:
283,100,82210,2,0,B|284:159|237:138|250:191|250:191|304:235|297:311|297:311|333:230|261:169,1,392,2|0,0:0|0:0,0:0:0:0:
97,51,85058,69,4,3:1:0:0:
175,24,85153,1,0,0:0:0:0:
93,41,85248,1,0,0:0:0:0:
99,276,85438,70,0,P|152:300|201:255,1,105
200,278,85628,2,0,P|201:224|174:206,1,70
93,41,85817,6,0,L|115:191,1,140,8|0,0:0|0:0,0:0:0:0:
139,384,86197,1,0,0:0:0:0:
181,115,86387,2,0,L|129:103,2,35
52,210,86577,70,0,P|100:192|166:188,1,105
159,198,86767,2,0,P|210:207|239:221,1,70
427,292,86957,6,0,B|498:258|475:205|475:205|433:213|459:254|421:284,1,210,4|0,3:1|0:0,0:0:0:0:
417,370,87336,2,0,B|419:231|337:315|328:170,1,210
397,143,87716,70,0,P|402:106|402:79,1,61.25
402,82,88096,6,0,P|354:100|288:104,1,105,4|0,3:1|0:0,0:0:0:0:
295,94,88286,2,0,P|244:85|215:71,1,70
103,47,88476,70,0,P|98:15|84:-26,3,46.6666666666667
21,247,88855,2,0,B|62:262|62:262|116:222|182:234|182:234|209:201,1,210,8|0,0:0|0:0,0:0:0:0:
206,203,89235,5,0,0:0:0:0:
298,375,89425,2,0,L|341:365,2,35,2|0|0,0:3|0:0|0:0,0:0:0:0:
117,228,89615,70,0,P|133:179|142:127,1,105
138,115,89805,2,0,L|181:125,2,35,2|0|0,0:3|0:3|0:0,0:0:0:0:
326,285,89995,6,0,B|378:255|378:255|422:288|405:331|405:331|384:288|326:285,1,245,4|0,3:1|0:0,0:0:0:0:
263,327,90374,1,8,0:0:0:0:
275,140,90564,70,0,P|220:132|116:107,1,140,4|0,3:1|0:0,0:0:0:0:
137,114,91134,5,0,3:0:0:0:
162,205,91229,1,0,0:0:0:0:
129,121,91324,1,0,0:0:0:0:
242,7,91514,70,0,P|292:14|320:57,1,105
327,65,91703,2,0,P|298:85|288:117,1,70
282,244,91893,6,0,P|316:243|351:237,1,70,8|0,0:0|0:0,0:0:0:0:
346,319,92083,2,0,P|311:319|276:325,1,70
360,246,92273,70,0,L|380:165,1,70
268,317,92463,2,0,L|248:398,1,70
509,384,92653,6,0,B|489:368|489:368|469:279,1,105
471,290,92843,1,0,0:0:0:0:
510,5,93033,70,0,P|440:5|425:136,1,210,4|0,3:1|0:0,0:0:0:0:
492,141,93412,1,8,0:0:0:0:
279,218,93602,6,0,B|197:231|231:167|146:181,1,140,4|0,3:1|0:0,0:0:0:0:
151,180,94172,70,0,P|141:128|136:60,1,105,0|0,3:0|0:0,0:0:0:0:
127,71,94362,2,0,P|115:115|100:149,1,70
10,291,94552,6,0,P|5:259|-6:215,3,46.6666666666667
206,375,94931,2,0,P|133:374|106:247,1,210,8|0,0:0|0:0,0:0:0:0:
97,258,95311,69,0,0:0:0:0:
360,206,95501,2,0,L|368:158,2,35,2|0|0,0:3|0:0|0:0,0:0:0:0:
182,58,95691,6,0,L|310:78,1,105
301,77,95881,2,0,L|309:125,2,35,2|0|0,0:3|0:0|0:0,0:0:0:0:
179,376,96071,70,0,B|197:337|238:335|238:335|275:200,1,210,0|0,3:0|0:0,0:0:0:0:
294,133,96450,1,8,0:0:0:0:
386,305,96640,6,0,L|478:288,1,70,0|0,3:0|0:0,0:0:0:0:
294,133,96830,2,0,P|229:122|197:179,1,140
286,384,97210,37,4,3:1:0:0:
311,309,97305,1,0,0:0:0:0:
250,259,97400,1,0,0:0:0:0:
22,333,97590,6,0,L|89:345,1,56
39,258,97779,2,0,L|106:270,1,56
163,222,97969,69,8,0:0:0:0:
292,380,98159,1,0,0:0:0:0:
404,205,98349,1,0,0:0:0:0:
258,240,98539,1,0,0:0:0:0:
309,300,98729,6,0,B|278:207|353:230|318:133,1,168
359,71,99109,2,0,P|314:110|196:113,1,168,4|0,3:1|0:0,0:0:0:0:
134,85,99488,69,0,0:0:0:0:
151,315,99678,1,0,0:0:0:0:
371,270,99868,2,0,L|461:283,1,84
469,284,100248,6,0,P|466:247|449:221,1,56,4|0,3:1|0:0,0:0:0:0:
501,166,100438,2,0,P|473:142|442:136,1,56
348,192,100627,70,0,P|359:163|360:132,3,37.3333333333333
304,27,101007,1,8,0:0:0:0:
293,271,101197,1,0,0:0:0:0:
122,133,101387,1,0,0:0:0:0:
248,92,101577,2,0,L|236:161,1,56,2|0,0:3|0:0,0:0:0:0:
208,303,101767,5,0,0:0:0:0:
62,227,101957,2,0,L|79:328,1,84,2|0,0:3|0:0,0:0:0:0:
89,383,102146,2,0,B|90:317|155:311|155:311|166:341|197:348,1,168,4|0,3:1|0:0,0:0:0:0:
278,322,102526,69,8,0:0:0:0:
345,22,102716,1,4,3:1:0:0:
278,322,102906,2,0,L|265:229,1,84
323,180,103286,5,0,3:0:0:0:
363,247,103381,1,0,0:0:0:0:
440,234,103476,1,0,0:0:0:0:
234,127,103665,70,0,P|241:88|237:60,1,56
155,119,103855,2,0,P|154:91|161:64,1,56
300,15,104045,5,8,0:0:0:0:
17,205,104235,1,0,0:0:0:0:
281,352,104425,1,0,0:0:0:0:
136,191,104615,1,0,0:0:0:0:
56,366,104805,70,0,P|112:328|216:323,1,168
294,311,105184,2,0,B|336:325|344:364|344:364|353:304|299:287,1,168,4|0,3:1|0:0,0:0:0:0:
241,245,105564,5,8,0:0:0:0:
459,218,105754,1,4,3:1:0:0:
421,9,105944,2,0,P|380:17|357:51,1,84
348,52,106324,70,0,L|358:116,1,56,0|0,3:0|0:0,0:0:0:0:
499,151,106514,2,0,L|489:215,1,56
259,155,106703,6,0,P|287:160|312:165,3,37.3333333333333
181,30,107083,1,8,0:0:0:0:
257,236,107273,1,0,0:0:0:0:
334,60,107463,1,0,0:0:0:0:
252,70,107653,2,0,L|318:85,1,56,2|0,0:3|0:0,0:0:0:0:
454,254,107843,69,0,0:0:0:0:
209,323,108033,2,0,L|309:306,1,84,2|0,0:3|0:0,0:0:0:0:
344,370,108222,2,0,B|305:311|311:236|311:236|275:209,1,168,0|0,3:0|0:0,0:0:0:0:
307,147,108602,5,8,0:0:0:0:
30,246,108792,1,0,3:0:0:0:
307,147,108982,2,0,B|312:114|338:104|338:104|330:74|342:49,1,112,0|2,0:0|0:0,0:0:0:0:
256,192,109457,12,0,115248,0:0:0:0:
220,192,115438,37,0,0:0:0:0:
220,192,115533,1,0,0:0:0:0:
220,192,115628,1,0,0:0:0:0:
232,272,115817,1,0,0:0:0:0:
356,234,116007,1,0,0:0:0:0:
356,234,116197,1,8,0:0:0:0:
277,131,116387,1,0,0:0:0:0:
249,351,116577,1,0,0:0:0:0:
433,261,116767,1,0,0:0:0:0:
275,212,116957,1,0,0:0:0:0:
440,334,117147,1,0,0:0:0:0:
507,229,117336,1,0,0:0:0:0:
365,294,117526,1,0,0:0:0:0:
365,294,117716,1,8,0:0:0:0:
298,138,117906,1,0,0:0:0:0:
339,368,118096,1,0,0:0:0:0:
91,53,118476,5,0,0:0:0:0:
91,53,118666,1,0,0:0:0:0:
166,88,118855,2,0,L|171:58,3,23.3333333333333
239,21,119235,69,8,0:0:0:0:
239,21,119425,1,0,0:0:0:0:
101,161,119615,1,0,0:0:0:0:
244,111,119805,2,0,L|241:157,1,35,2|0,0:3|0:0,0:0:0:0:
73,242,119995,5,0,0:0:0:0:
343,269,120185,2,0,L|352:311,1,35,2|0,0:3|0:0,0:0:0:0:
368,380,120374,69,0,0:0:0:0:
501,157,120564,1,0,0:0:0:0:
501,157,120754,1,8,0:0:0:0:
449,277,120944,1,0,0:0:0:0:
430,198,121134,2,0,L|291:180,1,140,0|2,0:0|0:3,0:0:0:0:
