osu file format v14

[General]
AudioFilename: audio.mp3
AudioLeadIn: 0
PreviewTime: 8125
Countdown: 0
SampleSet: Soft
StackLeniency: 0.7
Mode: 0
LetterboxInBreaks: 0
WidescreenStoryboard: 0

[Editor]
DistanceSpacing: 1.3
BeatDivisor: 8
GridSize: 32
TimelineZoom: 0.8000002

[Metadata]
Title:Bad Dream
TitleUnicode:Bad Dream
Artist:Jutes
ArtistUnicode:Jutes
Creator:Vanchanical
Version:Normal
Source:
Tags:english hip hop hip-hop rap wafer goopert KAMI NO KOTOBA a really
BeatmapID:2824251
BeatmapSetID:1365310

[Difficulty]
HPDrainRate:3
CircleSize:3.5
OverallDifficulty:4
ApproachRate:5.5
SliderMultiplier:1.6
SliderTickRate:1

[Events]
//Background and Video events
0,0,"wdqdqwd.jpg",0,0
//Break Periods
2,29025,37105
2,77025,85105
//Storyboard Layer 0 (Background)
//Storyboard Layer 1 (Fail)
//Storyboard Layer 2 (Pass)
//Storyboard Layer 3 (Foreground)
//Storyboard Layer 4 (Overlay)
//Storyboard Sound Samples

[TimingPoints]
25,600,4,2,0,50,1,0
8125,-100,4,2,0,35,0,0
9625,-100,4,2,0,65,0,1
27025,-100,4,2,0,60,0,1
28225,-100,4,2,0,50,0,1
28825,-100,4,2,0,40,0,0
36025,-100,4,2,0,45,0,0
36325,-100,4,2,0,42,0,0
36625,-100,4,2,0,38,0,0
36925,-100,4,2,0,34,0,0
37225,-100,4,2,0,30,0,0
37525,-100,4,2,0,26,0,0
37825,-100,4,2,0,40,0,0
38425,-100,4,2,0,50,0,0
46825,-100,4,2,0,40,0,0
48025,-100,4,2,0,50,0,0
55525,-100,4,2,0,46,0,0
55825,-100,4,2,0,42,0,0
56125,-100,4,2,0,38,0,0
56425,-100,4,2,0,30,0,0
56725,-100,4,2,0,30,0,0
57625,-100,4,2,0,65,0,1
74425,-100,4,2,0,60,0,1
74725,-100,4,2,0,54,0,1
75025,-100,4,2,0,50,0,1
75325,-100,4,2,0,46,0,1
75625,-100,4,2,0,40,0,1
76825,-100,4,2,0,36,0,0
84025,-100,4,2,0,45,0,0
84325,-100,4,2,0,42,0,0
84625,-100,4,2,0,38,0,0
84925,-100,4,2,0,34,0,0
85225,-100,4,2,0,40,0,0
86425,-100,4,2,0,50,0,0
96025,-100,4,2,0,55,0,0
103225,-100,4,2,0,50,0,0
103525,-100,4,2,0,46,0,0
103825,-100,4,2,0,42,0,0
104125,-100,4,2,0,38,0,0
104425,-100,4,2,0,34,0,0
105625,-100,4,2,0,65,0,1
112975,-100,4,2,0,50,0,1
113275,-100,4,2,0,65,0,1
122425,-100,4,2,0,60,0,1
122725,-100,4,2,0,54,0,1
123025,-100,4,2,0,50,0,1
123325,-100,4,2,0,46,0,1
123625,-100,4,2,0,40,0,1
123925,-100,4,2,0,36,0,1
124825,-100,4,2,0,36,0,0

[Colours]
Combo1 : 185,185,185
Combo2 : 169,224,172
Combo3 : 214,192,143
Combo4 : 165,201,207

[HitObjects]
256,192,4825,12,2,8425,0:0:0:0:
31,353,9625,6,0,B|62:306|122:326|102:347|148:368|185:338,1,160,6|8,1:0|0:1,0:0:0:0:
237,260,10525,2,0,P|224:226|224:206,1,40,2|2,0:3|0:3,0:0:0:0:
192,180,10825,2,0,P|195:129|205:98,1,80,2|0,0:0|1:2,0:0:0:0:
273,23,11425,5,8,0:1:0:0:
364,72,11725,1,0,1:2:0:0:
467,58,12025,2,0,B|440:104|440:104|482:215,1,160,6|8,1:0|0:1,0:0:0:0:
464,307,12925,2,0,L|403:299,1,40,2|2,0:3|0:3,0:0:0:0:
388,339,13225,2,0,L|287:352,1,80,2|0,0:0|1:2,0:0:0:0:
218,296,13825,1,8,0:1:0:0:
122,338,14125,1,0,1:2:0:0:
53,259,14425,6,0,P|98:202|78:103,1,160,2|8,1:1|0:1,0:0:0:0:
55,86,15175,1,2,0:3:0:0:
55,86,15325,2,0,P|111:78|149:62,1,80,2|2,0:3|0:0,0:0:0:0:
236,61,15925,2,0,P|262:51|292:44,1,40,0|2,1:1|0:3,0:0:0:0:
306,7,16225,2,0,P|347:17|387:32,1,80,8|0,0:1|1:1,0:0:0:0:
469,86,16825,2,0,P|411:152|422:237,1,160,2|10,1:1|0:1,0:0:0:0:
464,310,17725,5,2,0:3:0:0:
371,358,18025,2,0,P|314:336|277:331,1,80,2|4,0:1|0:3,0:0:0:0:
194,360,18625,1,0,1:0:0:0:
109,299,18925,1,4,1:3:0:0:
148,202,19225,6,0,P|140:95|160:15,1,160,6|8,1:0|0:1,0:0:0:0:
248,8,20125,1,2,0:3:0:0:
341,52,20425,2,0,P|349:134|347:160,1,80,2|0,0:0|1:2,0:0:0:0:
407,217,21025,1,8,0:1:0:0:
361,310,21325,6,0,P|327:299|309:288,1,40,0|0,1:2|0:0,0:0:0:0:
271,300,21625,2,0,P|218:324|163:329,1,80,6|0,1:0|0:0,0:0:0:0:
97,360,22225,1,8,0:1:0:0:
25,284,22525,2,0,L|34:225,1,40,2|2,0:3|0:3,0:0:0:0:
60,201,22825,2,0,L|45:91,1,80,2|0,0:0|1:2,0:0:0:0:
114,40,23425,1,8,0:1:0:0:
210,77,23725,1,0,1:2:0:0:
303,31,24025,6,0,B|364:50|364:50|380:90|380:90|457:118,1,160,2|8,1:1|0:1,0:0:0:0:
493,190,24925,2,0,L|431:200,1,40,2|2,0:3|0:3,0:0:0:0:
425,240,25225,2,0,L|333:229,1,80,2|0,0:0|1:1,0:0:0:0:
248,192,25825,1,8,0:1:0:0:
286,95,26125,1,0,1:1:0:0:
212,21,26425,6,0,P|160:88|132:97,1,80,2|0,1:1|0:0,0:0:0:0:
64,103,27025,2,0,P|99:138|112:179,1,80,2|2,1:3|0:2,0:0:0:0:
56,255,27625,2,0,L|149:243,1,80,2|0,0:1|0:0,0:0:0:0:
210,316,28225,2,0,L|302:327,2,80,2|2|2,1:1|0:1|1:3,0:0:0:0:
461,89,38425,6,0,B|420:46|366:66|381:98|311:125|283:100,1,160,4|8,1:0|0:1,0:0:0:0:
224,60,39325,2,0,P|185:72|165:74,1,40,2|2,0:3|0:0,0:0:0:0:
137,51,39625,2,0,P|116:96|84:121,1,80,2|0,0:3|1:0,0:0:0:0:
27,196,40225,1,8,0:1:0:0:
62,293,40525,2,0,L|108:302,1,40,2|0,1:0|0:0,0:0:0:0:
150,284,40825,6,0,B|211:278|211:278|251:311|251:311|333:302,1,160,4|8,1:3|0:1,0:0:0:0:
394,344,41725,1,2,0:3:0:0:
476,280,42025,1,2,0:3:0:0:
407,201,42325,2,0,P|395:145|401:90,2,80,0|8|2,1:0|0:1|1:0,0:0:0:0:
309,242,43225,2,0,P|259:230|172:299,1,160,4|8,1:3|0:1,0:0:0:0:
87,345,44125,1,2,0:3:0:0:
14,270,44425,6,0,L|2:212,1,40,2|2,0:3|0:0,0:0:0:0:
29,184,44725,2,0,L|37:80,1,80,0|8,1:0|0:1,0:0:0:0:
113,35,45325,1,2,1:0:0:0:
204,84,45625,2,0,B|248:55|248:55|384:100,1,160,10|10,1:0|0:1,0:0:0:0:
431,154,46525,2,0,L|437:218,2,40,2|0|2,0:3|0:0|0:0,0:0:0:0:
360,349,47425,6,0,P|311:317|271:317,1,80,8|0,0:1|0:0,0:0:0:0:
201,368,48025,2,0,P|202:296|132:225,1,160,4|8,1:0|0:1,0:0:0:0:
52,188,48925,1,2,0:3:0:0:
72,85,49225,2,0,L|129:89,1,40,2|0,0:3|0:0,0:0:0:0:
151,52,49525,2,0,L|245:44,1,80,0|8,1:0|0:1,0:0:0:0:
331,69,50125,1,2,1:0:0:0:
267,151,50425,6,0,B|237:187|237:187|263:308,1,160,4|8,1:3|0:1,0:0:0:0:
337,367,51325,1,2,0:3:0:0:
434,331,51625,2,0,P|442:299|444:279,1,40,2|0,0:3|0:0,0:0:0:0:
424,243,51925,2,0,P|416:194|421:152,1,80,0|8,1:0|0:1,0:0:0:0:
349,86,52525,1,2,1:0:0:0:
258,33,52825,6,0,B|209:3|166:28|183:46|126:85|84:73,1,160,4|8,1:3|0:1,0:0:0:0:
29,131,53725,1,2,0:3:0:0:
33,234,54025,2,0,L|90:239,1,40,2|0,0:3|0:0,0:0:0:0:
105,278,54325,2,0,L|213:264,1,80,0|8,1:0|0:1,0:0:0:0:
272,322,54925,1,2,1:0:0:0:
361,268,55225,2,0,P|370:216|351:162,2,80,8|8|8,1:2|0:2|0:2,0:0:0:0:
405,304,55975,1,8,0:2:0:0:
405,304,56125,2,0,P|412:333|419:353,1,40,8|8,0:2|0:2,0:0:0:0:
4,132,57625,6,0,B|61:159|107:119|83:101|139:69|180:87,1,160,6|8,1:0|0:1,0:0:0:0:
228,146,58525,2,0,P|238:180|240:202,1,40,2|2,0:3|0:3,0:0:0:0:
216,231,58825,2,0,P|202:288|205:326,1,80,2|0,0:0|1:2,0:0:0:0:
283,373,59425,5,8,0:1:0:0:
384,352,59725,1,0,1:2:0:0:
485,327,60025,2,0,B|464:289|464:289|479:237|479:237|451:177,1,160,6|8,1:0|0:1,0:0:0:0:
405,87,60925,2,0,P|382:95|350:99,1,40,2|2,0:3|0:3,0:0:0:0:
321,124,61225,2,0,P|268:115|231:90,1,80,2|0,0:0|1:2,0:0:0:0:
161,41,61825,1,8,0:1:0:0:
72,95,62125,1,0,1:2:0:0:
131,180,62425,6,0,B|163:227|163:227|116:338,1,160,2|8,1:1|0:1,0:0:0:0:
86,359,63175,1,2,0:3:0:0:
86,359,63325,2,0,P|132:342|171:346,1,80,2|2,0:3|0:0,0:0:0:0:
256,299,63925,2,0,L|307:306,1,40,0|2,1:1|0:3,0:0:0:0:
334,338,64225,2,0,L|430:322,1,80,8|0,0:1|1:1,0:0:0:0:
474,229,64825,2,0,P|420:167|440:83,1,160,2|10,1:1|0:1,0:0:0:0:
368,11,65725,5,2,0:3:0:0:
274,56,66025,2,0,L|175:43,1,80,2|4,0:1|0:3,0:0:0:0:
141,135,66625,1,0,1:0:0:0:
201,219,66925,1,4,1:3:0:0:
130,295,67225,6,0,B|170:266|170:266|308:305,1,160,6|8,1:0|0:1,0:0:0:0:
358,360,68125,1,2,0:3:0:0:
453,318,68425,2,0,L|463:230,1,80,2|0,0:0|1:2,0:0:0:0:
499,141,69025,1,8,0:1:0:0:
439,55,69325,6,0,P|403:37|375:39,1,40,0|0,1:2|0:0,0:0:0:0:
355,57,69625,2,0,P|290:59|252:85,1,80,6|0,1:0|0:0,0:0:0:0:
191,123,70225,1,8,0:1:0:0:
249,208,70525,2,0,L|255:265,1,40,2|2,0:3|0:3,0:0:0:0:
295,278,70825,2,0,L|283:379,1,80,2|0,0:0|1:2,0:0:0:0:
183,377,71425,1,8,0:1:0:0:
120,293,71725,1,0,1:2:0:0:
36,355,72025,6,0,P|23:277|28:186,1,160,2|8,1:1|0:1,0:0:0:0:
33,89,72925,2,0,L|84:92,1,40,2|2,0:3|0:3,0:0:0:0:
106,57,73225,2,0,L|201:47,1,80,2|0,0:0|1:1,0:0:0:0:
281,89,73825,1,8,0:1:0:0:
372,39,74125,1,0,1:1:0:0:
460,92,74425,6,0,P|448:143|405:179,1,80,8|8,1:2|0:2,0:0:0:0:
427,267,75025,2,0,P|376:282|322:261,1,80,8|8,1:2|0:2,0:0:0:0:
273,347,75625,2,0,L|166:337,1,80,2|0,0:2|0:0,0:0:0:0:
100,292,76225,2,0,L|-11:303,2,80,0|0|2,1:1|0:0|1:3,0:0:0:0:
382,120,86425,6,0,B|347:156|347:156|381:292,1,160,4|8,1:0|0:1,0:0:0:0:
372,366,87325,1,2,3:0:0:0:
269,380,87625,2,0,L|199:369,1,40,2|0,3:0|0:0,0:0:0:0:
193,336,87925,2,0,L|86:343,1,80,4|8,0:3|0:1,0:0:0:0:
26,284,88525,1,4,0:3:0:0:
12,180,88825,6,0,B|70:161|70:161|112:180|112:180|200:156,1,160,2|8,1:2|0:1,0:0:0:0:
235,91,89725,1,2,3:0:0:0:
310,162,90025,2,0,P|317:202|312:229,1,40,2|0,3:0|0:0,0:0:0:0:
284,241,90325,2,0,P|270:311|276:338,1,80,4|0,0:3|1:0,0:0:0:0:
358,374,90925,1,4,0:3:0:0:
454,334,91225,6,0,P|461:274|472:228,1,80,2|0,1:2|0:0,0:0:0:0:
495,155,91825,1,8,0:1:0:0:
434,70,92125,1,2,3:0:0:0:
338,109,92425,2,0,L|268:116,1,40,2|0,3:0|0:0,0:0:0:0:
258,78,92725,2,0,L|141:73,1,80,4|8,0:3|0:1,0:0:0:0:
81,113,93325,1,4,0:3:0:0:
137,200,93625,2,0,B|166:235|166:235|131:368,1,160,2|8,1:2|0:1,0:0:0:0:
384,11,95425,6,0,P|424:31|460:85,1,80,8|0,0:0|0:0,0:0:0:0:
506,142,96025,2,0,P|462:204|481:310,1,160,6|8,1:0|0:1,0:0:0:0:
427,381,96925,1,2,0:3:0:0:
355,305,97225,2,0,L|297:298,1,40,2|0,0:3|0:0,0:0:0:0:
276,334,97525,2,0,L|175:342,1,80,2|8,1:0|0:1,0:0:0:0:
98,375,98125,1,2,1:0:0:0:
26,299,98425,6,0,B|53:259|53:259|16:127,1,160,2|8,1:0|0:1,0:0:0:0:
79,63,99325,1,2,0:3:0:0:
163,124,99625,2,0,P|209:116|248:105,1,80,2|2,0:3|1:0,0:0:0:0:
333,60,100225,1,8,0:1:0:0:
416,122,100525,1,2,1:0:0:0:
417,225,100825,6,0,B|358:214|358:214|304:234|304:234|230:222,1,160,2|8,1:0|0:1,0:0:0:0:
203,313,101725,1,2,0:3:0:0:
108,268,102025,2,0,L|98:207,1,40,2|0,0:3|0:0,0:0:0:0:
124,182,102325,2,0,L|128:83,1,80,2|8,1:0|0:1,0:0:0:0:
206,34,102925,1,2,1:0:0:0:
304,67,103225,2,0,L|398:56,2,80,8|8|8,1:2|0:2|0:2,0:0:0:0:
288,119,103975,1,8,0:2:0:0:
288,119,104125,2,0,L|302:187,1,40,8|8,0:2|0:2,0:0:0:0:
481,317,105625,6,0,B|432:347|389:322|406:304|349:265|306:274,1,160,6|8,1:0|0:1,0:0:0:0:
248,328,106525,2,0,P|211:324|191:330,1,40,2|2,0:3|0:3,0:0:0:0:
165,353,106825,2,0,P|110:338|68:305,1,80,2|0,0:0|1:2,0:0:0:0:
112,224,107425,1,8,0:1:0:0:
31,157,107725,1,0,1:2:0:0:
83,67,108025,6,0,B|146:52|146:52|190:71|190:71|256:57,1,160,6|8,1:0|0:1,0:0:0:0:
330,16,108925,2,0,L|344:73,1,40,2|2,0:3|0:3,0:0:0:0:
386,78,109225,2,0,L|376:192,1,80,2|0,0:0|1:2,0:0:0:0:
453,231,109825,1,8,0:1:0:0:
417,328,110125,1,0,1:2:0:0:
314,310,110425,6,0,P|226:296|163:368,1,160,2|8,1:1|0:1,0:0:0:0:
134,369,111175,1,2,0:3:0:0:
134,369,111325,2,0,P|131:317|122:288,1,80,2|2,0:3|0:0,0:0:0:0:
34,236,111925,2,0,L|23:181,1,40,0|2,1:1|0:3,0:0:0:0:
52,151,112225,2,0,L|60:62,1,80,8|0,0:1|1:1,0:0:0:0:
141,7,112825,2,0,B|183:47|183:47|292:23,1,160,10|10,1:1|0:1,0:0:0:0:
383,53,113725,5,2,0:3:0:0:
325,139,114025,1,2,0:1:0:0:
406,203,114325,2,0,P|411:250|401:304,1,80,4|0,0:3|1:0,0:0:0:0:
339,361,114925,1,4,1:3:0:0:
249,307,115225,6,0,B|200:277|157:302|174:320|117:359|76:352,1,160,6|8,1:0|0:1,0:0:0:0:
19,292,116125,1,2,0:3:0:0:
57,195,116425,2,0,P|60:122|51:91,1,80,2|0,0:0|1:2,0:0:0:0:
127,37,117025,1,8,0:1:0:0:
226,67,117325,6,0,P|257:74|282:71,1,40,0|0,1:2|0:0,0:0:0:0:
308,44,117625,2,0,P|341:73|386:83,1,80,6|0,1:0|0:0,0:0:0:0:
468,128,118225,1,8,0:1:0:0:
456,231,118525,2,0,L|404:243,1,40,2|2,0:3|0:3,0:0:0:0:
385,281,118825,2,0,L|296:268,1,80,2|0,0:0|1:2,0:0:0:0:
229,340,119425,1,8,0:1:0:0:
127,318,119725,1,0,1:2:0:0:
58,239,120025,6,0,B|76:179|76:179|119:156|119:156|134:97,1,160,2|8,1:1|0:1,0:0:0:0:
207,38,120925,2,0,L|224:91,1,40,2|2,0:3|0:3,0:0:0:0:
264,101,121225,2,0,L|255:198,1,80,2|0,0:0|1:1,0:0:0:0:
188,260,121825,1,8,0:1:0:0:
242,348,122125,1,0,1:1:0:0:
345,353,122425,6,0,P|373:317|377:272,1,80,8|8,1:2|0:2,0:0:0:0:
439,199,123025,2,0,P|421:156|380:129,1,80,8|8,1:2|0:2,0:0:0:0:
331,52,123625,2,0,L|232:57,1,80,8|8,0:2|0:2,0:0:0:0:
151,107,124225,2,0,L|66:104,2,80,2|2|2,0:0|0:0|0:3,0:0:0:0:
