osu file format v14

[General]
AudioFilename: Justin Bieber-Sorry.mp3
AudioLeadIn: 0
PreviewTime: -1
Countdown: 1
SampleSet: Normal
StackLeniency: 0.7
Mode: 0
LetterboxInBreaks: 0
WidescreenStoryboard: 1

[Editor]
DistanceSpacing: 0.8
BeatDivisor: 4
GridSize: 32
TimelineZoom: 1

[Metadata]
Title:Sorry
TitleUnicode:Sorry
Artist:Justin Bieber
ArtistUnicode:Justin Bieber
Creator:Lenardan14
Version:Very Easy
Source:
Tags:JustinBieber Sorry English Pop
BeatmapID:857419
BeatmapSetID:393123

[Difficulty]
HPDrainRate:5
CircleSize:4
OverallDifficulty:1.5
ApproachRate:7
SliderMultiplier:1.00000000596046
SliderTickRate:2

[Events]
//Background and Video events
0,0,"n-SORRY-large570.jpg",0,0
//Break Periods
2,89200,109700
//Storyboard Layer 0 (Background)
//Storyboard Layer 1 (Fail)
//Storyboard Layer 2 (Pass)
//Storyboard Layer 3 (Foreground)
//Storyboard Sound Samples

[TimingPoints]
9800,600,4,1,0,100,1,0
67760,-100,4,1,0,100,0,1
81498,-100,4,1,0,100,0,0
144000,-100,4,1,0,100,0,1
168463,-100,4,1,0,100,0,0

[HitObjects]
256,192,800,12,0,2600,0:0:0:0:
256,192,5000,5,0,0:0:0:0:
256,192,5600,12,0,7400,0:0:0:0:
160,96,8300,6,0,L|320:96,2,150
96,192,11000,1,0,0:0:0:0:
192,224,12200,1,0,0:0:0:0:
320,224,13400,1,0,0:0:0:0:
384,160,14000,1,0,0:0:0:0:
192,128,15200,1,0,0:0:0:0:
96,160,16400,1,0,0:0:0:0:
192,256,17600,1,0,0:0:0:0:
256,320,18200,1,0,0:0:0:0:
352,224,19400,1,0,0:0:0:0:
352,128,20000,1,0,0:0:0:0:
352,224,20600,1,0,0:0:0:0:
352,128,21200,1,0,0:0:0:0:
352,224,21800,1,0,0:0:0:0:
352,128,22400,1,0,0:0:0:0:
160,96,23600,2,0,P|0:192|128:320,2,400.000002384186
256,96,29000,5,0,0:0:0:0:
320,128,30200,1,0,0:0:0:0:
256,192,31400,1,0,0:0:0:0:
320,256,32600,1,0,0:0:0:0:
256,288,33800,1,0,0:0:0:0:
192,256,35000,1,0,0:0:0:0:
160,192,36200,1,0,0:0:0:0:
192,128,37400,1,0,0:0:0:0:
256,96,38600,2,0,L|352:128,5,100.000000596046
512,128,42800,2,0,L|512:352,3,200.000001192092
288,320,48200,5,0,0:0:0:0:
128,320,49400,1,0,0:0:0:0:
0,320,50600,1,0,0:0:0:0:
0,192,53000,1,0,0:0:0:0:
160,192,54200,1,0,0:0:0:0:
320,192,55400,1,0,0:0:0:0:
288,64,57800,1,0,0:0:0:0:
160,64,59000,1,0,0:0:0:0:
0,96,60200,1,0,0:0:0:0:
320,64,62000,5,0,0:0:0:0:
384,96,62600,2,0,P|480:160|384:288,1,300.000001788138
288,224,65000,2,0,P|320:128|160:96,1,300.000001788138
96,160,67400,1,0,0:0:0:0:
32,96,68600,5,0,0:0:0:0:
96,96,69800,2,0,L|320:96,2,200.000001192092
128,192,73400,1,0,0:0:0:0:
192,192,74600,2,0,L|416:192,2,200.000001192092
224,256,78200,1,0,0:0:0:0:
320,256,79400,2,0,L|544:256,2,200.000001192092
192,256,83000,1,0,0:0:0:0:
96,256,84200,1,0,0:0:0:0:
32,256,85400,1,0,0:0:0:0:
64,192,86600,1,0,0:0:0:0:
256,192,87200,12,0,89000,0:0:0:0:
256,192,110600,5,0,0:0:0:0:
160,128,111800,1,0,0:0:0:0:
96,96,113000,2,0,P|192:64|288:96,2,200.000001192092
64,160,116600,1,0,0:0:0:0:
64,192,117800,2,0,P|128:256|224:224,2,200.000001192092
192,192,121400,1,0,0:0:0:0:
320,192,122600,2,0,P|384:96|416:128,2,200.000001192092
384,192,126200,1,0,0:0:0:0:
384,256,126800,1,0,0:0:0:0:
384,320,127400,1,0,0:0:0:0:
288,320,128600,1,0,0:0:0:0:
224,320,129200,1,0,0:0:0:0:
160,320,129800,1,0,0:0:0:0:
96,256,131000,5,0,0:0:0:0:
96,192,132200,1,0,0:0:0:0:
96,128,132800,2,0,L|128:32,2,100.000000596046
192,128,134600,1,0,0:0:0:0:
256,128,135800,1,0,0:0:0:0:
352,128,137000,1,0,0:0:0:0:
384,128,138200,2,0,P|448:192|384:256,1,200.000001192092
288,256,140600,2,0,L|64:256,1,200.000001192092
96,192,144200,2,0,L|160:96,8,100.000000596046
192,192,150200,5,0,0:0:0:0:
256,192,151400,2,0,L|480:192,4,200.000001192092
128,128,158600,5,0,0:0:0:0:
192,128,159800,1,0,0:0:0:0:
256,128,161000,2,0,L|352:160,2,100.000000596046
256,192,163400,12,0,168200,0:0:0:0:
96,96,168800,6,0,L|320:96,2,200.000001192092
96,128,173600,2,0,L|96:352,2,200.000001192092
160,160,177200,1,0,0:0:0:0:
224,160,177800,1,0,0:0:0:0:
288,160,178400,1,0,0:0:0:0:
352,160,179000,1,0,0:0:0:0:
416,192,180200,2,0,L|512:224,1,100.000000596046
294,327,182600,1,0,0:0:0:0:
187,314,183200,1,0,0:0:0:0:
120,230,183800,1,0,0:0:0:0:
133,123,184400,1,0,0:0:0:0:
217,56,185000,1,0,0:0:0:0:
324,69,185600,1,0,0:0:0:0:
391,153,186200,1,0,0:0:0:0:
378,260,186800,1,0,0:0:0:0:
288,288,187400,6,0,L|64:288,2,200.000001192092
96,192,192200,2,0,P|256:64|384:192,2,400.000002384184
