osu file format v14

[General]
AudioFilename: Justin Bieber-Sorry.mp3
AudioLeadIn: 0
PreviewTime: -1
Countdown: 1
SampleSet: Normal
StackLeniency: 0.7
Mode: 0
LetterboxInBreaks: 0
WidescreenStoryboard: 0

[Editor]
DistanceSpacing: 0.5
BeatDivisor: 4
GridSize: 32
TimelineZoom: 1

[Metadata]
Title:Sorry
TitleUnicode:Sorry
Artist:Justin Bieber
ArtistUnicode:Justin Bieber
Creator:Lenardan14
Version:Normal
Source:
Tags:JustinBieber Sorry English Pop
BeatmapID:855731
BeatmapSetID:393123

[Difficulty]
HPDrainRate:5
CircleSize:4
OverallDifficulty:2
ApproachRate:9
SliderMultiplier:1.5
SliderTickRate:2

[Events]
//Background and Video events
0,0,"n-SORRY-large570.jpg",0,0
//Break Periods
2,89200,100400
//Storyboard Layer 0 (Background)
//Storyboard Layer 1 (Fail)
//Storyboard Layer 2 (Pass)
//Storyboard Layer 3 (Foreground)
//Storyboard Sound Samples

[TimingPoints]
9800,600,4,1,0,100,1,0
67760,-100,4,1,0,100,0,1
81498,-100,4,1,0,100,0,0
144000,-100,4,1,0,100,0,1
168463,-100,4,1,0,100,0,0

[HitObjects]
256,192,800,12,0,1400,0:0:0:0:
256,192,2000,12,0,2600,0:0:0:0:
256,192,5600,12,0,6200,0:0:0:0:
256,192,6800,12,0,7400,0:0:0:0:
160,128,8300,6,0,L|64:128,2,75
256,128,9200,2,0,L|320:128,2,37.5
416,192,9800,5,0,0:0:0:0:
352,224,10400,1,0,0:0:0:0:
288,256,11000,1,0,0:0:0:0:
224,256,11600,1,0,0:0:0:0:
160,224,12200,1,0,0:0:0:0:
96,192,12800,1,0,0:0:0:0:
192,128,13400,5,0,0:0:0:0:
256,128,13850,2,0,L|320:128,2,37.5
96,96,14600,5,0,0:0:0:0:
96,224,15200,1,0,0:0:0:0:
256,224,15800,1,0,0:0:0:0:
416,224,16400,1,0,0:0:0:0:
416,96,17000,1,0,0:0:0:0:
256,96,17600,1,0,0:0:0:0:
256,192,18200,5,0,0:0:0:0:
160,192,18500,2,0,L|96:192,2,37.5
128,96,19400,6,0,L|128:256,1,150
256,256,20600,2,0,L|256:96,1,150
384,96,21800,2,0,L|384:256,1,150
288,256,22700,5,0,0:0:0:0:
224,256,23000,1,0,0:0:0:0:
160,256,23300,1,0,0:0:0:0:
160,192,23600,6,0,L|288:96,1,150
416,128,24800,1,0,0:0:0:0:
416,160,24950,1,0,0:0:0:0:
416,224,25250,1,0,0:0:0:0:
320,256,26000,1,0,0:0:0:0:
288,256,26300,1,0,0:0:0:0:
256,256,26600,1,0,0:0:0:0:
224,256,26900,1,0,0:0:0:0:
96,192,27500,6,0,L|96:96,2,75
192,192,28400,2,0,L|192:128,4,37.5
288,128,29600,1,0,0:0:0:0:
288,224,30200,1,0,0:0:0:0:
384,224,30800,1,0,0:0:0:0:
384,128,31400,1,0,0:0:0:0:
480,192,32000,1,0,0:0:0:0:
416,128,32600,5,0,0:0:0:0:
352,128,32900,2,0,L|352:64,2,37.5
448,256,33800,6,0,P|384:320|320:320,1,150
384,160,35000,6,0,P|320:224|256:224,1,150
384,160,36200,6,0,P|320:224|256:224,1,150
384,160,37400,6,0,P|320:224|256:224,1,150
96,128,38600,6,0,L|416:128,2,300
96,224,41450,2,0,L|160:224,1,37.5
320,96,42650,5,0,0:0:0:0:
320,96,42800,1,0,0:0:0:0:
320,96,42950,1,0,0:0:0:0:
416,96,43250,1,0,0:0:0:0:
224,96,44000,1,0,0:0:0:0:
224,96,44150,1,0,0:0:0:0:
128,96,44450,1,0,0:0:0:0:
128,192,45200,2,0,L|288:192,2,150
128,96,47000,6,0,L|288:96,1,150
256,192,48200,5,0,0:0:0:0:
320,192,48500,2,0,L|416:96,1,112.5
256,192,49400,5,0,0:0:0:0:
160,192,49700,2,0,L|256:96,1,112.5
256,192,50600,6,0,L|259:35,2,150
384,192,52400,2,0,L|320:192,1,37.5
256,192,53000,5,0,0:0:0:0:
128,224,53300,2,0,L|256:352,1,150
256,192,54200,5,0,0:0:0:0:
320,224,54500,2,0,L|448:352,1,150
256,192,55400,5,0,0:0:0:0:
96,288,56300,6,0,L|416:288,1,300
256,192,57800,5,0,0:0:0:0:
384,128,58250,2,0,L|384:64,2,37.5
256,192,59000,5,0,0:0:0:0:
128,128,59450,2,0,L|128:64,2,37.5
256,192,60200,6,0,L|256:352,2,150
256,96,62000,1,0,0:0:0:0:
256,192,62600,6,0,L|192:128,1,75
160,96,63200,2,0,L|64:96,1,75
32,128,63800,2,0,L|96:192,1,75
128,224,64400,2,0,L|224:192,1,75
256,192,65000,6,0,L|320:128,1,75
352,96,65600,2,0,L|448:96,1,75
448,160,66200,2,0,L|384:224,1,75
352,256,66800,2,0,L|256:256,1,75
256,192,67400,5,0,0:0:0:0:
389,64,68000,6,0,L|352:64,4,37.5
378,160,69200,2,0,L|416:160,4,37.5
320,224,70400,1,0,0:0:0:0:
256,288,71000,1,0,0:0:0:0:
192,224,71600,1,0,0:0:0:0:
192,128,72200,1,0,0:0:0:0:
133,64,72800,6,0,L|96:64,4,37.5
160,160,74000,2,0,L|96:160,4,37.5
256,160,75200,1,0,0:0:0:0:
384,192,75800,1,0,0:0:0:0:
384,288,76400,1,0,0:0:0:0:
256,288,77000,1,0,0:0:0:0:
224,224,77600,6,0,L|288:224,4,37.5
288,320,78800,2,0,L|224:320,4,37.5
160,320,80000,1,0,0:0:0:0:
160,224,80600,1,0,0:0:0:0:
256,224,81200,5,0,0:0:0:0:
256,192,81800,6,0,L|320:128,1,75
352,96,82400,2,0,L|448:96,1,75
480,128,83000,2,0,L|416:192,1,75
384,224,83600,2,0,L|288:192,1,75
256,192,84200,6,0,L|192:128,1,75
160,96,84800,2,0,L|64:96,1,75
64,160,85400,2,0,L|128:224,1,75
160,256,86000,2,0,L|256:256,1,75
256,192,86600,5,0,0:0:0:0:
256,192,87200,12,0,87800,0:0:0:0:
256,192,88400,12,0,89000,0:0:0:0:
64,192,101000,6,0,L|64:96,1,75
64,128,101450,2,0,L|160:128,1,75
256,128,102200,2,0,L|256:224,1,75
256,224,102650,2,0,L|160:224,1,75
128,256,103400,2,0,B|128:352|192:384|384:320,1,300
64,128,105200,6,0,P|448:192|96:288,1,1050
256,192,110600,5,0,0:0:0:0:
160,160,111050,2,0,L|224:96,1,75
256,192,111800,5,0,0:0:0:0:
320,96,112250,2,0,L|384:160,1,75
256,192,113000,6,0,L|96:192,2,150
384,192,114800,2,0,L|384:128,1,37.5
256,192,115400,5,0,0:0:0:0:
160,224,115850,2,0,L|224:288,1,75
256,192,116600,5,0,0:0:0:0:
320,256,117050,2,0,L|373:202,1,75
256,192,117800,5,0,0:0:0:0:
96,96,118700,2,0,L|416:96,1,300
256,192,120200,5,0,0:0:0:0:
256,192,120500,2,0,L|412:195,1,150
256,192,121400,5,0,0:0:0:0:
256,192,121700,2,0,L|96:192,1,150
256,192,122600,6,0,L|416:192,2,150
352,128,124400,5,0,0:0:0:0:
320,160,124700,1,0,0:0:0:0:
256,192,125000,6,0,L|128:96,2,150
256,192,126200,2,0,L|128:320,2,150
256,192,127400,2,0,L|384:320,2,150
256,192,128600,2,0,L|384:64,2,150
192,192,130400,6,0,L|288:192,1,75
256,192,131000,5,0,0:0:0:0:
320,192,131600,2,0,L|224:192,1,75
256,192,132200,5,0,0:0:0:0:
192,128,133100,2,0,L|128:64,3,75
256,192,134600,5,0,0:0:0:0:
256,128,135200,2,0,L|256:224,1,75
256,192,135800,5,0,0:0:0:0:
256,256,136400,2,0,L|256:160,1,75
256,192,137000,5,0,0:0:0:0:
320,160,137900,2,0,L|384:96,3,75
256,192,139400,5,0,0:0:0:0:
128,256,140000,1,0,0:0:0:0:
192,224,140300,1,0,0:0:0:0:
256,192,140600,5,0,0:0:0:0:
320,128,140900,1,0,0:0:0:0:
384,192,141200,1,0,0:0:0:0:
320,256,141500,1,0,0:0:0:0:
256,192,141800,5,0,0:0:0:0:
512,32,142400,2,0,L|256:192,1,300
256,192,144200,6,0,L|256:96,1,75
256,96,144500,2,0,L|160:96,1,75
181,96,144800,2,0,L|96:96,1,75
128,96,145100,2,0,L|64:160,1,75
64,160,145400,2,0,L|128:224,1,75
128,224,145700,2,0,L|128:320,1,75
128,288,146000,2,0,L|224:320,1,75
192,320,146300,2,0,L|288:320,1,75
288,320,146600,2,0,L|352:256,1,75
352,256,146900,2,0,L|448:256,1,75
448,256,147200,2,0,L|448:160,1,75
448,192,147500,2,0,L|384:128,1,75
384,128,147800,2,0,L|288:128,1,75
288,128,148100,2,0,L|256:224,1,75
256,192,149000,5,0,0:0:0:0:
192,128,149600,2,0,L|160:96,4,37.5
256,128,150800,2,0,L|320:128,4,37.5
160,96,152000,5,0,0:0:0:0:
256,128,152600,1,0,0:0:0:0:
352,192,153200,1,0,0:0:0:0:
256,192,153800,1,0,0:0:0:0:
320,256,154400,6,0,L|384:256,4,37.5
224,256,155600,2,0,L|160:256,4,37.5
160,224,157100,5,0,0:0:0:0:
160,192,157250,1,0,0:0:0:0:
160,160,157400,1,0,0:0:0:0:
224,128,157700,1,0,0:0:0:0:
288,128,158000,1,0,0:0:0:0:
320,128,158150,1,0,0:0:0:0:
352,128,158300,1,0,0:0:0:0:
384,128,158450,1,0,0:0:0:0:
384,192,159200,6,0,L|384:256,4,37.5
448,224,160400,2,0,L|448:160,4,37.5
448,256,161600,5,0,0:0:0:0:
384,256,162200,1,0,0:0:0:0:
320,256,162800,1,0,0:0:0:0:
256,192,163400,6,0,L|224:160,12,37.5
160,96,165800,2,0,L|96:160,3,75
128,224,167000,2,0,L|192:288,1,75
224,160,167600,2,0,L|224:96,3,37.5
288,224,168800,6,0,L|320:256,4,37.5
256,192,170000,2,0,L|224:160,4,37.5
288,128,171200,5,0,0:0:0:0:
352,128,171500,1,0,0:0:0:0:
416,128,171800,2,0,L|416:288,1,150
352,288,172700,2,0,L|256:288,1,75
165,229,173600,6,0,L|192:256,4,37.5
96,192,174800,2,0,L|32:192,4,37.5
64,128,176000,5,0,0:0:0:0:
160,160,176300,6,0,L|256:192,2,75
192,96,177200,2,0,L|224:64,4,37.5
320,160,178400,6,0,L|384:160,4,37.5
288,160,179600,2,0,L|224:160,4,37.5
256,96,180800,5,0,0:0:0:0:
192,96,181100,1,0,0:0:0:0:
128,96,181400,2,0,L|128:256,1,150
256,192,182600,12,0,186800,0:0:0:0:
128,96,187400,6,0,L|288:96,4,150
128,160,190100,2,0,B|128:224|192:256|224:288|288:288|352:256|384:224|416:160,1,375
416,96,191900,1,0,0:0:0:0:
416,96,192050,1,0,0:0:0:0:
416,96,192200,2,0,L|256:96,4,150
416,160,194900,2,0,L|32:160,1,375
160,224,196700,5,0,0:0:0:0:
160,256,196850,1,0,0:0:0:0:
