osu file format v14

[General]
AudioFilename: Justin Bieber-Sorry.mp3
AudioLeadIn: 0
PreviewTime: -1
Countdown: 1
SampleSet: Normal
StackLeniency: 0.7
Mode: 0
LetterboxInBreaks: 0
WidescreenStoryboard: 1

[Editor]
DistanceSpacing: 0.8
BeatDivisor: 2
GridSize: 32
TimelineZoom: 1

[Metadata]
Title:Sorry
TitleUnicode:Sorry
Artist:Justin Bieber
ArtistUnicode:Justin Bieber
Creator:Lenardan14
Version:Hard
Source:
Tags:JustinBieber Sorry English Pop
BeatmapID:861346
BeatmapSetID:393123

[Difficulty]
HPDrainRate:5
CircleSize:4
OverallDifficulty:3
ApproachRate:9
SliderMultiplier:1.5
SliderTickRate:2

[Events]
//Background and Video events
0,0,"n-SORRY-large570.jpg",0,0
//Break Periods
//Storyboard Layer 0 (Background)
//Storyboard Layer 1 (Fail)
//Storyboard Layer 2 (Pass)
//Storyboard Layer 3 (Foreground)
//Storyboard Sound Samples

[TimingPoints]
9800,300,4,1,0,100,1,0
67760,-100,4,1,0,100,0,1
81498,-100,4,1,0,100,0,0
144000,-100,4,1,0,100,0,1
168463,-100,4,1,0,100,0,0

[HitObjects]
256,192,800,12,0,1400,0:0:0:0:
256,192,2000,12,0,2600,0:0:0:0:
256,192,5600,12,0,6200,0:0:0:0:
256,192,6800,12,0,7400,0:0:0:0:
192,192,8300,6,0,P|116:142|71:86,1,150
192,96,8900,1,0,0:0:0:0:
256,96,9050,2,0,L|352:64,3,75
448,96,9800,6,0,P|448:192|448:160,1,75
448,224,10100,2,0,L|416:320,1,75
352,320,10400,1,0,0:0:0:0:
288,320,10550,1,0,0:0:0:0:
224,320,10700,2,0,L|128:320,1,75
96,320,11000,2,0,L|32:256,1,75
32,224,11300,2,0,L|32:128,1,75
96,128,11600,1,0,0:0:0:0:
128,160,11750,1,0,0:0:0:0:
160,192,11900,1,0,0:0:0:0:
288,160,12200,2,0,P|352:96|480:224,2,300
128,96,13850,1,0,0:0:0:0:
192,96,14000,1,0,0:0:0:0:
320,96,14300,1,0,0:0:0:0:
384,96,14450,1,0,0:0:0:0:
448,128,14600,6,0,L|512:192,1,75
480,224,14900,2,0,L|384:256,1,75
320,160,15350,1,0,0:0:0:0:
320,96,15500,1,0,0:0:0:0:
256,64,15650,1,0,0:0:0:0:
192,64,15800,2,0,L|96:64,1,75
64,64,16100,2,0,L|128:160,1,75
224,160,16550,1,0,0:0:0:0:
288,192,16700,1,0,0:0:0:0:
224,224,16850,1,0,0:0:0:0:
288,256,17000,1,0,0:0:0:0:
192,320,17300,2,0,P|96:288|128:224,1,150
177,34,18200,5,0,0:0:0:0:
205,44,18275,1,0,0:0:0:0:
233,54,18350,1,0,0:0:0:0:
260,65,18425,1,0,0:0:0:0:
287,75,18500,1,0,0:0:0:0:
314,86,18575,1,0,0:0:0:0:
341,96,18650,1,0,0:0:0:0:
368,107,18725,1,0,0:0:0:0:
395,117,18800,1,0,0:0:0:0:
422,128,18875,1,0,0:0:0:0:
449,139,18950,1,0,0:0:0:0:
476,149,19025,1,0,0:0:0:0:
503,160,19100,1,0,0:0:0:0:
422,249,19400,6,0,L|298:368,2,150
374,211,20150,1,0,0:0:0:0:
334,166,20300,2,0,L|210:285,2,150
288,126,21050,1,0,0:0:0:0:
241,87,21200,1,0,0:0:0:0:
122,66,21500,1,0,0:0:0:0:
85,113,21650,1,0,0:0:0:0:
39,151,21800,2,0,P|101:238|162:234,2,150
152,109,22700,5,0,0:0:0:0:
271,108,23000,1,0,0:0:0:0:
151,109,23300,1,0,0:0:0:0:
152,109,23450,1,0,0:0:0:0:
270,108,23600,1,0,0:0:0:0:
270,108,23750,1,0,0:0:0:0:
329,109,23900,2,0,P|455:200|364:258,1,300
267,286,24800,1,0,0:0:0:0:
207,288,24950,1,0,0:0:0:0:
149,270,25100,2,0,L|68:228,2,75
75,105,25700,2,0,L|149:73,1,75
203,82,26000,2,0,L|289:121,1,75
238,163,26300,1,0,0:0:0:0:
198,208,26450,1,0,0:0:0:0:
156,251,26600,2,0,P|342:276|446:205,1,300
374,115,27500,6,0,P|305:82|246:123,1,150
137,164,28100,1,0,0:0:0:0:
186,197,28250,2,0,L|292:249,3,75
373,216,29000,6,0,L|476:159,1,75
384,153,29300,2,0,L|487:96,1,75
335,79,29750,1,0,0:0:0:0:
276,91,29900,1,0,0:0:0:0:
149,105,30200,2,0,L|55:147,1,75
134,162,30500,2,0,L|40:204,1,75
195,316,31100,1,0,0:0:0:0:
254,313,31250,1,0,0:0:0:0:
313,305,31400,2,0,B|418:189|292:180|261:106,2,225
212,238,32600,5,0,0:0:0:0:
112,170,32900,1,0,0:0:0:0:
52,168,33050,1,0,0:0:0:0:
7,128,33200,1,0,0:0:0:0:
117,80,33500,1,0,0:0:0:0:
176,73,33650,1,0,0:0:0:0:
235,76,33800,6,0,B|400:77|294:73,1,75
369,88,34100,2,0,L|443:126,1,75
414,178,34400,1,0,0:0:0:0:
369,218,34550,1,0,0:0:0:0:
311,233,34700,1,0,0:0:0:0:
191,237,35000,2,0,P|108:197|104:130,1,150
191,237,35600,2,0,P|108:197|104:130,1,150
191,237,36200,2,0,P|108:197|104:130,1,150
191,237,36800,2,0,P|108:197|104:130,1,150
191,237,37400,2,0,P|108:197|104:130,1,150
191,237,38000,2,0,P|108:197|104:130,1,150
210,100,38600,5,0,0:0:0:0:
269,90,38750,2,0,L|351:65,1,75
359,125,39050,1,0,0:0:0:0:
383,180,39200,2,0,L|266:215,1,75
332,257,39500,1,0,0:0:0:0:
356,311,39650,2,0,L|475:275,1,75
410,231,39950,1,0,0:0:0:0:
385,176,40100,1,0,0:0:0:0:
358,120,40250,2,0,L|264:154,1,75
266,88,40550,1,0,0:0:0:0:
206,96,40700,1,0,0:0:0:0:
89,124,41000,2,0,P|54:279|171:288,1,300
165,177,41900,5,0,0:0:0:0:
165,57,42200,1,0,0:0:0:0:
284,61,42500,6,0,L|384:44,1,75
333,103,42800,2,0,L|448:87,1,75
279,219,43400,2,0,P|185:230|168:187,1,150
148,74,44000,2,0,L|60:85,1,75
127,190,44450,2,0,L|25:205,1,75
106,308,44900,1,0,0:0:0:0:
165,310,45050,1,0,0:0:0:0:
224,308,45200,2,0,P|316:246|194:141,2,300
129,233,46700,1,0,0:0:0:0:
194,132,47000,1,0,0:0:0:0:
296,70,47300,1,0,0:0:0:0:
393,140,47600,1,0,0:0:0:0:
