osu file format v14

[General]
AudioFilename: audio.mp3
AudioLeadIn: 0
PreviewTime: 29536
Countdown: 1
SampleSet: Soft
StackLeniency: 0.7
Mode: 0
LetterboxInBreaks: 0
WidescreenStoryboard: 0

[Editor]
DistanceSpacing: 1.1
BeatDivisor: 4
GridSize: 8
TimelineZoom: 1.5

[Metadata]
Title:Boyfriend
TitleUnicode:Boyfriend
Artist:Justin Bieber
ArtistUnicode:Justin Bieber
Creator:Swerro
Version:Vonderhaar
Source:
Tags:justin bieber parody tryhardninja if i was vonderhaar
BeatmapID:2145221
BeatmapSetID:1025730

[Difficulty]
HPDrainRate:4
CircleSize:4
OverallDifficulty:6
ApproachRate:7
SliderMultiplier:3.3
SliderTickRate:1

[Events]
//Background and Video events
0,0,"Desktop-justin-bieber-wallpaper.jpg",0,0
//Break Periods
//Storyboard Layer 0 (Background)
//Storyboard Layer 1 (Fail)
//Storyboard Layer 2 (Pass)
//Storyboard Layer 3 (Foreground)
//Storyboard Layer 4 (Overlay)
//Storyboard Sound Samples

[TimingPoints]
2320,618.556701030928,4,2,0,60,1,0
2320,-200,4,2,0,60,0,0
8969,-100,4,2,0,60,0,0
29536,-100,4,2,0,60,0,0
36360,618.556701030928,4,2,0,60,1,0
38814,622.729631551635,4,2,0,60,1,0
38814,-66.6666666666667,4,2,0,60,0,1
58702,618.556701030928,4,2,0,60,1,0
58704,-100,4,2,0,60,0,0
79114,-100,4,2,0,60,0,0
88392,-66.6666666666667,4,2,0,60,0,1
108186,-100,4,2,0,60,0,0
117464,-100,4,2,0,60,0,0

[HitObjects]
46,107,2320,6,0,P|28:206|174:366,1,330,0|0,3:0|3:0,0:0:0:0:
256,308,4175,1,0,0:0:0:0:
466,107,4794,6,0,P|484:206|338:366,1,330,0|0,3:0|3:0,0:0:0:0:
256,308,6649,1,0,0:0:0:0:
46,277,7268,6,0,P|28:178|174:18,1,330,0|0,3:0|3:0,0:0:0:0:
248,32,8660,1,0,0:0:0:0:
412,33,8969,5,0,0:0:0:0:
376,107,9124,1,0,0:0:0:0:
406,183,9278,1,0,0:0:0:0:
406,183,9433,2,0,P|348:199|316:223,1,82.5,0|0,0:0|0:0,0:0:0:0:
369,283,9742,1,0,3:0:0:0:
231,373,10051,5,0,0:0:0:0:
227,290,10206,2,0,P|183:307|142:310,1,82.5,0|0,0:0|0:0,0:0:0:0:
78,265,10515,1,0,0:0:0:0:
112,194,10670,1,0,0:0:0:0:
112,194,10825,1,0,0:0:0:0:
80,118,10979,1,0,3:0:0:0:
302,8,11443,5,0,0:0:0:0:
233,53,11598,2,0,P|243:117|239:145,1,82.5,0|0,0:0|0:0,0:0:0:0:
323,141,11907,2,0,P|318:203|323:239,1,82.5,0|0,0:0|0:0,0:0:0:0:
250,268,12216,1,0,3:0:0:0:
256,350,12371,1,0,0:0:0:0:
173,360,12526,1,0,0:0:0:0:
173,360,12680,1,0,0:0:0:0:
92,341,12835,2,0,P|106:299|100:258,1,82.5,0|0,0:0|0:0,0:0:0:0:
183,251,13144,1,0,0:0:0:0:
254,209,13299,1,0,0:0:0:0:
325,249,13454,1,0,3:0:0:0:
456,40,13917,5,0,0:0:0:0:
375,57,14072,1,0,0:0:0:0:
295,32,14227,1,0,0:0:0:0:
215,54,14381,1,0,0:0:0:0:
361,130,14691,6,0,P|372:192|364:224,1,82.5,0|0,3:0|0:0,0:0:0:0:
450,198,15000,1,0,0:0:0:0:
450,198,15155,1,0,0:0:0:0:
498,264,15309,1,0,0:0:0:0:
465,339,15464,1,0,0:0:0:0:
384,324,15618,1,0,0:0:0:0:
368,242,15773,1,0,0:0:0:0:
368,242,15928,1,0,3:0:0:0:
217,174,16237,5,0,0:0:0:0:
250,335,16546,1,0,0:0:0:0:
175,369,16701,1,0,0:0:0:0:
96,343,16856,2,0,P|67:298|26:285,1,82.5,0|0,0:0|0:0,0:0:0:0:
106,335,17165,2,0,P|59:313|49:272,1,82.5,0|0,3:0|0:0,0:0:0:0:
89,219,17474,1,0,0:0:0:0:
170,231,17629,2,0,P|217:212|257:210,1,82.5,0|0,0:0|0:0,0:0:0:0:
215,133,17938,1,0,0:0:0:0:
164,67,18093,1,0,0:0:0:0:
82,56,18247,1,0,0:0:0:0:
19,109,18402,1,0,3:0:0:0:
2,273,18711,5,0,0:0:0:0:
77,309,19330,5,0,0:0:0:0:
138,365,19948,5,0,0:0:0:0:
212,336,20567,5,0,0:0:0:0:
375,354,20876,1,0,3:0:0:0:
508,51,21495,5,0,0:0:0:0:
472,125,21649,1,0,0:0:0:0:
499,203,21804,1,0,0:0:0:0:
399,71,22113,1,0,3:0:0:0:
319,92,22268,1,0,0:0:0:0:
242,60,22423,2,0,P|235:108|205:152,1,82.5,0|0,0:0|0:0,0:0:0:0:
256,210,22732,1,0,0:0:0:0:
328,171,22887,1,0,0:0:0:0:
404,201,23041,1,0,0:0:0:0:
404,201,23196,1,0,0:0:0:0:
337,250,23350,1,0,3:0:0:0:
18,336,23969,5,0,0:0:0:0:
75,276,24124,1,0,0:0:0:0:
49,197,24278,1,0,0:0:0:0:
49,197,24433,1,0,0:0:0:0:
127,171,24588,2,0,P|181:211|226:212,1,82.5,0|0,3:0|0:0,0:0:0:0:
153,285,24897,1,0,0:0:0:0:
198,353,25051,1,0,0:0:0:0:
279,339,25206,1,0,0:0:0:0:
277,256,25361,1,0,0:0:0:0:
277,256,25515,1,0,0:0:0:0:
350,217,25670,1,0,0:0:0:0:
276,178,25825,1,0,3:0:0:0:
384,24,26443,5,0,0:0:0:0:
397,105,26598,1,0,0:0:0:0:
375,184,26752,1,0,0:0:0:0:
375,184,26907,1,0,0:0:0:0:
420,252,27062,1,0,3:0:0:0:
365,11,27371,1,0,0:0:0:0:
128,24,27680,5,0,0:0:0:0:
128,24,27835,1,0,0:0:0:0:
115,105,27990,1,0,0:0:0:0:
137,184,28144,1,0,0:0:0:0:
92,252,28299,1,0,3:0:0:0:
374,315,28917,5,0,0:0:0:0:
171,279,29227,1,0,0:0:0:0:
136,39,29536,6,0,P|99:106|-5:99,1,165,0|0,3:0|0:0,0:0:0:0:
486,126,30155,6,0,P|407:120|368:52,1,165
323,369,30773,6,0,P|360:302|464:309,1,165,0|0,3:0|0:0,0:0:0:0:
38,276,31392,6,0,P|117:282|157:351,2,165,0|0|0,0:0|0:0|3:0,0:0:0:0:
44,190,32165,5,0,0:0:0:0:
44,190,32320,1,0,0:0:0:0:
258,52,32629,1,0,0:0:0:0:
142,270,32938,1,0,0:0:0:0:
153,22,33247,1,0,3:0:0:0:
145,261,33557,1,0,0:0:0:0:
234,329,33866,2,0,B|273:198|273:198|411:241|411:241|371:371|371:371|256:336,2,495
192,56,36360,5,0,0:0:0:0:
127,18,36669,1,0,0:0:0:0:
429,205,37597,5,0,0:0:0:0:
424,219,37906,1,0,0:0:0:0:
434,236,38215,1,0,3:0:0:0:
449,284,38524,1,0,0:0:0:0:
449,284,38679,1,0,0:0:0:0:
449,284,38814,6,0,P|379:274|301:292,1,123.75
285,351,39125,2,0,P|215:361|137:343,1,123.75
99,303,39436,2,0,P|62:243|102:291,1,247.500009441376,0|0,3:0|0:0,0:0:0:0:
179,285,39903,5,0,0:0:0:0:
179,285,40059,2,0,P|189:215|171:137,1,123.75
99,161,40370,2,0,P|89:90|107:13,1,123.75,0|0,0:0|0:0,0:0:0:0:
178,21,40682,1,0,3:0:0:0:
427,17,40993,1,0,0:0:0:0:
412,91,41149,1,0,0:0:0:0:
412,91,41304,2,0,P|354:87|280:130,1,123.750004720688
480,134,41616,2,0,P|464:187|487:255,1,123.750004720688
393,164,41927,1,0,3:0:0:0:
379,367,42239,6,0,P|320:354|229:390,1,123.750004720688,0|0,0:0|0:0,0:0:0:0:
103,302,42550,2,0,P|162:315|253:279,1,123.750004720688,0|0,0:0|0:0,0:0:0:0:
303,276,42861,1,0,0:0:0:0:
303,276,43017,1,0,0:0:0:0:
206,228,43173,2,0,P|191:163|215:91,1,123.750004720688,0|0,3:0|0:0,0:0:0:0:
250,25,43484,1,0,0:0:0:0:
307,82,43640,1,0,0:0:0:0:
307,82,43795,2,0,P|377:91|454:68,1,123.750004720688,0|0,0:0|0:0,0:0:0:0:
472,22,44107,2,0,P|451:100|477:155,1,123.750004720688
485,162,44418,2,0,P|491:245|468:162,1,247.500009441376,0|0,3:0|0:0,0:0:0:0:
314,313,45041,6,0,P|263:330|195:309,1,123.750004720688
151,372,45352,2,0,P|85:346|26:369,1,123.750004720688
11,277,45664,1,0,3:0:0:0:
69,215,45819,1,0,0:0:0:0:
351,233,46131,1,0,0:0:0:0:
351,233,46286,2,0,P|386:169|370:105,1,123.750004720688,0|0,0:0|0:0,0:0:0:0:
299,101,46598,2,0,P|264:165|280:229,1,123.750004720688
290,285,46909,1,0,3:0:0:0:
175,367,47220,5,0,0:0:0:0:
203,46,47532,2,0,L|84:114,1,123.750004720688
294,206,47843,2,0,L|292:77,1,123.750004720688
92,203,48154,2,0,L|215:274,1,123.750004720688,0|0,3:0|0:0,0:0:0:0:
200,157,48466,1,0,0:0:0:0:
200,157,48621,1,0,0:0:0:0:
292,82,48777,2,0,P|342:64|416:94,1,123.750004720688
346,136,49089,2,0,P|328:186|358:260,1,123.750004720688
408,185,49400,2,0,P|487:171|408:191,1,247.500009441376,0|0,3:0|0:0,0:0:0:0:
401,295,49867,5,0,0:0:0:0:
400,374,50023,2,0,P|336:362|270:382,1,123.750004720688
227,245,50334,2,0,P|294:257|351:242,1,123.750004720688
338,168,50645,1,0,3:0:0:0:
151,362,50957,1,0,0:0:0:0:
73,340,51112,1,0,0:0:0:0:
73,340,51268,2,0,P|59:275|11:242,1,123.750004720688,0|0,0:0|0:0,0:0:0:0:
46,174,51579,2,0,P|101:194|157:172,1,123.750004720688,0|0,0:0|0:0,0:0:0:0:
170,100,51891,2,0,P|98:68|148:108,1,247.500009441376,0|0,3:0|0:0,0:0:0:0:
246,131,52358,5,0,0:0:0:0:
302,78,52514,2,0,P|353:17|422:-3,1,123.750004720688
427,66,52825,2,0,P|484:94|506:157,1,123.750004720688
435,180,53136,1,0,3:0:0:0:
479,249,53292,2,0,P|417:270|392:331,1,123.750004720688
274,249,53603,5,0,0:0:0:0:
274,249,53759,2,0,P|209:219|171:178,1,123.750004720688
345,265,54070,2,0,P|388:312|372:374,1,123.750004720688
233,316,54382,1,0,3:0:0:0:
189,376,54537,2,0,P|125:371|62:349,1,123.750004720688
19,201,54849,1,0,0:0:0:0:
19,201,55004,2,0,P|81:169|155:172,1,123.750004720688
183,112,55316,2,0,P|121:80|47:83,1,123.750004720688
2,118,55627,1,0,3:0:0:0:
218,28,55939,5,0,0:0:0:0:
260,94,56094,1,0,0:0:0:0:
260,94,56250,2,0,P|312:57|370:49,1,123.750004720688,0|0,0:0|0:0,0:0:0:0:
440,89,56561,2,0,P|423:159|445:223,1,123.750004720688
512,223,56873,1,0,3:0:0:0:
234,28,57184,5,0,0:0:0:0:
154,43,57340,1,0,0:0:0:0:
107,111,57495,2,0,P|157:130|211:185,1,123.750004720688,0|0,0:0|0:0,0:0:0:0:
163,239,57807,2,0,P|207:282|269:303,1,123.750004720688,0|0,0:0|0:0,0:0:0:0:
276,215,58118,1,0,3:0:0:0:
346,170,58274,2,0,P|339:104|376:52,1,123.750004720688
454,70,58585,5,0,0:0:0:0:
454,70,58702,2,0,P|465:128|455:161,1,82.5,0|0,0:0|0:0,0:0:0:0:
333,340,59011,2,0,L|424:347,1,82.5,0|0,0:0|0:0,0:0:0:0:
311,308,59320,2,0,L|227:324,1,82.5,0|0,3:0|0:0,0:0:0:0:
321,274,59629,1,0,0:0:0:0:
313,108,59939,5,0,0:0:0:0:
232,92,60093,1,0,0:0:0:0:
185,23,60248,1,0,0:0:0:0:
212,100,60403,1,0,0:0:0:0:
191,179,60557,1,0,3:0:0:0:
34,126,60866,5,0,0:0:0:0:
13,205,61021,1,0,0:0:0:0:
80,254,61176,1,0,0:0:0:0:
80,254,61330,1,0,0:0:0:0:
155,286,61485,2,0,P|127:325|130:375,1,82.5,0|0,0:0|0:0,0:0:0:0:
303,186,61794,2,0,L|394:197,1,82.5,0|0,3:0|0:0,0:0:0:0:
293,205,62104,2,0,L|213:232,1,82.5,0|0,0:0|0:0,0:0:0:0:
327,374,62413,5,0,0:0:0:0:
403,344,62567,1,0,0:0:0:0:
484,355,62722,1,0,0:0:0:0:
454,277,62877,1,0,0:0:0:0:
477,198,63031,1,0,3:0:0:0:
18,154,63650,1,0,0:0:0:0:
71,216,63805,1,0,0:0:0:0:
35,290,63959,1,0,0:0:0:0:
35,290,64114,1,0,0:0:0:0:
117,286,64269,2,0,P|160:299|189:346,1,82.5,0|0,3:0|0:0,0:0:0:0:
328,327,64578,2,0,P|355:296|395:286,1,82.5,0|0,0:0|0:0,0:0:0:0:
390,203,64887,5,0,0:0:0:0:
307,202,65042,1,0,0:0:0:0:
269,128,65196,1,0,0:0:0:0:
351,128,65351,1,0,0:0:0:0:
390,203,65506,1,0,3:0:0:0:
248,365,65815,1,0,0:0:0:0:
135,193,66124,5,0,0:0:0:0:
135,193,66279,1,0,0:0:0:0:
124,110,66433,1,0,0:0:0:0:
200,139,66588,1,0,0:0:0:0:
189,56,66743,1,0,3:0:0:0:
25,192,67052,5,0,0:0:0:0:
52,269,67207,1,0,0:0:0:0:
52,269,67361,1,0,0:0:0:0:
134,264,67516,1,0,0:0:0:0:
179,333,67671,1,0,0:0:0:0:
96,336,67825,1,0,0:0:0:0:
96,336,67980,1,0,3:0:0:0:
257,379,68289,1,0,0:0:0:0:
460,177,68598,5,0,0:0:0:0:
198,22,68908,1,0,0:0:0:0:
0,211,69217,1,0,3:0:0:0:
247,317,69526,1,0,0:0:0:0:
266,63,69836,5,0,0:0:0:0:
347,72,69990,1,0,0:0:0:0:
391,2,70145,1,0,0:0:0:0:
471,20,70299,1,0,0:0:0:0:
478,102,70454,2,0,P|492:153|531:190,1,82.5,0|0,3:0|0:0,0:0:0:0:
442,310,70763,1,0,0:0:0:0:
163,368,71073,5,0,0:0:0:0:
123,296,71227,1,0,0:0:0:0:
40,288,71382,1,0,0:0:0:0:
57,207,71537,1,0,0:0:0:0:
29,129,71691,2,0,P|80:109|106:79,1,82.5,0|0,3:0|0:0,0:0:0:0:
152,27,72000,5,0,0:0:0:0:
205,89,72155,1,0,0:0:0:0:
282,60,72310,1,0,0:0:0:0:
282,60,72464,1,0,0:0:0:0:
350,106,72619,1,0,0:0:0:0:
277,145,72774,1,0,0:0:0:0:
348,184,72928,1,0,3:0:0:0:
163,368,73238,1,0,0:0:0:0:
145,175,73547,5,0,0:0:0:0:
227,179,73702,1,0,0:0:0:0:
227,261,73856,1,0,0:0:0:0:
144,261,74011,1,0,0:0:0:0:
145,175,74165,2,0,L|44:171,1,82.5,0|0,3:0|0:0,0:0:0:0:
65,88,74475,5,0,0:0:0:0:
66,5,74629,2,0,L|166:12,1,82.5
150,89,74939,2,0,L|246:95,1,82.5,0|0,0:0|0:0,0:0:0:0:
314,100,75248,1,0,0:0:0:0:
314,100,75403,1,0,3:0:0:0:
321,18,75557,1,0,0:0:0:0:
403,23,75712,1,0,0:0:0:0:
398,105,75866,1,0,0:0:0:0:
398,105,76021,6,0,L|499:116,1,82.5,0|0,0:0|0:0,0:0:0:0:
462,194,76330,1,0,0:0:0:0:
379,185,76485,1,0,0:0:0:0:
369,267,76640,1,0,3:0:0:0:
450,280,76794,1,0,0:0:0:0:
450,280,76949,1,0,0:0:0:0:
437,361,77104,1,0,0:0:0:0:
355,348,77258,6,0,P|314:339|268:355,1,82.5,0|0,0:0|0:0,0:0:0:0:
201,235,77567,1,0,0:0:0:0:
201,152,77722,1,0,0:0:0:0:
186,238,77877,1,0,3:0:0:0:
142,307,78031,1,0,0:0:0:0:
0,384,78495,5,0,0:0:0:0:
0,384,78650,1,0,0:0:0:0:
345,29,79114,6,0,B|429:55|429:55|476:132,1,165,0|0,3:0|0:0,0:0:0:0:
42,120,79732,6,0,B|83:55|83:55|167:29,1,165,0|0,0:0|0:0,0:0:0:0:
167,355,80351,6,0,B|83:329|83:329|42:263,1,165,0|0,3:0|0:0,0:0:0:0:
469,263,80970,6,0,B|429:329|429:329|345:355,2,165,0|0|0,0:0|0:0|3:0,0:0:0:0:
414,199,81743,1,0,0:0:0:0:
414,199,81897,1,0,0:0:0:0:
260,361,82207,5,0,0:0:0:0:
83,193,82516,1,0,0:0:0:0:
258,345,82825,1,0,3:0:0:0:
258,40,83134,1,0,0:0:0:0:
258,52,83444,1,0,0:0:0:0:
52,87,83908,5,0,0:0:0:0:
17,161,84062,1,0,3:0:0:0:
23,243,84217,1,0,0:0:0:0:
65,315,84372,1,0,0:0:0:0:
134,361,84526,1,0,0:0:0:0:
97,237,84836,5,0,0:0:0:0:
97,237,84990,1,0,0:0:0:0:
130,60,85299,2,0,P|142:106|193:143,1,82.5,0|0,3:0|0:0,0:0:0:0:
242,109,85609,1,0,0:0:0:0:
242,109,85763,1,0,0:0:0:0:
242,109,85918,1,0,0:0:0:0:
323,267,86227,1,0,0:0:0:0:
323,267,86382,1,0,0:0:0:0:
308,347,87155,5,0,0:0:0:0:
323,334,87464,1,0,0:0:0:0:
345,346,87774,1,0,3:0:0:0:
360,330,88083,5,0,0:0:0:0:
444,355,88238,1,0,0:0:0:0:
444,355,88392,2,0,P|434:285|452:207,1,123.75,0|0,0:0|0:0,0:0:0:0:
462,165,88702,2,0,P|392:155|314:173,1,123.75,0|0,0:0|0:0,0:0:0:0:
264,146,89011,2,0,P|227:206|267:158,1,247.500009441376,0|0,3:0|0:0,0:0:0:0:
328,85,89475,5,0,0:0:0:0:
328,85,89629,2,0,P|271:42|229:-25,1,123.75
163,6,89939,2,0,P|105:49|64:116,1,123.75
64,172,90248,1,0,3:0:0:0:
251,357,90557,1,0,0:0:0:0:
236,283,90712,1,0,0:0:0:0:
236,283,90866,2,0,P|178:287|104:244,1,123.750004720688,0|0,0:0|0:0,0:0:0:0:
42,369,91176,2,0,P|26:316|49:248,1,123.750004720688,0|0,0:0|0:0,0:0:0:0:
88,189,91485,1,0,3:0:0:0:
340,355,91794,6,0,P|327:296|363:205,1,123.750004720688,0|0,0:0|0:0,0:0:0:0:
275,79,92104,2,0,P|288:138|252:229,1,123.750004720688,0|0,0:0|0:0,0:0:0:0:
249,279,92413,1,0,0:0:0:0:
249,279,92567,1,0,0:0:0:0:
341,235,92722,2,0,P|406:220|478:244,1,123.750004720688,0|0,3:0|0:0,0:0:0:0:
499,166,93031,1,0,0:0:0:0:
446,102,93186,1,0,0:0:0:0:
446,102,93341,2,0,P|402:46|332:7,1,123.750004720688,0|0,0:0|0:0,0:0:0:0:
326,83,93650,2,0,P|275:117|238:167,1,123.750004720688,0|0,0:0|0:0,0:0:0:0:
315,199,93959,2,0,P|377:253|302:211,1,247.500009441376,0|0,3:0|0:0,0:0:0:0:
121,9,94578,5,0,0:0:0:0:
33,235,94887,2,0,P|7:300|30:360,1,123.750004720688
109,381,95196,1,0,3:0:0:0:
109,381,95351,1,0,0:0:0:0:
221,143,95660,1,0,0:0:0:0:
221,143,95815,2,0,P|256:207|240:271,1,123.750004720688,0|0,0:0|0:0,0:0:0:0:
287,272,96124,2,0,P|252:208|268:144,1,123.750004720688
212,166,96433,1,0,3:0:0:0:
381,381,96743,5,0,0:0:0:0:
409,222,97052,2,0,B|365:177|365:177|295:157,1,123.750004720688
496,47,97361,2,0,B|479:107|479:107|493:166,1,123.750004720688
292,63,97671,2,0,B|350:46|350:46|394:1,1,123.750004720688,0|0,3:0|0:0,0:0:0:0:
402,114,97980,1,0,0:0:0:0:
402,114,98134,1,0,0:0:0:0:
328,161,98289,2,0,P|346:211|316:285,1,123.750004720688
308,364,98598,2,0,P|358:346|432:376,1,123.750004720688
440,293,98908,2,0,P|485:216|475:304,1,247.500009441376,0|0,3:0|0:0,0:0:0:0:
366,313,99372,5,0,0:0:0:0:
296,332,99526,2,0,P|241:296|208:235,1,123.750004720688
150,185,99836,2,0,P|217:173|274:188,1,123.750004720688
266,161,100145,1,0,3:0:0:0:
485,66,100454,5,0,0:0:0:0:
413,31,100609,1,0,0:0:0:0:
413,31,100763,2,0,P|360:70|302:63,1,123.750004720688,0|0,0:0|0:0,0:0:0:0:
233,53,101073,2,0,P|292:62|330:109,1,123.750004720688
311,89,101382,2,0,P|383:56|333:97,1,247.500009441376,0|0,3:0|0:0,0:0:0:0:
148,254,102000,2,0,B|182:302|182:302|182:366,1,123.750004720688
184,64,102310,2,0,B|150:112|150:112|150:176,1,123.750004720688
247,17,102619,2,0,L|374:19,1,123.750004720688,0|0,3:0|0:0,0:0:0:0:
433,70,102928,5,0,0:0:0:0:
381,135,103083,1,0,0:0:0:0:
381,135,103238,2,0,L|484:206,1,123.750004720688
443,272,103547,2,0,L|364:378,1,123.750004720688
302,335,103856,1,0,3:0:0:0:
56,364,104165,1,0,0:0:0:0:
95,162,104475,2,0,P|118:111|98:50,1,123.750004720688
27,49,104784,2,0,P|4:100|24:161,1,123.750004720688
60,230,105093,1,0,3:0:0:0:
16,297,105248,1,0,0:0:0:0:
214,126,105557,5,0,0:0:0:0:
214,126,105712,2,0,P|266:163|324:171,1,123.750004720688,0|0,0:0|0:0,0:0:0:0:
326,245,106021,2,0,L|325:371,1,123.750004720688
403,370,106330,1,0,3:0:0:0:
370,128,106640,5,0,0:0:0:0:
313,71,106794,1,0,0:0:0:0:
230,70,106949,2,0,P|242:123|227:198,1,123.750004720688,0|0,0:0|0:0,0:0:0:0:
155,188,107258,2,0,P|144:249|161:313,1,123.750004720688,0|0,0:0|0:0,0:0:0:0:
213,356,107567,1,0,3:0:0:0:
279,316,107722,2,0,P|321:302|416:303,1,123.750004720688,0|0,0:0|0:0,0:0:0:0:
375,223,108031,5,0,0:0:0:0:
375,223,108186,2,0,P|335:203|280:203,1,82.5
231,150,108495,1,0,0:0:0:0:
218,68,108650,1,0,0:0:0:0:
151,19,108805,1,0,3:0:0:0:
25,126,109114,5,0,0:0:0:0:
78,189,109269,1,0,0:0:0:0:
160,189,109423,1,0,0:0:0:0:
119,260,109578,1,0,0:0:0:0:
119,260,109732,1,0,0:0:0:0:
182,313,109887,2,0,P|134:345|113:378,1,82.5,0|0,0:0|3:0,0:0:0:0:
367,344,110506,1,0,0:0:0:0:
287,322,110660,1,0,0:0:0:0:
351,269,110815,1,0,0:0:0:0:
429,295,110970,2,0,P|436:250|474:217,1,82.5
416,153,111279,5,0,3:0:0:0:
338,180,111433,1,0,0:0:0:0:
354,98,111588,1,0,0:0:0:0:
316,24,111743,1,0,0:0:0:0:
271,93,111897,1,0,0:0:0:0:
354,98,112052,1,0,0:0:0:0:
401,30,112207,1,0,0:0:0:0:
483,33,112361,1,0,0:0:0:0:
483,33,112516,1,0,3:0:0:0:
212,360,113134,5,0,0:0:0:0:
167,290,113289,1,0,0:0:0:0:
214,222,113444,1,0,0:0:0:0:
178,148,113598,1,0,0:0:0:0:
260,158,113753,2,0,P|304:149|363:169,1,82.5,0|0,3:0|0:0,0:0:0:0:
329,238,114062,1,0,0:0:0:0:
362,313,114217,1,0,0:0:0:0:
444,305,114372,1,0,0:0:0:0:
444,305,114526,1,0,0:0:0:0:
463,224,114681,1,0,0:0:0:0:
426,150,114836,1,0,0:0:0:0:
426,150,114990,1,0,3:0:0:0:
212,43,115299,5,0,0:0:0:0:
183,120,115454,1,0,0:0:0:0:
131,55,115609,1,0,0:0:0:0:
105,217,115918,1,0,0:0:0:0:
186,202,116073,1,0,0:0:0:0:
156,278,116227,1,0,3:0:0:0:
309,338,116537,1,0,0:0:0:0:
235,375,116691,1,0,0:0:0:0:
78,323,117000,5,0,0:0:0:0:
31,254,117155,1,0,0:0:0:0:
68,180,117310,1,0,0:0:0:0:
116,246,117464,1,0,0:0:0:0:
