osu file format v14

[General]
AudioFilename: audio.mp3
AudioLeadIn: 0
PreviewTime: 78272
Countdown: 1
SampleSet: None
StackLeniency: 0.7
Mode: 0
LetterboxInBreaks: 0
WidescreenStoryboard: 0

[Editor]
Bookmarks: 17739,25607,41851,70277,82460
DistanceSpacing: 1
BeatDivisor: 4
GridSize: 8
TimelineZoom: 2.2

[Metadata]
Title:One Minute To Midnight
TitleUnicode:One Minute To Midnight
Artist:Justice
ArtistUnicode:Justice
Creator:JosephK
Version:Midnight
Source:
Tags:itunes version alternate version cross electronic
BeatmapID:1889983
BeatmapSetID:905512

[Difficulty]
HPDrainRate:5
CircleSize:4
OverallDifficulty:5
ApproachRate:8
SliderMultiplier:1.4
SliderTickRate:1

[Events]
//Background and Video events
0,0,"oui oui.jpg",0,0
//Break Periods
2,41542,49222
2,66416,73588
//Storyboard Layer 0 (Background)
//Storyboard Layer 1 (Fail)
//Storyboard Layer 2 (Pass)
//Storyboard Layer 3 (Foreground)
//Storyboard Sound Samples

[TimingPoints]
1242,507.61421319797,4,2,1,100,1,0
17739,-66.6666666666667,4,2,0,100,0,1
25607,-100,4,2,1,100,0,0
82460,-66.6666666666667,4,3,1,100,0,1
106825,-66.6666666666667,4,3,1,100,0,0

[HitObjects]
98,108,1242,5,2,0:0:0:0:
150,204,1495,1,0,0:0:0:0:
241,255,1749,1,2,0:0:0:0:
341,254,2003,5,0,0:0:0:0:
351,231,2130,1,2,0:0:0:0:
357,208,2257,1,0,0:0:0:0:
363,180,2384,1,2,0:0:0:0:
365,149,2511,2,0,P|331:114|289:104,1,70,0|2,0:0|0:0,0:0:0:0:
229,113,3018,6,0,P|205:158|171:186,1,70,0|6,0:0|0:0,0:0:0:0:
49,185,3526,5,0,0:0:0:0:
54,292,3780,1,2,0:0:0:0:
155,300,4033,5,0,0:0:0:0:
184,281,4159,1,2,0:0:0:0:
214,263,4286,1,0,0:0:0:0:
244,245,4413,1,2,0:0:0:0:
265,224,4541,2,0,P|287:193|283:146,1,70,0|2,0:0|0:0,0:0:0:0:
231,91,5049,6,0,P|184:66|142:68,1,70,0|2,0:0|0:0,0:0:0:0:
121,130,5556,1,0,0:0:0:0:
68,240,5810,1,2,0:0:0:0:
172,280,6064,5,0,0:0:0:0:
189,267,6191,1,2,0:0:0:0:
207,254,6317,1,0,0:0:0:0:
224,241,6444,1,2,0:0:0:0:
247,229,6571,2,0,P|265:209|262:157,1,70,0|2,0:0|0:0,0:0:0:0:
202,99,7079,2,0,P|183:119|131:136,1,70,0|6,0:0|0:0,0:0:0:0:
57,211,7587,5,0,0:0:0:0:
138,294,7840,1,2,0:0:0:0:
240,304,8094,5,0,0:0:0:0:
253,284,8220,1,2,0:0:0:0:
266,265,8347,1,0,0:0:0:0:
280,248,8474,1,2,0:0:0:0:
288,232,8602,2,0,P|272:176|248:160,1,70,0|2,0:0|0:0,0:0:0:0:
192,144,9110,6,0,P|152:136|96:144,1,70,0|2,0:0|0:0,0:0:0:0:
64,232,9617,1,0,0:0:0:0:
168,304,9871,1,2,0:0:0:0:
256,280,10125,5,0,0:0:0:0:
284,260,10251,1,2,0:0:0:0:
298,228,10378,1,0,0:0:0:0:
293,194,10505,1,2,0:0:0:0:
280,160,10632,2,0,P|264:128|224:96,1,70,0|2,0:0|0:0,0:0:0:0:
146,100,11140,2,0,P|106:102|67:130,1,70,0|6,0:0|0:0,0:0:0:0:
46,222,11648,5,0,0:0:0:0:
133,278,11901,1,2,0:0:0:0:
217,289,12155,5,0,0:0:0:0:
251,287,12282,1,2,0:0:0:0:
280,268,12408,1,0,0:0:0:0:
297,237,12536,1,2,0:0:0:0:
300,190,12663,2,0,P|270:139|243:112,1,70,0|2,0:0|0:0,0:0:0:0:
175,120,13170,2,0,P|126:120|81:140,1,70,0|2,0:0|0:0,0:0:0:0:
37,215,13678,5,0,0:0:0:0:
98,278,13932,1,2,0:0:0:0:
245,284,14186,5,0,0:0:0:0:
279,284,14313,1,2,0:0:0:0:
306,263,14439,1,0,0:0:0:0:
315,230,14566,1,2,0:0:0:0:
313,200,14693,2,0,P|285:165|247:151,1,70,0|2,0:0|0:0,0:0:0:0:
178,172,15201,2,0,P|121:181|98:202,1,70,0|6,0:0|0:0,0:0:0:0:
69,278,15709,5,0,0:0:0:0:
169,302,15962,1,2,0:0:0:0:
267,280,16216,5,0,0:0:0:0:
295,259,16342,1,2,0:0:0:0:
312,229,16469,1,0,0:0:0:0:
315,195,16596,1,2,0:0:0:0:
306,162,16724,2,0,P|282:124|237:98,1,70,0|2,0:0|0:0,0:0:0:0:
171,115,17231,2,0,P|135:109|83:124,1,70,0|2,0:0|1:0,0:0:0:0:
45,229,17739,6,0,P|45:289|85:340,1,105,0|2,0:0|1:0,0:0:0:0:
152,316,18247,2,0,P|167:263|213:225,1,105.000004005432,0|2,0:0|1:0,0:0:0:0:
299,120,18754,2,0,B|248:95|207:118|164:111,1,105.000004005432,0|2,0:0|1:0,0:0:0:0:
67,158,19262,6,0,P|81:206|125:254,1,105.000004005432,0|2,0:0|1:0,0:0:0:0:
174,177,19769,2,0,P|225:160|288:188,1,105.000004005432,0|2,0:0|1:0,0:0:0:0:
365,260,20277,2,0,P|348:318|294:334,1,105.000004005432,0|2,0:0|1:0,0:0:0:0:
219,317,20785,6,0,B|165:302|130:329|77:317,1,105.000004005432,0|2,0:0|1:0,0:0:0:0:
31,235,21292,2,0,P|60:189|109:171,1,105.000004005432,0|2,0:0|1:0,0:0:0:0:
241,273,21800,2,0,P|209:232|197:182,1,105.000004005432,0|2,0:0|1:0,0:0:0:0:
190,65,22307,6,0,P|243:60|300:78,1,105.000004005432,0|2,0:0|1:0,0:0:0:0:
373,184,22815,2,0,P|385:229|339:296,1,105.000004005432,0|2,0:0|1:0,0:0:0:0:
234,277,23323,2,0,P|182:292|121:273,1,105.000004005432,0|2,0:0|1:0,0:0:0:0:
32,144,23830,6,0,P|64:88|112:64,1,105.000004005432,0|2,0:0|1:0,0:0:0:0:
200,64,24338,2,0,P|248:56|304:96,1,105.000004005432,0|2,0:0|1:0,0:0:0:0:
312,208,24846,2,0,P|280:256|216:296,1,105.000004005432,0|2,0:0|1:0,0:0:0:0:
96,296,25353,1,0,0:0:0:0:
64,104,25607,5,2,0:0:0:0:
96,224,25861,1,0,0:0:0:0:
176,120,26115,1,2,0:0:0:0:
261,97,26368,5,0,0:0:0:0:
299,132,26494,1,2,0:0:0:0:
320,180,26621,1,0,0:0:0:0:
322,232,26748,1,2,0:0:0:0:
304,274,26876,2,0,P|289:320|246:338,1,70,0|2,0:0|0:0,0:0:0:0:
163,309,27384,2,0,P|153:281|132:225,1,70,0|4,0:0|0:0,0:0:0:0:
56,77,27891,6,0,P|101:75|149:92,1,70,0|2,0:0|0:0,0:0:0:0:
224,130,28399,5,0,0:0:0:0:
234,163,28525,1,2,0:0:0:0:
231,197,28652,1,0,0:0:0:0:
214,228,28780,1,2,0:0:0:0:
206,256,28906,2,0,P|214:309|250:312,1,70,0|2,0:0|0:0,0:0:0:0:
305,313,29414,2,0,P|306:255|292:218,1,70,0|2,0:0|0:0,0:0:0:0:
277,70,29922,6,0,B|240:58|179:88,1,70,0|2,0:0|0:0,0:0:0:0:
68,144,30429,5,0,0:0:0:0:
65,178,30555,1,2,0:0:0:0:
70,213,30682,1,0,0:0:0:0:
82,246,30809,1,2,0:0:0:0:
95,278,30937,2,0,P|133:290|172:298,1,70,0|2,0:0|0:0,0:0:0:0:
226,202,31445,2,0,P|260:194|314:203,1,70,0|4,0:0|0:0,0:0:0:0:
354,267,31952,6,0,P|351:311|312:342,1,70,0|2,0:0|0:0,0:0:0:0:
223,337,32460,5,0,0:0:0:0:
188,330,32586,1,2,0:0:0:0:
159,311,32713,1,0,0:0:0:0:
139,282,32840,1,2,0:0:0:0:
134,248,32967,2,0,P|165:200|194:175,1,70,0|2,0:0|0:0,0:0:0:0:
269,164,33475,2,0,P|255:122|221:97,1,70,0|2,0:0|0:0,0:0:0:0:
123,128,33983,6,0,P|61:166|55:190,1,70,0|2,0:0|0:0,0:0:0:0:
57,244,34490,5,0,0:0:0:0:
70,276,34616,1,2,0:0:0:0:
94,300,34743,1,0,0:0:0:0:
127,312,34870,1,2,0:0:0:0:
161,316,34998,2,0,P|173:276|209:250,1,70,0|2,0:0|0:0,0:0:0:0:
300,128,35505,2,0,P|279:97|221:95,1,70,0|4,0:0|0:0,0:0:0:0:
120,79,36013,6,0,P|80:102|49:144,1,70,0|2,0:0|0:0,0:0:0:0:
57,205,36521,5,0,0:0:0:0:
72,236,36647,1,2,0:0:0:0:
93,263,36774,1,0,0:0:0:0:
121,285,36901,1,2,0:0:0:0:
140,301,37028,2,0,P|179:261|212:237,1,70,0|2,0:0|0:0,0:0:0:0:
272,195,37536,2,0,P|252:156|207:135,1,70,0|2,0:0|0:0,0:0:0:0:
45,157,38044,6,0,P|24:203|49:235,1,70,0|2,0:0|0:0,0:0:0:0:
99,284,38551,5,0,0:0:0:0:
109,317,38677,1,2,0:0:0:0:
134,340,38804,1,0,0:0:0:0:
168,347,38931,1,2,0:0:0:0:
201,335,39059,2,0,P|247:335|273:306,1,70
303,213,39566,2,0,P|286:164|251:142,1,70,0|4,0:0|0:0,0:0:0:0:
158,167,40074,6,0,P|121:166|81:196,1,70,0|2,0:0|0:0,0:0:0:0:
44,246,40582,1,0,0:0:0:0:
61,276,40709,1,2,0:0:0:0:
85,302,40835,1,0,0:0:0:0:
112,323,40962,1,2,0:0:0:0:
136,336,41089,2,0,P|178:343|217:338,1,70,0|2,0:0|0:0,0:0:0:0:
112,77,49972,5,2,0:0:0:0:
49,133,50226,1,0,0:0:0:0:
118,211,50480,1,2,0:0:0:0:
190,242,50734,5,0,0:0:0:0:
209,270,50860,1,2,0:0:0:0:
237,290,50987,1,0,0:0:0:0:
271,298,51114,1,2,0:0:0:0:
305,298,51242,2,0,L|301:215,1,70,0|2,0:0|0:0,0:0:0:0:
292,101,51749,2,0,P|244:84|203:83,1,70,0|4,0:0|0:0,0:0:0:0:
123,131,52257,6,0,P|72:153|55:173,1,70,0|2,0:0|0:0,0:0:0:0:
56,242,52764,5,0,0:0:0:0:
62,276,52891,1,2,0:0:0:0:
81,305,53017,1,0,0:0:0:0:
110,324,53144,1,2,0:0:0:0:
144,330,53272,2,0,L|208:293,1,70,0|2,0:0|0:0,0:0:0:0:
235,160,53780,2,0,P|188:169|170:195,1,70,0|2,0:0|0:0,0:0:0:0:
248,276,54287,6,0,P|290:278|324:251,1,70,0|2,0:0|0:0,0:0:0:0:
340,153,54795,5,0,0:0:0:0:
308,137,54921,1,2,0:0:0:0:
274,133,55048,1,0,0:0:0:0:
239,139,55175,1,2,0:0:0:0:
208,155,55302,2,0,P|176:182|157:211,1,70,0|2,0:0|0:0,0:0:0:0:
87,292,55810,2,0,P|119:331|156:336,1,70,0|4,0:0|0:0,0:0:0:0:
218,316,56318,6,0,P|285:277|291:271,1,70,0|2,0:0|0:0,0:0:0:0:
328,177,56825,5,0,0:0:0:0:
323,142,56951,1,2,0:0:0:0:
303,113,57078,1,0,0:0:0:0:
273,96,57205,1,2,0:0:0:0:
239,94,57333,2,0,P|188:131|162:155,1,70,0|2,0:0|0:0,0:0:0:0:
62,207,57840,2,0,P|90:250|124:271,1,70,0|2,0:0|0:0,0:0:0:0:
199,266,58348,6,0,P|249:239|259:226,1,70,0|2,0:0|0:0,0:0:0:0:
334,100,58856,5,0,0:0:0:0:
302,84,58982,1,2,0:0:0:0:
268,75,59109,1,0,0:0:0:0:
234,75,59236,1,2,0:0:0:0:
200,83,59363,2,0,P|159:104|117:134,1,70,0|2,0:0|0:0,0:0:0:0:
55,184,59871,2,0,P|58:255|64:280,1,70,0|4,0:0|0:0,0:0:0:0:
109,318,60379,6,0,P|165:299|174:291,1,70,0|2,0:0|0:0,0:0:0:0:
230,252,60886,5,0,0:0:0:0:
260,234,61012,1,2,0:0:0:0:
284,209,61139,1,0,0:0:0:0:
300,178,61267,1,2,0:0:0:0:
307,144,61394,2,0,P|280:104|238:88,1,70,0|2,0:0|0:0,0:0:0:0:
152,120,61901,2,0,L|97:171,1,70,0|2,0:0|0:0,0:0:0:0:
49,257,62409,5,0,0:0:0:0:
130,321,62663,1,2,0:0:0:0:
217,308,62917,5,0,0:0:0:0:
246,289,63043,1,2,0:0:0:0:
272,265,63170,1,0,0:0:0:0:
292,237,63297,1,2,0:0:0:0:
307,205,63424,2,0,P|319:169|308:124,1,70,0|2,0:0|0:0,0:0:0:0:
219,111,63932,2,0,P|155:106|139:110,1,70,0|4,0:0|0:0,0:0:0:0:
85,170,64439,5,0,0:0:0:0:
88,303,64693,1,2,0:0:0:0:
185,310,64947,5,0,0:0:0:0:
219,311,65073,1,2,0:0:0:0:
254,304,65200,1,0,0:0:0:0:
285,289,65327,1,2,0:0:0:0:
313,268,65455,2,0,P|343:206|334:190,1,70,0|2,0:0|0:0,0:0:0:0:
299,62,65962,5,0,0:0:0:0:
210,126,66216,1,2,3:0:0:0:
45,91,74338,5,2,0:0:0:0:
98,205,74592,1,0,0:0:0:0:
157,103,74846,1,2,0:0:0:0:
301,100,75099,5,0,0:0:0:0:
318,129,75226,1,2,0:0:0:0:
325,164,75352,1,0,0:0:0:0:
319,198,75479,1,2,0:0:0:0:
307,224,75607,2,0,P|299:270|264:304,1,70,0|2,0:0|0:0,0:0:0:0:
205,325,76115,2,0,P|161:324|109:300,1,70,0|4,0:0|0:0,0:0:0:0:
30,86,76622,5,0,0:0:0:0:
85,155,76876,1,2,0:0:0:0:
146,213,77130,5,0,0:0:0:0:
163,242,77256,1,2,0:0:0:0:
189,266,77383,1,0,0:0:0:0:
217,286,77510,1,2,0:0:0:0:
248,303,77637,2,0,P|281:305|331:295,1,70,0|2,0:0|0:0,0:0:0:0:
340,190,78145,5,0,0:0:0:0:
244,118,78399,1,2,0:0:0:0:
154,129,78653,6,0,P|111:126|78:151,1,70,0|2,0:0|0:0,0:0:0:0:
45,232,79160,5,0,0:0:0:0:
47,266,79287,1,2,0:0:0:0:
62,298,79413,1,0,0:0:0:0:
87,322,79541,1,2,0:0:0:0:
115,333,79668,2,0,P|149:319|193:283,1,70,0|2,0:0|0:0,0:0:0:0:
245,224,80176,2,0,P|242:175|229:149,1,70,0|4,0:0|0:0,0:0:0:0:
214,73,80683,5,0,0:0:0:0:
92,97,80937,1,2,0:0:0:0:
39,244,81191,5,0,0:0:0:0:
61,270,81317,1,2,0:0:0:0:
89,291,81444,1,0,0:0:0:0:
120,307,81571,1,2,0:0:0:0:
154,315,81698,1,0,0:0:0:0:
260,320,81952,1,2,0:0:0:0:
358,249,82206,5,0,0:0:0:0:
66,82,82460,5,14,3:0:0:0:
89,172,82714,2,0,P|122:223|178:254,1,105.000004005432,0|8,0:0|0:0,0:0:0:0:
241,249,83221,1,0,0:0:0:0:
241,249,83348,2,0,L|363:182,1,105.000004005432
392,260,83729,2,0,P|372:318|330:341,1,105.000004005432
230,340,84236,5,0,0:0:0:0:
120,300,84490,1,0,0:0:0:0:
50,195,84744,2,0,P|90:127|126:101,1,105.000004005432,0|8,0:0|0:0,0:0:0:0:
183,77,85252,5,8,0:0:0:0:
235,82,85378,1,8,0:0:0:0:
283,102,85505,1,8,0:0:0:0:
323,136,85632,1,8,0:0:0:0:
347,159,85759,2,0,P|325:210|249:242,1,105.000004005432,0|8,0:0|0:0,0:0:0:0:
143,286,86267,6,0,P|85:258|57:208,1,105.000004005432
67,115,86774,1,0,0:0:0:0:
150,61,87028,1,8,0:0:0:0:
316,84,87282,5,0,0:0:0:0:
316,84,87409,2,8,P|363:131|383:208,1,105.000004005432
390,256,87790,2,8,P|368:304|312:347,1,105.000004005432,0|8,0:0|0:0,0:0:0:0:
234,330,88297,1,0,0:0:0:0:
75,273,88551,1,0,0:0:0:0:
40,184,88805,6,0,P|73:128|127:99,1,105.000004005432,0|8,0:0|0:0,0:0:0:0:
262,94,89313,5,8,0:0:0:0:
295,134,89439,1,8,0:0:0:0:
325,177,89566,1,8,0:0:0:0:
353,221,89693,1,8,0:0:0:0:
368,241,89820,2,0,P|356:295|314:339,1,105.000004005432,0|8,0:0|0:0,0:0:0:0:
201,340,90328,6,0,P|124:309|74:257,1,105.000004005432,0|2,0:0|0:0,0:0:0:0:
40,196,90835,1,0,0:0:0:0:
121,91,91089,1,8,0:0:0:0:
203,106,91343,1,0,0:0:0:0:
203,106,91470,2,8,P|263:157|301:186,1,105.000004005432
359,226,91851,6,0,P|362:279|317:321,1,105.000004005432,0|8,0:0|0:0,0:0:0:0:
227,327,92358,1,0,0:0:0:0:
105,258,92612,1,0,0:0:0:0:
49,165,92866,2,0,P|106:123|150:111,1,105.000004005432,0|8,0:0|0:0,0:0:0:0:
296,91,93373,5,8,0:0:0:0:
317,138,93499,1,8,0:0:0:0:
318,190,93626,1,8,0:0:0:0:
298,238,93753,1,8,0:0:0:0:
276,264,93881,2,0,P|251:329|201:349,1,105.000004005432
131,332,94389,6,0,P|66:318|39:264,1,105.000004005432,0|2,0:0|0:0,0:0:0:0:
25,160,94896,1,0,0:0:0:0:
128,75,95150,1,8,0:0:0:0:
218,96,95404,5,0,0:0:0:0:
217,96,95531,2,8,B|275:91|326:120,1,105.000004005432
358,182,95912,2,0,P|339:260|289:271,1,105.000004005432,0|8,0:0|0:0,0:0:0:0:
219,320,96419,5,0,0:0:0:0:
89,255,96673,1,0,0:0:0:0:
51,140,96927,2,0,P|65:108|155:112,1,105.000004005432,0|8,0:0|0:0,0:0:0:0:
276,90,97434,5,8,0:0:0:0:
293,139,97560,1,8,0:0:0:0:
292,191,97687,1,8,0:0:0:0:
274,240,97814,1,8,0:0:0:0:
240,280,97942,2,8,P|207:309|108:318,1,105.000004005432
42,193,98450,5,0,0:0:0:0:
49,93,98703,2,0,P|135:68|192:79,1,105.000004005432
250,93,99211,1,0,0:0:0:0:
373,136,99465,1,0,0:0:0:0:
373,136,99592,2,8,P|383:184|352:249,1,105.000004005432
303,286,99972,6,0,P|257:338|188:344,1,105.000004005432
42,309,100480,1,0,0:0:0:0:
95,173,100734,1,0,0:0:0:0:
165,102,100988,2,0,P|205:86|300:96,1,105.000004005432,0|8,0:0|0:0,0:0:0:0:
342,143,101495,5,8,0:0:0:0:
342,195,101621,1,8,0:0:0:0:
325,244,101748,1,8,0:0:0:0:
292,285,101875,1,8,0:0:0:0:
247,311,102003,2,0,P|175:326|127:291,1,105.000004005432
45,243,102511,5,0,0:0:0:0:
43,121,102764,2,0,P|106:92|179:102,1,105.000004005432,2|0,0:0|0:0,0:0:0:0:
239,111,103272,1,8,0:0:0:0:
339,133,103526,1,0,0:0:0:0:
339,133,103653,2,0,P|315:240|294:254,1,105.000004005432
272,294,104033,5,0,0:0:0:0:
81,294,104287,2,0,P|118:263|123:200,1,105.000004005432
50,77,104795,1,0,0:0:0:0:
170,97,105049,2,0,P|275:114|312:135,1,105.000004005432,0|8,0:0|0:0,0:0:0:0:
363,156,105556,5,8,0:0:0:0:
348,206,105682,1,8,0:0:0:0:
321,251,105809,1,8,0:0:0:0:
283,287,105936,1,8,0:0:0:0:
252,306,106064,2,0,P|175:342|116:331,1,105.000004005432
