osu file format v14

[General]
AudioFilename: audio.mp3
AudioLeadIn: 0
PreviewTime: 115192
Countdown: 1
SampleSet: None
StackLeniency: 0.7
Mode: 0
LetterboxInBreaks: 0
WidescreenStoryboard: 0

[Editor]
Bookmarks: 20478
DistanceSpacing: 1.1
BeatDivisor: 4
GridSize: 8
TimelineZoom: 1.9

[Metadata]
Title:Ohio
TitleUnicode:Ohio
Artist:Justice
ArtistUnicode:Justice
Creator:JosephK
Version:Reign on
Source:
Tags:audio video disco french house electropop electronica
BeatmapID:1811774
BeatmapSetID:866610

[Difficulty]
HPDrainRate:5
CircleSize:4
OverallDifficulty:5
ApproachRate:8
SliderMultiplier:1.4
SliderTickRate:4

[Events]
//Background and Video events
0,0,"ohayoubg.jpg",0,0
//Break Periods
//Storyboard Layer 0 (Background)
//Storyboard Layer 1 (Fail)
//Storyboard Layer 2 (Pass)
//Storyboard Layer 3 (Foreground)
//Storyboard Sound Samples

[TimingPoints]
899.331146454243,652.173913043478,4,2,0,70,1,0
16551,-100,4,2,0,70,0,0
21768,-100,4,1,0,70,0,1
40029,-100,4,2,0,70,0,0
63508,-133.333333333333,4,2,0,70,0,0
73942,-100,4,2,0,70,0,0
94812,-100,4,1,0,70,0,1
113073,-100,4,1,0,5,0,0
115192,652.173913043478,4,2,0,70,1,0
126115,652.173913043478,4,2,0,70,1,0
126115,-50,4,3,0,70,0,0
126441,-100,4,3,0,70,0,0
127256,-50,4,3,0,70,0,0
127745,-100,4,3,0,70,0,0
128723,-50,4,3,0,70,0,0
129049,-100,4,3,0,70,0,0
130028,-50,4,3,0,70,0,0
130680,-100,4,3,0,70,0,0
131332,-50,4,3,0,70,0,0
131658,-100,4,3,0,70,0,0
132636,-50,4,3,0,70,0,0
132962,-100,4,3,0,70,0,0
133941,-50,4,3,0,70,0,0
136549,-28.5714285714286,4,2,0,70,0,0
144375,-133.333333333333,4,2,0,70,0,0
146984,-28.5714285714286,4,2,0,70,0,0
154810,-133.333333333333,4,2,0,70,0,0
157419,-100,4,2,0,70,0,0
178288,-100,4,1,0,70,0,1
188723,-25,4,1,0,70,0,1
189538,-100,4,1,0,70,0,1
199158,-100,4,2,0,70,0,0

[HitObjects]
95,74,899,6,0,L|163:115,1,70,2|0,0:0|0:0,0:0:0:0:
149,102,1388,2,0,L|224:139,1,70,2|0,0:0|0:0,0:0:0:0:
249,152,1877,1,0,0:0:0:0:
323,177,2203,6,0,L|270:233,1,70,2|0,0:0|0:0,0:0:0:0:
255,242,2692,2,0,L|170:288,1,70,2|0,0:0|0:0,0:0:0:0:
170,289,3181,1,0,0:0:0:0:
73,99,3508,6,0,P|33:157|38:180,1,70,2|0,0:0|0:0,0:0:0:0:
46,180,3997,2,0,P|82:229|115:238,1,70,2|0,0:0|0:0,0:0:0:0:
112,248,4486,1,0,0:0:0:0:
243,50,4812,6,0,L|248:138,1,70,2|0,0:0|0:0,0:0:0:0:
245,138,5301,2,0,P|245:175|225:223,1,70,2|0,0:0|0:0,0:0:0:0:
224,244,5790,1,0,0:0:0:0:
398,120,6116,6,0,P|382:197|374:199,1,70,2|0,0:0|0:0,0:0:0:0:
377,230,6605,2,0,P|348:264|305:284,1,70,2|0,0:0|0:0,0:0:0:0:
300,296,7094,1,0,0:0:0:0:
219,285,7421,6,0,P|161:282|137:259,1,70,2|0,0:0|0:0,0:0:0:0:
133,242,7910,2,0,P|161:179|181:165,1,70,2|0,0:0|0:0,0:0:0:0:
200,160,8399,1,0,0:0:0:0:
314,98,8725,6,0,P|323:136|296:177,1,70,2|0,0:0|0:0,0:0:0:0:
286,193,9214,2,0,P|283:233|237:254,1,70,2|0,0:0|0:0,0:0:0:0:
233,271,9703,1,0,0:0:0:0:
39,123,10029,6,0,P|43:201|48:215,1,70,2|0,0:0|0:0,0:0:0:0:
50,206,10518,2,0,P|81:231|132:240,1,70,2|0,0:0|0:0,0:0:0:0:
140,248,11008,1,0,0:0:0:0:
250,104,11334,6,0,L|250:187,1,70,2|0,0:0|0:0,0:0:0:0:
248,195,11823,2,0,L|277:282,1,70,2|0,0:0|0:0,0:0:0:0:
294,299,12312,1,0,0:0:0:0:
326,106,12638,6,0,P|306:177|307:180,1,70,2|0,0:0|0:0,0:0:0:0:
311,190,13127,2,0,P|313:224|297:263,1,70,2|0,0:0|0:0,0:0:0:0:
288,280,13616,1,0,0:0:0:0:
76,156,13942,6,0,P|77:215|92:232,1,70,2|0,0:0|0:0,0:0:0:0:
106,242,14431,2,0,P|142:277|172:294,1,70,2|0,0:0|0:0,0:0:0:0:
216,309,14921,1,0,0:0:0:0:
238,274,15247,6,0,L|303:217,1,70,2|0,0:0|0:0,0:0:0:0:
324,200,15736,2,0,L|384:150,1,70,2|0,0:0|0:0,0:0:0:0:
377,155,16225,1,0,0:0:0:0:
199,95,16551,6,0,B|37:126|110:324,2,280
270,115,19486,2,0,L|328:149,1,35
363,193,20138,1,0,0:0:0:0:
320,272,20627,1,0,0:0:0:0:
233,282,20790,2,0,L|154:276,1,70
55,110,21768,5,0,0:0:0:0:
99,141,21931,1,0,0:0:0:0:
141,178,22094,1,0,0:0:0:0:
184,217,22258,1,0,0:0:0:0:
229,252,22421,2,0,L|313:306,1,70,8|0,0:0|0:0,0:0:0:0:
370,272,23073,5,0,0:0:0:0:
321,241,23236,1,0,0:0:0:0:
277,211,23399,1,0,0:0:0:0:
228,184,23562,1,0,0:0:0:0:
176,160,23725,2,0,P|119:160|106:135,1,70,8|0,0:0|0:0,0:0:0:0:
41,188,24377,5,2,0:0:0:0:
102,246,24540,1,0,0:0:0:0:
188,293,24703,1,0,0:0:0:0:
271,305,24866,1,0,0:0:0:0:
365,294,25029,2,0,L|434:238,1,70,8|0,0:0|0:0,0:0:0:0:
401,171,25681,5,0,0:0:0:0:
326,142,25844,1,0,0:0:0:0:
245,122,26008,1,0,0:0:0:0:
172,128,26171,1,0,0:0:0:0:
101,168,26334,2,0,B|17:246|85:311,1,140,8|2,0:0|0:0,0:0:0:0:
156,299,27149,5,0,0:0:0:0:
222,248,27312,1,0,0:0:0:0:
296,178,27475,1,0,0:0:0:0:
338,92,27638,2,0,P|310:67|251:66,1,70,8|0,0:0|0:0,0:0:0:0:
61,301,28290,5,0,0:0:0:0:
131,209,28453,1,0,0:0:0:0:
224,141,28616,1,0,0:0:0:0:
339,137,28779,1,0,0:0:0:0:
420,154,28942,2,0,P|441:215|428:235,1,70,8|0,0:0|0:0,0:0:0:0:
45,161,29594,6,0,L|107:208,1,70
126,231,30084,2,0,L|186:278,1,70
221,293,30573,2,0,P|325:297|353:267,1,140
256,192,31551,12,2,32203,0:0:0:0:
51,100,32366,5,0,0:0:0:0:
90,163,32529,1,0,0:0:0:0:
135,209,32692,1,0,0:0:0:0:
175,258,32855,2,0,P|182:293|223:316,1,70,8|0,0:0|0:0,0:0:0:0:
256,308,33508,5,0,0:0:0:0:
312,326,33671,1,0,0:0:0:0:
373,318,33834,1,0,0:0:0:0:
424,283,33997,1,0,0:0:0:0:
449,228,34160,2,0,P|470:194|458:142,1,70,8|0,0:0|0:0,0:0:0:0:
333,141,34812,5,0,0:0:0:0:
256,193,34975,1,0,0:0:0:0:
193,241,35138,1,0,0:0:0:0:
131,283,35301,1,0,0:0:0:0:
60,306,35464,2,0,L|56:218,1,70,8|0,0:0|0:0,0:0:0:0:
71,163,36116,5,0,0:0:0:0:
170,122,36279,1,0,0:0:0:0:
280,116,36442,1,0,0:0:0:0:
358,152,36605,1,0,0:0:0:0:
413,208,36768,2,0,L|383:280,1,70,8|0,0:0|0:0,0:0:0:0:
256,192,37421,12,0,40029,0:0:0:0:
42,99,42638,6,0,L|47:139,3,35
57,191,43290,1,8,0:0:0:0:
87,252,43616,1,0,0:0:0:0:
126,290,43942,6,0,L|181:280,3,35
229,271,44594,1,8,0:0:0:0:
312,216,44921,1,0,0:0:0:0:
350,144,45247,6,0,L|348:97,3,35
270,109,45899,1,8,0:0:0:0:
168,108,46225,1,0,0:0:0:0:
52,157,46551,6,0,L|52:220,3,35
126,212,47203,2,0,L|172:213,3,35
253,186,47855,6,0,L|253:152,3,35
334,138,48508,1,8,0:0:0:0:
216,140,48834,1,0,0:0:0:0:
99,144,49160,6,0,L|99:197,3,35
94,255,49812,1,8,0:0:0:0:
201,257,50138,1,0,0:0:0:0:
263,253,50464,6,0,P|332:251|349:228,1,70
350,232,50953,2,0,P|381:200|367:172,1,70
371,173,51442,2,0,P|367:124|317:107,1,105
239,109,52094,1,0,0:0:0:0:
157,128,52421,2,0,L|125:146,1,35,8|0,0:0|0:0,0:0:0:0:
57,224,53073,6,0,L|52:269,3,35
127,275,53725,1,8,0:0:0:0:
252,276,54051,1,0,0:0:0:0:
365,277,54377,6,0,L|365:227,3,35
361,141,55029,1,8,0:0:0:0:
248,144,55355,1,0,0:0:0:0:
161,151,55681,6,0,L|109:162,3,35,2|0|0|0,0:0|0:0|0:0|0:0,0:0:0:0:
119,245,56334,1,8,0:0:0:0:
254,246,56660,1,0,0:0:0:0:
362,248,56986,6,0,L|361:190,3,35,2|0|0|0,0:0|0:0|0:0|0:0,0:0:0:0:
254,197,57638,1,8,0:0:0:0:
152,192,57964,1,0,0:0:0:0:
61,294,58290,6,0,L|129:292,3,35,2|0|0|0,0:0|0:0|0:0|0:0,0:0:0:0:
186,289,58942,1,8,0:0:0:0:
288,292,59268,1,0,0:0:0:0:
297,197,59594,6,0,L|297:142,3,35
206,157,60247,1,8,0:0:0:0:
64,152,60573,1,0,0:0:0:0:
256,192,60899,12,0,62855,0:0:0:0:
261,116,63508,6,0,P|323:153|310:189,1,105.000004005432
302,195,64812,2,0,P|297:227|225:258,1,105.000004005432
212,269,66116,2,0,P|181:268|140:203,1,105.000004005432
130,193,67421,2,0,P|136:144|189:106,1,105.000004005432
199,123,68725,2,0,P|239:116|305:158,1,105.000004005432
297,177,70029,2,0,P|319:193|303:269,1,105.000004005432
270,272,71334,2,0,P|247:298|175:286,1,105.000004005432
155,268,72638,2,0,P|123:231|145:175,1,105.000004005432
95,74,73942,6,0,L|154:110,1,70,2|0,0:0|0:0,0:0:0:0:
149,102,74431,2,0,L|212:132,1,70,2|0,0:0|0:0,0:0:0:0:
249,152,74920,1,0,0:0:0:0:
323,177,75246,6,0,L|274:227,1,70,2|0,0:0|0:0,0:0:0:0:
255,242,75735,2,0,L|193:275,1,70,2|0,0:0|0:0,0:0:0:0:
170,289,76224,1,0,0:0:0:0:
73,98,76551,6,0,P|45:119|33:151,1,70,2|0,0:0|0:0,0:0:0:0:
45,179,77040,2,0,P|60:211|88:232,1,70,2|0,0:0|0:0,0:0:0:0:
112,248,77529,1,0,0:0:0:0:
243,50,77855,6,0,L|246:119,1,70,2|0,0:0|0:0,0:0:0:0:
244,137,78344,2,0,P|245:172|235:206,1,70,2|0,0:0|0:0,0:0:0:0:
224,244,78833,1,0,0:0:0:0:
397,119,79159,6,0,P|412:150|401:183,1,70,2|0,0:0|0:0,0:0:0:0:
377,229,79648,2,0,P|355:257|326:276,1,70,2|0,0:0|0:0,0:0:0:0:
300,296,80137,1,0,0:0:0:0:
219,284,80464,6,0,P|184:289|152:276,1,70,2|0,0:0|0:0,0:0:0:0:
132,242,80953,2,0,P|140:208|160:179,1,70,2|0,0:0|0:0,0:0:0:0:
200,160,81442,1,0,0:0:0:0:
313,97,81768,6,0,P|323:131|311:163,1,70,2|0,0:0|0:0,0:0:0:0:
285,192,82257,2,0,P|285:227|261:251,1,70,2|0,0:0|0:0,0:0:0:0:
233,271,82746,1,0,0:0:0:0:
39,122,83072,6,0,P|36:157|40:192,1,70,2|0,0:0|0:0,0:0:0:0:
49,205,83561,2,0,P|76:228|109:239,1,70,2|0,0:0|0:0,0:0:0:0:
140,248,84051,1,0,0:0:0:0:
250,104,84377,6,0,L|250:174,1,70,2|0,0:0|0:0,0:0:0:0:
248,195,84866,2,0,L|270:261,1,70,2|0,0:0|0:0,0:0:0:0:
294,299,85355,1,0,0:0:0:0:
326,105,85681,6,0,P|306:134|304:169,1,70,2|0,0:0|0:0,0:0:0:0:
309,188,86170,2,0,P|311:223|299:256,1,70,2|0,0:0|0:0,0:0:0:0:
288,280,86659,1,0,0:0:0:0:
76,155,86985,6,0,P|68:189|81:221,1,70,2|0,0:0|0:0,0:0:0:0:
105,241,87474,2,0,P|129:267|158:287,1,70,2|0,0:0|0:0,0:0:0:0:
216,309,87964,1,0,0:0:0:0:
238,274,88290,6,0,L|290:227,1,70,2|0,0:0|0:0,0:0:0:0:
324,200,88779,2,0,L|377:155,1,70,2|0,0:0|0:0,0:0:0:0:
377,155,89268,1,0,0:0:0:0:
256,192,89594,12,0,90899,0:0:0:0:
256,192,92203,12,0,94160,0:0:0:0:
55,116,94812,5,0,0:0:0:0:
117,178,94975,1,0,0:0:0:0:
175,235,95138,1,0,0:0:0:0:
248,280,95301,1,0,0:0:0:0:
323,304,95464,2,0,P|377:304|396:266,1,70,8|0,0:0|0:0,0:0:0:0:
35,97,96116,5,0,0:0:0:0:
42,174,96279,1,0,0:0:0:0:
91,234,96442,1,0,0:0:0:0:
165,256,96605,1,0,0:0:0:0:
254,250,96768,2,0,L|337:263,1,70,8|0,0:0|0:0,0:0:0:0:
386,293,97421,5,0,0:0:0:0:
433,233,97584,1,0,0:0:0:0:
439,155,97747,1,0,0:0:0:0:
392,92,97910,1,0,0:0:0:0:
316,89,98073,2,0,P|279:92|234:118,1,70,8|0,0:0|0:0,0:0:0:0:
197,158,98725,5,0,0:0:0:0:
131,179,98888,1,0,0:0:0:0:
83,229,99051,1,0,0:0:0:0:
64,296,99214,1,0,0:0:0:0:
149,304,99377,2,0,L|206:306,3,35
259,305,100029,5,0,0:0:0:0:
348,320,100192,1,0,0:0:0:0:
419,264,100355,1,0,0:0:0:0:
424,174,100518,1,0,0:0:0:0:
344,169,100681,2,0,P|313:164|248:168,1,70,8|0,0:0|0:0,0:0:0:0:
204,161,101334,5,0,0:0:0:0:
124,148,101497,1,0,0:0:0:0:
55,187,101660,1,0,0:0:0:0:
40,280,101823,1,0,0:0:0:0:
118,291,101986,2,0,P|168:321|189:311,1,70,8|0,0:0|0:0,0:0:0:0:
269,312,102638,6,0,L|308:239,1,70
316,233,103127,2,0,L|352:168,1,70
356,142,103616,2,0,P|426:83|330:44,1,210
259,60,105247,5,0,0:0:0:0:
167,67,105410,1,0,0:0:0:0:
91,120,105573,1,0,0:0:0:0:
53,204,105736,1,0,0:0:0:0:
91,274,105899,2,0,P|120:302|179:300,1,70
219,313,106551,5,0,0:0:0:0:
308,318,106714,1,0,0:0:0:0:
384,282,106877,1,0,0:0:0:0:
424,192,107040,1,0,0:0:0:0:
345,180,107203,2,0,L|248:173,1,70
205,171,107855,5,0,0:0:0:0:
138,157,108018,1,0,0:0:0:0:
80,194,108181,1,0,0:0:0:0:
64,260,108344,1,0,0:0:0:0:
74,331,108508,2,0,L|168:330,1,70
202,335,109160,5,0,0:0:0:0:
305,344,109323,1,0,0:0:0:0:
376,299,109486,1,0,0:0:0:0:
424,215,109649,1,0,0:0:0:0:
410,133,109812,2,0,L|348:126,3,35
256,192,110464,12,0,113073,0:0:0:0:
49,117,115192,6,0,L|127:205,1,105
217,226,116007,2,0,L|191:249,2,35
310,191,116496,2,0,P|341:146|299:91,1,105
245,99,117311,2,0,L|188:113,2,35
145,131,117800,2,0,P|116:159|87:223,1,105
157,236,118615,2,0,L|220:262,2,35
248,262,119105,2,0,P|312:281|366:246,1,105
339,170,119920,2,0,L|337:115,2,35
244,137,120409,1,0,0:0:0:0:
149,136,120735,6,0,L|61:206,1,105
93,258,121387,2,0,L|137:290,1,35
186,294,121713,2,0,P|230:310|298:287,1,105
352,231,122528,2,0,L|321:184,2,35
290,160,123018,2,0,P|280:121|210:82,1,105
201,91,123833,2,0,L|148:106,1,35
139,120,124322,2,0,L|112:170,1,35
102,182,124811,2,0,L|95:228,1,35
115,288,125463,2,0,L|179:310,1,35
63,120,126115,6,0,L|61:189,1,70
46,255,126441,2,0,L|106:257,4,35,0|0|8|0|0,0:0|0:0|0:0|0:0|0:0,0:0:0:0:
153,261,127419,6,0,L|271:261,1,70
319,265,127745,2,0,L|301:217,4,35,0|0|8|0|0,0:0|0:0|0:0|0:0|0:0,0:0:0:0:
250,282,128723,6,0,L|165:281,1,70
186,206,129049,2,0,L|187:156,4,35,0|0|8|0|0,0:0|0:0|0:0|0:0|0:0,0:0:0:0:
130,311,130028,6,0,L|286:310,1,140
293,313,130680,2,0,L|292:257,1,35
406,265,131332,6,0,L|309:184,1,70
255,199,131658,2,0,L|261:140,4,35,0|0|8|0|0,0:0|0:0|0:0|0:0|0:0,0:0:0:0:
258,287,132636,6,0,L|166:288,1,70
177,215,132962,2,0,L|175:158,4,35,0|0|8|0|0,0:0|0:0|0:0|0:0|0:0,0:0:0:0:
323,327,133941,6,0,L|187:246,1,140
208,254,134430,2,0,L|318:141,1,140
328,260,134919,2,0,P|394:166|148:95,1,490
68,325,136549,6,0,L|471:23,1,490.000004673004,0|8,0:0|0:0,0:0:0:0:
468,40,137854,2,0,L|43:315,1,490.000004673004,0|8,0:0|0:0,0:0:0:0:
80,330,139158,2,0,P|293:255|263:31,1,490.000004673004,0|8,0:0|0:0,0:0:0:0:
46,88,140462,2,0,L|478:354,2,490.000004673004
239,189,142419,1,8,0:0:0:0:
441,318,143071,6,0,L|32:35,1,490.000004673004,0|8,0:0|0:0,0:0:0:0:
47,91,144375,6,0,L|102:132,1,52.5000020027161
119,129,144865,2,0,L|180:171,1,52.5000020027161
198,178,145354,2,0,L|276:267,1,105.000004005432
324,277,146332,2,0,L|354:246,1,26.2500010013581
440,332,146984,6,0,L|42:45,1,490.000004673004,0|8,0:0|0:0,0:0:0:0:
45,81,148288,2,0,L|484:344,1,490.000004673004,0|8,0:0|0:0,0:0:0:0:
412,349,149593,2,0,P|436:195|112:82,1,490.000004673004,0|8,0:0|0:0,0:0:0:0:
42,287,150897,2,0,P|224:305|374:49,2,490.000004673004
252,191,152854,1,8,0:0:0:0:
41,66,153506,6,0,L|485:341,1,490.000004673004,0|8,0:0|0:0,0:0:0:0:
55,111,154810,6,0,L|108:156,1,52.5000020027161
109,169,155299,2,0,L|162:206,1,52.5000020027161
256,224,155788,1,0,0:0:0:0:
357,228,156441,1,0,0:0:0:0:
364,303,156767,2,0,L|317:317,1,26.2500010013581
87,82,157419,6,0,L|91:116,3,35
102,174,158071,1,8,0:0:0:0:
132,235,158397,1,0,0:0:0:0:
171,273,158723,6,0,L|205:266,3,35
274,254,159375,1,8,0:0:0:0:
357,199,159702,1,0,0:0:0:0:
395,127,160028,6,0,L|393:92,3,35
315,92,160680,1,8,0:0:0:0:
213,91,161006,1,0,0:0:0:0:
97,140,161332,6,0,L|97:175,3,35
171,195,161984,2,0,L|205:195,3,35
298,169,162636,6,0,L|298:134,3,35
379,121,163289,1,8,0:0:0:0:
261,123,163615,1,0,0:0:0:0:
144,127,163941,6,0,L|144:162,3,35
139,238,164593,1,8,0:0:0:0:
246,240,164919,1,0,0:0:0:0:
307,235,165245,6,0,P|339:245|372:235,1,70
394,215,165734,2,0,P|421:196|418:162,1,70
416,155,166223,2,0,P|411:105|364:88,1,105
284,92,166875,1,0,0:0:0:0:
202,111,167202,2,0,L|171:128,1,35,8|0,0:0|0:0,0:0:0:0:
102,207,167854,6,0,L|98:241,3,35
172,258,168506,1,8,0:0:0:0:
297,259,168832,1,0,0:0:0:0:
410,260,169158,6,0,L|410:225,3,35
406,124,169810,1,8,0:0:0:0:
293,127,170136,1,0,0:0:0:0:
206,134,170462,6,0,L|171:141,3,35,2|0|0|0,0:0|0:0|0:0|0:0,0:0:0:0:
164,228,171115,1,8,0:0:0:0:
299,229,171441,1,0,0:0:0:0:
407,231,171767,6,0,L|406:196,3,35,2|0|0|0,0:0|0:0|0:0|0:0,0:0:0:0:
299,180,172419,1,8,0:0:0:0:
197,175,172745,1,0,0:0:0:0:
106,277,173071,6,0,L|140:275,3,35,2|0|0|0,0:0|0:0|0:0|0:0,0:0:0:0:
231,272,173723,1,8,0:0:0:0:
333,275,174049,1,0,0:0:0:0:
342,180,174375,6,0,L|342:145,3,35
251,140,175028,1,8,0:0:0:0:
109,135,175354,1,0,0:0:0:0:
256,192,175680,12,0,177636,0:0:0:0:
379,86,178288,5,0,0:0:0:0:
431,210,178451,1,0,0:0:0:0:
361,325,178614,1,0,0:0:0:0:
227,337,178777,1,0,0:0:0:0:
143,327,178941,2,0,L|110:243,1,70,8|0,0:0|0:0,0:0:0:0:
58,280,179593,5,0,0:0:0:0:
66,188,179756,1,0,0:0:0:0:
124,117,179919,1,0,0:0:0:0:
212,89,180082,1,0,0:0:0:0:
288,118,180245,2,0,L|334:174,1,70,8|0,0:0|0:0,0:0:0:0:
399,128,180897,5,0,0:0:0:0:
414,218,181060,1,0,0:0:0:0:
368,296,181223,1,0,0:0:0:0:
281,326,181386,1,0,0:0:0:0:
203,325,181549,2,0,L|130:326,1,70,8|0,0:0|0:0,0:0:0:0:
60,315,182201,5,0,0:0:0:0:
43,224,182364,1,0,0:0:0:0:
85,143,182527,1,0,0:0:0:0:
167,103,182690,1,0,0:0:0:0:
246,117,182854,2,0,L|297:148,3,35
339,148,183506,5,0,0:0:0:0:
399,214,183669,1,0,0:0:0:0:
379,301,183832,1,0,0:0:0:0:
295,334,183995,1,0,0:0:0:0:
206,333,184158,2,0,P|172:331|152:288,1,70,8|0,0:0|0:0,0:0:0:0:
68,249,184810,5,0,0:0:0:0:
86,159,184973,1,0,0:0:0:0:
158,101,185136,1,0,0:0:0:0:
249,102,185299,1,0,0:0:0:0:
330,110,185462,2,0,P|359:146|339:189,1,70,8|0,0:0|0:0,0:0:0:0:
309,221,186114,6,2,L|250:269,1,70
252,286,186604,2,2,P|204:288|179:255,1,70
184,192,187093,1,0,0:0:0:0:
312,120,187745,1,0,0:0:0:0:
317,217,188071,2,0,L|317:265,1,35
50,97,188723,6,0,P|319:58|444:298,1,560
344,299,189538,6,0,L|286:300,3,35
229,295,190354,1,0,0:0:0:0:
164,213,190680,1,8,0:0:0:0:
236,173,191006,6,0,L|298:147,4,35
359,148,191984,1,8,0:0:0:0:
351,224,192310,2,0,L|299:255,4,35
248,262,193288,1,8,0:0:0:0:
256,192,193941,12,0,196549,0:0:0:0:
