osu file format v14

[General]
AudioFilename: audio.mp3
AudioLeadIn: 0
PreviewTime: 110735
Countdown: 0
SampleSet: Normal
StackLeniency: 1
Mode: 0
LetterboxInBreaks: 0
WidescreenStoryboard: 1

[Editor]
Bookmarks: 17158,42647,76632,93625,127610,144603,161595,195581,216821,227559
DistanceSpacing: 1
BeatDivisor: 4
GridSize: 4
TimelineZoom: 1.7

[Metadata]
Title:D.A.N.C.E.
TitleUnicode:D.A.N.C.E.
Artist:Justice
ArtistUnicode:Justice
Creator:Mechanizen
Version:Warm Up
Source:
Tags:justice dance Gens electronic pop french touch 2007 symmetry alternate cross Touhou nu-disco english
BeatmapID:2755561
BeatmapSetID:875221

[Difficulty]
HPDrainRate:3
CircleSize:2
OverallDifficulty:5
ApproachRate:6
SliderMultiplier:2
SliderTickRate:1

[Events]
//Background and Video events
0,0,"dance.png",0,0
//Break Periods
2,159784,160658
2,212882,215880
//Storyboard Layer 0 (Background)
//Storyboard Layer 1 (Fail)
//Storyboard Layer 2 (Pass)
//Storyboard Layer 3 (Foreground)
//Storyboard Layer 4 (Overlay)
//Storyboard Sound Samples

[TimingPoints]
17284,530.973451327434,4,1,0,50,1,0
25779,-100,4,1,0,60,0,0
59761,-100,4,1,0,70,0,1
76753,-100,4,1,0,60,0,0
93744,-100,4,1,0,70,0,1
127726,-100,4,1,0,50,0,0
144717,-100,4,1,0,60,0,0
161708,-100,4,1,0,45,0,0
179230,-80,4,1,0,70,0,1
212682,-100,4,1,0,40,0,0
231797,-100,4,1,0,60,0,0

[Colours]
Combo1 : 232,80,57
Combo2 : 200,121,247
Combo3 : 37,185,239
Combo4 : 85,236,160
Combo5 : 225,203,77

[HitObjects]
407,60,17283,6,0,P|337:61|289:75,1,100
211,96,17814,2,0,P|161:97|112:87,1,100,2|0,0:0|0:0,0:0:0:0:
29,31,18345,1,2,0:0:0:0:
21,130,18611,1,0,0:0:0:0:
13,229,18876,1,0,0:0:0:0:
206,349,19407,6,0,L|318:349,1,100
307,259,19938,2,0,L|207:259,1,100
257,168,20469,1,2,0:0:0:0:
32,355,21531,6,0,L|38:227,1,100,2|0,0:0|0:0,0:0:0:0:
85,167,22062,2,0,L|91:39,1,100
178,20,22593,1,2,0:0:0:0:
253,85,22859,2,0,L|248:184,1,100
329,243,23390,5,0,0:0:0:0:
296,337,23655,2,0,P|226:352|159:329,1,100,2|0,0:0|0:0,0:0:0:0:
108,304,24186,2,0,P|92:233|116:166,1,100,2|0,0:0|0:0,0:0:0:0:
152,123,24717,1,2,0:0:0:0:
34,46,25779,6,0,P|22:118|57:174,1,100,8|0,0:0|0:0,0:0:0:0:
89,222,26310,2,0,P|103:269|92:317,1,100
183,359,26841,1,8,0:0:0:0:
219,265,27107,1,0,0:0:0:0:
314,293,27372,1,2,0:0:0:0:
377,128,27903,6,0,L|361:29,1,100,8|0,0:0|0:0,0:0:0:0:
262,47,28434,2,0,L|278:146,1,100
296,244,28965,2,0,L|312:343,1,100,2|0,0:0|0:0,0:0:0:0:
410,323,29496,1,8,0:0:0:0:
377,128,30027,5,8,0:0:0:0:
277,145,30292,2,0,P|220:139|176:104,1,100
153,20,30823,1,0,0:0:0:0:
58,54,31089,2,0,P|36:104|53:166,1,100
84,238,31620,1,8,0:0:0:0:
172,283,31885,5,0,0:0:0:0:
261,327,32151,1,0,0:0:0:0:
361,319,32416,2,0,P|400:293|427:240,1,100
437,153,32947,1,0,0:0:0:0:
391,68,33213,1,0,0:0:0:0:
391,68,34275,6,0,P|423:107|438:154,1,100,8|0,0:0|0:0,0:0:0:0:
444,254,34806,2,0,P|428:302|397:340,1,100,2|0,0:0|0:0,0:0:0:0:
303,373,35337,1,2,0:0:0:0:
203,368,35602,2,0,P|135:336|107:300,1,100,2|0,0:0|0:0,0:0:0:0:
195,133,36399,6,0,L|294:125,1,100,8|0,0:0|0:0,0:0:0:0:
272,37,36929,2,0,L|156:46,1,100,8|0,0:0|0:0,0:0:0:0:
72,53,37460,1,2,0:0:0:0:
80,152,37726,1,0,0:0:0:0:
88,251,37991,1,2,0:0:0:0:
257,357,38522,6,0,P|305:366|376:351,1,100,8|0,0:0|0:0,0:0:0:0:
440,306,39053,2,0,P|467:265|473:199,1,100,2|0,0:0|0:0,0:0:0:0:
472,115,39584,1,8,0:0:0:0:
412,34,39850,1,0,0:0:0:0:
314,11,40115,1,2,0:0:0:0:
136,79,40646,6,0,L|132:-14,2,50,2|0|0,0:0|0:0|0:0,0:0:0:0:
142,178,41177,2,0,L|148:306,1,100,2|0,0:0|0:0,0:0:0:0:
257,336,41708,2,0,L|257:216,1,100,2|0,0:0|0:0,0:0:0:0:
372,178,42239,2,0,L|369:248,1,50,2|0,0:0|0:0,0:0:0:0:
393,272,42505,2,0,L|390:342,1,50,2|0,0:0|0:0,0:0:0:0:
432,350,42770,6,0,P|480:278|472:126,1,200,12|0,0:0|0:0,0:0:0:0:
414,37,43832,6,0,P|364:40|272:28,1,100,2|0,0:0|0:0,0:0:0:0:
216,12,44363,2,8,P|144:48|96:120,1,150
75,250,45160,6,0,L|122:364,1,100,2|0,0:0|0:0,0:0:0:0:
213,341,45691,1,2,0:0:0:0:
304,302,45956,2,0,L|312:181,1,100,2|0,0:0|0:0,0:0:0:0:
404,166,46487,1,2,0:0:0:0:
496,127,46753,2,0,L|503:-4,2,100,2|4|0,0:0|0:0|0:0,0:0:0:0:
506,226,47549,1,2,0:0:0:0:
276,89,48080,6,2,L|255:5,2,50
301,185,48611,2,0,L|313:233,1,50,8|0,0:0|0:0,0:0:0:0:
339,330,49009,6,0,L|160:376,1,150,8|0,0:0|0:0,0:0:0:0:
119,300,49673,2,0,L|47:321,2,50,2|0|0,0:0|0:0|0:0,0:0:0:0:
157,207,50204,2,0,L|229:228,2,50,2|0|0,0:0|0:0|0:0,0:0:0:0:
77,145,50735,2,0,L|5:166,1,50,8|0,0:0|0:0,0:0:0:0:
174,30,51266,6,0,P|260:32|308:68,1,100,8|0,0:0|0:0,0:0:0:0:
364,72,51797,2,0,P|413:78|460:64,2,100,2|0|0,0:0|0:0|0:0,0:0:0:0:
429,359,52859,6,8,L|445:198,1,150
295,233,53655,5,2,0:0:0:0:
302,133,53921,1,8,0:0:0:0:
207,99,54186,2,0,L|202:219,1,100,2|0,0:0|0:0,0:0:0:0:
106,227,54717,1,2,0:0:0:0:
110,126,54983,1,8,0:0:0:0:
114,26,55248,2,0,L|48:7,2,50,2|0|0,0:0|0:0|0:0,0:0:0:0:
212,7,55779,6,0,L|329:12,1,100,2|0,0:0|0:0,0:0:0:0:
411,19,56310,1,2,0:0:0:0:
452,110,56576,2,2,L|541:117,2,50
365,160,57107,2,0,L|361:248,1,50,8|0,0:0|0:0,0:0:0:0:
441,271,57505,2,0,P|416:346|325:373,1,150,8|0,0:0|0:0,0:0:0:0:
273,318,58168,6,2,L|272:260,2,50
172,316,58699,2,2,L|172:370,2,50
71,310,59230,2,0,L|71:250,1,50,8|0,0:0|0:0,0:0:0:0:
67,110,59761,6,0,P|139:76|217:90,1,150,8|0,0:0|0:0,0:0:0:0:
255,95,60292,2,0,P|328:103|394:70,1,150,2|0,0:0|0:0,0:0:0:0:
426,30,60823,1,0,0:0:0:0:
486,109,61089,1,2,0:0:0:0:
481,214,61354,2,0,P|485:296|506:372,1,150,10|0,0:0|0:0,0:0:0:0:
351,358,62151,6,0,P|359:299|351:229,1,100,2|0,0:0|0:0,0:0:0:0:
313,168,62682,1,2,0:0:0:0:
266,79,62947,2,0,P|214:99|176:158,1,100,2|0,0:0|0:0,0:0:0:0:
112,199,63478,2,0,P|126:246|117:294,2,100,2|0|0,0:0|0:0|0:0,0:0:0:0:
94,103,64275,2,0,P|45:92|8:59,2,100,8|0|0,0:0|0:0|0:0,0:0:0:0:
182,55,65071,6,2,L|186:5,2,50
241,135,65602,2,0,L|236:184,1,50,8|0,0:0|0:0,0:0:0:0:
335,194,66000,2,0,L|348:30,1,150,8|0,0:0|0:0,0:0:0:0:
445,30,66664,6,2,L|508:20,2,50
446,130,67195,2,2,L|496:123,2,50
453,229,67726,2,0,L|502:221,1,50,8|0,0:0|0:0,0:0:0:0:
467,356,68257,6,0,P|394:345|349:277,1,150,8|0,0:0|0:0,0:0:0:0:
300,284,68788,2,0,P|256:342|183:353,1,150,2|0,0:0|0:0,0:0:0:0:
133,347,69319,1,0,0:0:0:0:
33,334,69584,1,2,0:0:0:0:
19,236,69850,2,0,P|62:177|135:166,1,150,8|0,0:0|0:0,0:0:0:0:
281,169,70646,6,0,L|255:72,1,100,2|0,0:0|0:0,0:0:0:0:
326,2,71177,1,2,0:0:0:0:
422,27,71443,1,2,0:0:0:0:
448,125,71708,2,0,L|476:230,1,100,8|0,0:0|0:0,0:0:0:0:
497,318,72239,1,2,0:0:0:0:
399,342,72505,2,0,L|373:245,1,100,8|0,0:0|0:0,0:0:0:0:
345,149,73036,2,0,L|319:52,1,100,2|0,0:0|0:0,0:0:0:0:
219,64,73567,6,2,L|204:8,2,50
244,160,74098,2,0,L|256:208,1,50,8|0,0:0|0:0,0:0:0:0:
281,305,74496,2,0,L|133:349,1,150,8|0,0:0|0:0,0:0:0:0:
53,292,75160,6,2,P|33:312|30:337,2,50
112,211,75691,2,2,P|140:211|160:226,2,50
44,136,76222,2,2,P|24:156|21:181,1,50
156,38,76753,1,6,0:0:0:0:
23,340,78345,6,8,L|206:330,1,150,8|0,0:0|0:0,0:0:0:0:
219,350,78876,2,0,L|365:342,1,100,10|0,0:0|0:0,0:0:0:0:
379,265,79407,2,0,L|462:357,2,100,2|8|0,0:0|0:0|0:0,0:0:0:0:
426,176,80204,2,8,L|457:117,2,50
260,32,81000,6,0,P|184:28|136:52,1,100,2|0,0:0|0:0,0:0:0:0:
92,104,81531,2,0,P|84:156|116:220,1,100,2|0,0:0|0:0,0:0:0:0:
180,260,82062,2,0,P|256:264|304:240,1,100,2|0,0:0|0:0,0:0:0:0:
336,176,82593,1,2,0:0:0:0:
412,244,82859,2,0,L|404:364,1,100,8|0,0:0|0:0,0:0:0:0:
304,352,83390,1,2,0:0:0:0:
204,356,83655,2,0,L|88:364,2,100,2|8|0,0:0|0:0|0:0,0:0:0:0:
405,343,84717,1,8,0:0:0:0:
458,119,85248,6,0,P|430:68|358:42,1,100,8|0,0:0|0:0,0:0:0:0:
295,42,85779,2,0,P|253:69|232:114,1,100,8|0,0:0|0:0,0:0:0:0:
230,214,86310,1,2,0:0:0:0:
232,314,86576,2,0,L|315:314,2,50,2|2|0,0:0|0:0|0:0,0:0:0:0:
18,314,87372,6,0,L|29:190,1,100,8|0,0:0|0:0,0:0:0:0:
39,115,87903,2,0,L|50:-9,1,100,8|0,0:0|0:0,0:0:0:0:
148,13,88434,1,2,0:0:0:0:
247,15,88699,2,0,L|254:111,1,50,8|0,0:0|0:0,0:0:0:0:
258,114,88965,6,0,P|338:115|407:64,1,150,8|0,0:0|0:0,0:0:0:0:
443,93,89496,2,0,P|483:161|478:221,1,100,8|0,0:0|0:0,0:0:0:0:
463,278,90027,1,0,0:0:0:0:
381,336,90292,2,0,P|304:316|265:270,1,100,8|0,0:0|0:0,0:0:0:0:
249,211,90823,1,2,0:0:0:0:
150,190,91089,6,0,P|109:121|115:62,2,100,2|0|0,0:0|0:0|0:0,0:0:0:0:
216,115,91885,1,2,0:0:0:0:
278,36,92151,2,0,L|397:37,2,100,2|0|0,0:0|0:0|0:0,0:0:0:0:
473,34,93744,5,8,0:0:0:0:
466,133,94009,1,2,0:0:0:0:
460,233,94275,2,0,L|332:222,1,100,2|0,0:0|0:0,0:0:0:0:
374,323,94806,2,0,L|246:312,1,100,8|0,0:0|0:0,0:0:0:0:
174,305,95337,2,0,L|46:294,1,100,8|0,0:0|0:0,0:0:0:0:
24,288,95735,6,0,L|24:212,1,50,8|0,0:0|0:0,0:0:0:0:
24,136,96133,1,2,0:0:0:0:
84,56,96399,1,2,0:0:0:0:
180,82,96664,2,0,P|219:113|244:165,1,100,8|0,0:0|0:0,0:0:0:0:
300,237,97195,1,2,0:0:0:0:
378,174,97460,6,0,L|378:66,2,100,8|0|0,0:0|0:0|0:0,0:0:0:0:
471,208,98257,1,8,0:0:0:0:
449,305,98522,2,0,P|403:327|333:320,1,100,2|0,0:0|0:0,0:0:0:0:
257,308,99053,6,2,L|257:364,2,50
166,265,99584,2,0,L|166:181,1,50,8|0,0:0|0:0,0:0:0:0:
256,170,99983,2,0,L|256:7,1,150,8|0,0:0|0:0,0:0:0:0:
156,22,100646,2,2,L|89:21,2,50
156,122,101177,2,2,L|156:172,2,50
55,121,101708,2,0,L|55:171,1,50,8|0,0:0|0:0,0:0:0:0:
47,321,102239,6,0,L|181:331,1,100,8|0,0:0|0:0,0:0:0:0:
246,338,102770,1,2,0:0:0:0:
345,346,103036,1,2,0:0:0:0:
444,350,103301,2,0,L|454:190,1,150
456,150,103832,2,0,P|433:99|339:76,1,150,2|0,0:0|0:0,0:0:0:0:
310,72,104363,6,0,P|265:41|184:52,1,100,10|0,0:0|0:0,0:0:0:0:
122,56,104894,1,8,0:0:0:0:
60,134,105160,1,2,0:0:0:0:
59,233,105425,2,0,P|84:292|152:331,1,100,8|0,0:0|0:0,0:0:0:0:
208,335,105956,1,8,0:0:0:0:
256,247,106222,2,0,P|245:189|205:138,1,100,2|0,0:0|0:0,0:0:0:0:
155,81,106753,6,0,L|252:27,2,100,8|2|0,0:0|0:0|0:0,0:0:0:0:
70,135,107549,2,0,L|112:212,1,50,2|0,0:0|0:0,0:0:0:0:
119,221,107814,1,8,0:0:0:0:
177,302,108080,2,0,L|178:363,1,50,8|0,0:0|0:0,0:0:0:0:
278,351,108478,2,0,L|277:301,1,50,8|0,0:0|0:0,0:0:0:0:
327,214,108876,5,2,0:0:0:0:
427,212,109142,2,2,L|477:212,2,50
427,111,109673,2,2,L|489:111,2,50
326,112,110204,2,0,L|263:112,1,50,8|0,0:0|0:0,0:0:0:0:
147,34,110735,6,0,P|77:75|52:113,1,100,8|0,0:0|0:0,0:0:0:0:
36,184,111266,2,0,P|42:250|87:310,1,100,8|0,0:0|0:0,0:0:0:0:
144,328,111797,2,0,P|193:332|241:319,1,100,2|0,0:0|0:0,0:0:0:0:
337,292,112328,1,8,0:0:0:0:
437,305,112593,2,0,P|450:257|445:207,1,100
471,108,113124,5,2,0:0:0:0:
427,17,113390,1,2,0:0:0:0:
327,15,113655,1,2,0:0:0:0:
226,14,113921,2,0,P|184:53|169:105,1,100,8|0,0:0|0:0,0:0:0:0:
205,185,114452,5,2,0:0:0:0:
144,264,114717,1,2,0:0:0:0:
43,269,114983,2,0,L|32:165,2,100,8|2|0,0:0|0:0|0:0,0:0:0:0:
94,354,115779,1,8,0:0:0:0:
194,349,116045,2,2,L|255:342,2,50
204,249,116576,6,0,P|218:228|238:213,1,50,8|0,0:0|0:0,0:0:0:0:
329,175,116974,2,0,P|339:132|299:26,1,150,8|0,0:0|0:0,0:0:0:0:
405,25,117637,6,2,P|449:15|470:-1,2,50
456,111,118168,2,2,L|463:169,1,50
468,210,118434,1,2,0:0:0:0:
489,307,118699,2,0,L|404:316,1,50,8|0,0:0|0:0,0:0:0:0:
289,298,119230,6,0,P|227:288|130:325,1,150,8|0,0:0|0:0,0:0:0:0:
112,351,119761,2,0,L|59:188,1,150,2|0,0:0|0:0,0:0:0:0:
49,160,120292,1,0,0:0:0:0:
50,59,120558,1,2,0:0:0:0:
151,45,120823,2,0,P|221:69|294:60,1,150,8|0,0:0|0:0,0:0:0:0:
342,44,121354,1,10,0:0:0:0:
440,61,121620,5,2,0:0:0:0:
452,160,121885,2,0,L|467:265,1,100,8|0,0:0|0:0,0:0:0:0:
393,327,122416,1,2,0:0:0:0:
306,277,122682,2,0,L|179:290,1,100,8|0,0:0|0:0,0:0:0:0:
116,331,123213,2,0,L|6:348,1,100,2|0,0:0|0:0,0:0:0:0:
20,246,123744,5,8,0:0:0:0:
24,146,124009,2,0,B|16:85|78:51,1,100,8|0,0:0|0:0,0:0:0:0:
158,92,124540,2,2,L|234:52,1,50
251,55,124806,1,2,0:0:0:0:
341,12,125071,6,0,L|387:56,1,50,8|0,0:0|0:0,0:0:0:0:
390,145,125469,2,0,L|500:265,1,150,8|0,0:0|0:0,0:0:0:0:
430,335,126133,6,2,L|371:327,1,50
330,320,126399,1,2,0:0:0:0:
230,310,126664,2,2,L|230:244,2,50
129,308,127195,2,0,L|129:242,1,50,8|0,0:0|0:0,0:0:0:0:
35,131,127726,6,0,P|70:57|306:148,1,400,8|0,0:0|0:0,0:0:0:0:
179,296,129319,6,0,P|137:255|126:194,1,100,8|0,0:0|0:0,0:0:0:0:
126,166,129717,1,8,0:0:0:0:
294,351,130381,5,8,0:0:0:0:
350,269,130646,2,0,L|421:296,1,50,2|0,0:0|0:0,0:0:0:0:
443,304,130912,1,8,0:0:0:0:
444,204,131177,2,2,L|438:130,1,50
437,103,131443,6,0,P|377:49|273:57,1,150,2|0,0:0|0:0,0:0:0:0:
266,65,131974,2,0,P|221:123|150:144,1,150,8|0,0:0|0:0,0:0:0:0:
102,128,132505,1,4,0:0:0:0:
54,322,133036,6,0,P|135:283|213:379,1,200,8|0,0:0|0:0,0:0:0:0:
345,280,133965,6,0,P|308:207|154:131,1,250,8|0,0:0|0:0,0:0:0:0:
46,37,135027,6,0,B|243:19|243:19|302:50,1,250,8|0,0:0|0:0,0:0:0:0:
435,316,136222,6,0,L|444:79,1,200,6|0,0:0|0:0,0:0:0:0:
326,192,137151,2,0,L|253:192,1,50,8|0,0:0|0:0,0:0:0:0:
37,164,137814,6,0,L|45:359,1,150,2|0,0:0|0:0,0:0:0:0:
93,311,138345,2,0,P|134:266|143:166,1,150,2|0,0:0|0:0,0:0:0:0:
128,133,138876,1,8,0:0:0:0:
237,29,139275,2,0,L|287:29,1,50,8|0,0:0|0:0,0:0:0:0:
362,94,139673,6,2,L|412:94,1,50
462,95,139938,2,0,L|467:244,1,150,2|0,0:0|0:0,0:0:0:0:
469,294,140469,2,0,P|402:257|293:278,1,150,8|0,0:0|0:0,0:0:0:0:
284,279,141000,1,8,0:0:0:0:
98,354,141531,6,0,P|54:322|25:176,1,200,8|0,0:0|0:0,0:0:0:0:
140,94,142460,6,0,B|261:62|261:62|294:190,1,250,8|0,0:0|0:0,0:0:0:0:
273,324,143522,6,0,P|387:359|471:275,1,250,8|0,0:0|0:0,0:0:0:0:
482,74,144717,5,12,0:0:0:0:
381,77,144983,1,2,0:0:0:0:
290,33,145248,2,0,L|167:34,1,100,8|0,0:0|0:0,0:0:0:0:
102,82,145779,1,8,0:0:0:0:
103,182,146045,2,0,P|124:238|194:271,1,100,2|0,0:0|0:0,0:0:0:0:
339,336,146841,5,2,0:0:0:0:
439,333,147107,1,2,0:0:0:0:
469,237,147372,2,0,P|435:208|359:197,1,100,2|0,0:0|0:0,0:0:0:0:
300,252,147903,5,2,0:0:0:0:
213,302,148169,1,2,0:0:0:0:
135,239,148434,2,0,P|133:192|207:142,1,100,2|0,0:0|0:0,0:0:0:0:
247,99,148965,5,8,0:0:0:0:
185,20,149230,2,0,L|85:14,2,100,2|2|0,0:0|0:0|0:0,0:0:0:0:
283,2,150027,5,10,0:0:0:0:
344,80,150292,1,2,0:0:0:0:
407,157,150558,1,2,0:0:0:0:
453,351,151089,6,0,P|414:365|354:366,1,100,8|0,0:0|0:0,0:0:0:0:
265,323,151620,2,0,P|215:323|167:338,1,100,2|0,0:0|0:0,0:0:0:0:
71,310,152151,6,0,L|47:122,1,150,8|0,0:0|0:0,0:0:0:0:
43,111,152682,2,0,P|110:66|200:115,1,150,2|0,0:0|0:0,0:0:0:0:
180,131,153213,2,0,L|324:111,1,100,2|0,0:0|0:0,0:0:0:0:
377,100,153744,1,8,0:0:0:0:
451,166,154009,1,8,0:0:0:0:
440,265,154275,2,0,L|434:373,2,100,2|2|0,0:0|0:0|0:0,0:0:0:0:
120,345,155337,5,2,0:0:0:0:
114,245,155602,1,2,0:0:0:0:
108,144,155868,2,0,L|102:36,1,100,2|0,0:0|0:0,0:0:0:0:
202,40,156399,5,2,0:0:0:0:
208,140,156664,1,2,0:0:0:0:
214,241,156930,2,0,L|220:349,1,100,2|0,0:0|0:0,0:0:0:0:
319,334,157460,5,8,0:0:0:0:
418,322,157726,2,0,L|444:215,1,100,2|0,0:0|0:0,0:0:0:0:
467,128,158257,1,8,0:0:0:0:
404,49,158522,2,0,P|328:36|286:54,2,100,8|8|0,0:0|0:0|0:0,0:0:0:0:
340,185,159452,2,0,L|325:248,1,50
204,263,161708,6,0,B|59:325|59:325|186:77|186:77|-7:152,1,600,8|0,0:0|0:0,0:0:0:0:
350,39,163699,6,0,B|301:116|273:268|414:364|414:364|496:292|465:123|346:131,1,650,8|0,0:0|0:0,0:0:0:0:
38,341,165956,6,0,L|253:329,1,200,8|0,0:0|0:0,0:0:0:0:
121,59,167018,1,2,0:0:0:0:
449,83,168080,6,0,L|479:223,1,100,2|0,0:0|0:0,0:0:0:0:
386,236,168611,2,0,L|360:122,1,100,2|0,0:0|0:0,0:0:0:0:
265,119,169142,2,0,L|287:216,1,100,2|0,0:0|0:0,0:0:0:0:
309,314,169673,1,2,0:0:0:0:
211,335,169938,1,2,0:0:0:0:
111,345,170204,6,0,B|47:75|47:75|350:37,1,550
502,116,172195,6,0,B|548:371|328:379|196:260|250:157|410:237,1,550
85,39,174452,6,0,P|109:121|96:343,1,300,8|0,0:0|0:0,0:0:0:0:
199,334,175514,6,0,P|210:271|206:130,1,200,2|0,0:0|0:0,0:0:0:0:
340,66,176576,6,0,L|477:49,1,100,8|0,0:0|0:0,0:0:0:0:
482,143,177107,1,2,0:0:0:0:
383,159,177372,1,2,0:0:0:0:
347,251,177637,6,0,L|364:368,1,100,4|0,0:0|0:0,0:0:0:0:
262,364,178168,2,0,L|247:265,1,100,2|0,0:0|0:0,0:0:0:0:
147,280,178699,2,0,L|161:378,1,100,2|0,0:0|0:0,0:0:0:0:
36,366,179230,6,0,B|26:317|26:317|58:231,1,125,6|0,0:0|0:0,0:0:0:0:
27,132,179761,2,0,L|64:-2,1,125,2|0,0:0|0:0,0:0:0:0:
183,31,180292,6,0,L|145:160,1,125,2|0,0:0|0:0,0:0:0:0:
207,171,180691,2,0,B|262:182|262:182|305:33,1,187.5,2|0,0:0|0:0,0:0:0:0:
423,62,181354,2,2,L|440:1,2,62.5
479,173,181885,6,0,L|435:309,1,125,2|0,0:0|0:0,0:0:0:0:
331,354,182416,2,0,L|292:235,1,125,2|0,0:0|0:0,0:0:0:0:
172,199,182947,2,2,L|151:127,2,62.5
74,278,183478,1,8,0:0:0:0:
26,162,183744,2,0,P|20:106|107:39,2,125,2|0|0,0:0|0:0|0:0,0:0:0:0:
151,163,184540,6,0,P|188:216|268:180,1,125,8|0,0:0|0:0,0:0:0:0:
261,87,185071,2,2,L|278:27,2,62.5
374,139,185602,2,2,L|391:199,2,62.5
487,87,186133,2,2,L|504:27,2,62.5
493,210,186664,2,0,L|493:276,1,62.5,8|0,0:0|0:0,0:0:0:0:
320,348,187195,6,0,L|179:348,1,125,8|0,0:0|0:0,0:0:0:0:
78,301,187726,2,0,L|78:159,1,125,8|0,0:0|0:0,0:0:0:0:
195,113,188257,2,0,L|320:113,1,125,8|0,0:0|0:0,0:0:0:0:
286,233,188788,2,0,L|411:233,1,125,8|0,0:0|0:0,0:0:0:0:
445,285,189186,2,0,B|502:286|502:286|502:122,1,187.5,8|0,0:0|0:0,0:0:0:0:
430,52,189850,6,2,L|502:17,2,62.5
320,113,190381,2,0,L|195:113,1,125,8|0,0:0|0:0,0:0:0:0:
136,223,190912,2,0,L|261:223,1,125,8|0,0:0|0:0,0:0:0:0:
351,309,191443,2,2,L|416:309,2,62.5
234,354,191974,1,0,0:0:0:0:
109,351,192239,2,0,B|44:351|44:351|1:262,2,125,8|0|0,0:0|0:0|0:0,0:0:0:0:
122,225,193036,6,0,B|142:164|142:164|212:125,1,125,8|2,0:0|0:0,0:0:0:0:
311,180,193567,2,2,L|313:243,2,62.5
436,185,194098,2,2,L|437:247,2,62.5
435,59,194629,2,2,L|500:59,2,62.5
309,55,195160,2,0,L|236:55,1,62.5,8|0,0:0|0:0,0:0:0:0:
62,51,195691,6,0,P|41:137|71:249,1,187.5,8|0,0:0|0:0,0:0:0:0:
98,283,196222,2,0,P|184:304|296:274,1,187.5,2|0,0:0|0:0,0:0:0:0:
336,257,196753,1,0,0:0:0:0:
446,314,197018,1,0,0:0:0:0:
510,206,197284,2,0,B|510:83|510:83|452:12,1,187.5,8|0,0:0|0:0,0:0:0:0:
281,37,198080,5,0,0:0:0:0:
177,106,198345,2,2,P|152:102|105:80,2,62.5
233,217,198876,2,0,P|296:218|365:184,1,125,2|0,0:0|0:0,0:0:0:0:
373,317,199407,2,0,P|315:341|253:339,1,125,2|0,0:0|0:0,0:0:0:0:
134,299,199938,2,2,P|109:303|62:325,2,62.5
115,175,200469,1,8,0:0:0:0:
93,51,200735,2,0,B|148:29|148:29|250:72,1,125,2|0,0:0|0:0,0:0:0:0:
320,111,201266,5,0,0:0:0:0:
239,206,201531,2,0,P|233:237|266:324,1,125,8|2,0:0|0:0,0:0:0:0:
377,269,202062,2,2,L|424:335,2,62.5
438,159,202593,2,2,L|484:207,2,62.5
419,35,203124,2,2,L|485:36,2,62.5
293,34,203655,2,2,L|196:34,2,62.5
357,141,204186,6,0,L|356:334,1,187.5,8|0,0:0|0:0,0:0:0:0:
293,330,204717,2,0,L|105:329,1,187.5,2|0,0:0|0:0,0:0:0:0:
42,325,205248,1,0,0:0:0:0:
1,206,205514,1,0,0:0:0:0:
102,133,205779,2,0,L|289:133,1,187.5,8|0,0:0|0:0,0:0:0:0:
352,133,206310,1,6,0:0:0:0:
321,337,206841,6,2,L|218:337,1,62.5
195,337,207107,1,2,0:0:0:0:
70,337,207372,6,0,P|72:261|133:202,1,125,2|0,0:0|0:0,0:0:0:0:
178,127,207903,2,0,P|176:51|115:-8,1,125,2|0,0:0|0:0,0:0:0:0:
267,54,208434,6,0,L|355:64,1,62.5,8|0,0:0|0:0,0:0:0:0:
386,38,208699,2,0,B|446:42|446:42|440:142,1,125,2|0,0:0|0:0,0:0:0:0:
433,232,209230,1,2,0:0:0:0:
422,357,209496,6,0,L|505:365,2,62.5,8|2|0,0:0|0:0|0:0,0:0:0:0:
297,343,210027,2,8,L|234:338,2,62.5
314,219,210558,2,2,L|251:214,2,62.5
334,95,211089,2,2,L|339:33,2,62.5
209,82,211620,2,2,L|214:20,2,62.5
84,68,212151,2,0,L|78:131,1,62.5,8|0,0:0|0:0,0:0:0:0:
66,280,212682,5,12,0:0:0:0:
352,268,216930,6,0,P|376:160|320:52,1,200
256,124,217726,1,0,0:0:0:0:
167,79,217991,2,0,P|135:172|160:268,2,200
256,124,219319,6,0,L|356:124,1,100,2|0,0:0|0:0,0:0:0:0:
312,216,219850,2,0,L|412:216,1,100,2|0,0:0|0:0,0:0:0:0:
368,308,220381,2,0,L|468:308,2,100,2|2|0,0:0|0:0|0:0,0:0:0:0:
268,308,221177,1,8,0:0:0:0:
168,304,221443,1,2,0:0:0:0:
68,304,221708,2,0,P|56:244|64:164,1,100,2|0,0:0|0:0,0:0:0:0:
136,144,222239,2,0,P|148:84|140:4,1,100,8|0,0:0|0:0,0:0:0:0:
245,22,222770,1,2,0:0:0:0:
417,123,223301,5,4,0:0:0:0:
256,192,223434,12,0,231266,0:0:0:0:
256,192,231797,5,4,0:0:0:0:
