osu file format v14

[General]
AudioFilename: audio.mp3
AudioLeadIn: 0
PreviewTime: 110735
Countdown: 0
SampleSet: Soft
StackLeniency: 0.3
Mode: 0
LetterboxInBreaks: 0
WidescreenStoryboard: 0

[Editor]
DistanceSpacing: 2.4
BeatDivisor: 8
GridSize: 8
TimelineZoom: 2.4

[Metadata]
Title:D.A.N.C.E.
TitleUnicode:D.A.N.C.E.
Artist:Justice
ArtistUnicode:Justice
Creator:Mechanizen
Version:Showcase
Source:
Tags:justice dance Gens electronic pop french touch 2007 symmetry alternate cross Touhou nu-disco english
BeatmapID:2200923
BeatmapSetID:875221

[Difficulty]
HPDrainRate:6
CircleSize:3
OverallDifficulty:8
ApproachRate:9
SliderMultiplier:3.1
SliderTickRate:1

[Events]
//Background and Video events
0,0,"dance.png",0,0
//Break Periods
//Storyboard Layer 0 (Background)
//Storyboard Layer 1 (Fail)
//Storyboard Layer 2 (Pass)
//Storyboard Layer 3 (Foreground)
//Storyboard Layer 4 (Overlay)
//Storyboard Sound Samples

[TimingPoints]
17284,530.973451327434,4,2,1,40,1,0
25779,-200,4,2,1,60,0,0
34275,-100,4,2,1,80,0,0
40646,-100,4,2,1,50,0,0
42770,-66.6666666666667,4,2,1,70,0,0
57903,-133.333333333333,4,2,1,80,0,0
58301,-133.333333333333,4,2,1,80,0,0
58699,-133.333333333333,4,2,1,80,0,0
59230,-66.6666666666667,4,2,1,80,0,1
66399,-133.333333333333,4,2,1,80,0,0
66664,-133.333333333333,4,2,1,80,0,0
67195,-133.333333333333,4,2,1,80,0,0
67726,-66.6666666666667,4,2,1,80,0,0
68257,-66.6666666666667,4,2,1,80,0,1
74894,-133.333333333333,4,2,1,80,0,1
75160,-133.333333333333,4,2,1,80,0,1
75691,-133.333333333333,4,2,1,80,0,1
76222,-133.333333333333,4,2,1,80,0,1
76753,-89.2857142857143,4,2,1,65,0,0
91487,-120.481927710843,4,2,1,80,0,0
91620,-120.481927710843,4,2,1,80,0,0
91885,-120.481927710843,4,2,1,80,0,0
92151,-120.481927710843,4,2,1,80,0,0
92416,-120.481927710843,4,2,1,80,0,0
92682,-120.481927710843,4,2,1,80,0,0
92947,-120.481927710843,4,2,1,80,0,0
93213,-120.481927710843,4,2,1,80,0,0
93345,-120.481927710843,4,2,1,40,0,0
93478,-100,4,2,1,80,0,0
93744,-80,4,2,1,80,0,1
108611,-133.333333333333,4,2,1,80,0,0
108876,-133.333333333333,4,2,1,80,0,0
109673,-133.333333333333,4,2,1,80,0,0
110735,-80,4,2,1,80,0,1
125868,-133.333333333333,4,2,1,60,0,0
127726,-100,4,2,1,80,0,0
144717,-100,4,2,1,80,0,0
161708,-200,4,2,1,45,0,0
178168,-200,4,2,1,80,0,0
179230,-80,4,2,1,80,0,0
179761,-66.6666666666667,4,2,1,80,0,0
180292,-57.1428571428571,4,2,1,80,0,0
180691,-50,4,2,1,80,0,1
181885,-55.5555555555556,4,2,1,80,0,1
182416,-62.5,4,2,1,80,0,1
183213,-58.8235294117647,4,2,1,80,0,1
183744,-66.6666666666667,4,2,1,80,0,1
185071,-58.8235294117647,4,2,1,80,0,1
185602,-62.5,4,2,1,80,0,1
186133,-66.6666666666667,4,2,1,80,0,1
186664,-58.8235294117647,4,2,1,80,0,1
187195,-55.5555555555556,4,2,1,80,0,1
187726,-52.6315789473684,4,2,1,80,0,1
188257,-50,4,2,1,80,0,1
188788,-47.6190476190476,4,2,1,80,0,1
189186,-45.4545454545455,4,2,1,80,0,1
189850,-50,4,2,1,80,0,1
190381,-55.5555555555556,4,2,1,80,0,1
190912,-62.5,4,2,1,80,0,1
191443,-58.8235294117647,4,2,1,80,0,1
192239,-66.6666666666667,4,2,1,80,0,1
193567,-58.8235294117647,4,2,1,80,0,1
194098,-62.5,4,2,1,80,0,1
194629,-66.6666666666667,4,2,1,80,0,1
195160,-58.8235294117647,4,2,1,80,0,1
195558,-55.5555555555556,4,2,1,80,0,1
196222,-52.6315789473684,4,2,1,80,0,1
196753,-50,4,2,1,80,0,1
197284,-47.6190476190476,4,2,1,80,0,1
197682,-45.4545454545455,4,2,1,80,0,1
198345,-50,4,2,1,80,0,1
198876,-55.5555555555556,4,2,1,80,0,1
199407,-62.5,4,2,1,80,0,1
199938,-58.8235294117647,4,2,1,80,0,1
200735,-66.6666666666667,4,2,1,80,0,1
202062,-58.8235294117647,4,2,1,80,0,1
202593,-62.5,4,2,1,80,0,1
203124,-66.6666666666667,4,2,1,80,0,1
203655,-58.8235294117647,4,2,1,80,0,1
204186,-55.5555555555556,4,2,1,80,0,1
204717,-52.6315789473684,4,2,1,80,0,1
205248,-50,4,2,1,80,0,1
205779,-47.6190476190476,4,2,1,80,0,1
206177,-45.4545454545455,4,2,1,80,0,1
206841,-50,4,2,1,80,0,1
207372,-55.5555555555556,4,2,1,80,0,1
207903,-62.5,4,2,1,80,0,1
208434,-58.8235294117647,4,2,1,80,0,1
209230,-66.6666666666667,4,2,1,80,0,1
210558,-133.333333333333,4,2,1,60,0,0
212682,-133.333333333333,4,2,1,40,0,0
233921,-133.333333333333,4,2,1,5,0,0

[Colours]
Combo1 : 232,80,57
Combo2 : 200,121,247
Combo3 : 37,185,239
Combo4 : 85,236,160
Combo5 : 225,203,77

[HitObjects]
64,320,17283,5,2,0:0:0:0:
160,208,17549,1,0,0:0:0:0:
448,320,17814,5,2,0:0:0:0:
352,208,18080,1,0,0:0:0:0:
192,336,18345,5,2,0:0:0:0:
256,96,18611,1,0,0:0:0:0:
320,336,18876,1,2,0:0:0:0:
32,32,19407,5,2,0:0:0:0:
144,32,19673,1,0,0:0:0:0:
256,32,19938,1,2,0:0:0:0:
368,32,20204,1,0,0:0:0:0:
480,32,20469,1,2,0:0:0:0:
112,96,21531,5,2,0:0:0:0:
112,288,21797,1,0,0:0:0:0:
400,288,22062,5,2,0:0:0:0:
400,96,22328,1,0,0:0:0:0:
256,352,22593,5,2,0:0:0:0:
256,32,22859,1,0,0:0:0:0:
256,352,23124,1,2,0:0:0:0:
208,112,23390,5,0,0:0:0:0:
304,112,23655,1,2,0:0:0:0:
352,192,23921,1,0,0:0:0:0:
304,272,24186,1,2,0:0:0:0:
208,272,24452,1,0,0:0:0:0:
160,192,24717,1,2,0:0:0:0:
464,336,25779,6,0,L|464:240,2,77.5,6|0|0,0:3|0:0|0:0,0:0:0:0:
464,128,26576,1,4,0:3:0:0:
352,258,26841,6,0,L|352:336,1,77.5,6|0,0:3|0:0,0:0:0:0:
352,128,27372,1,8,0:0:0:0:
48,336,27903,6,0,L|125:336,2,77.5,6|0|0,0:3|0:0|0:0,0:0:0:0:
240,336,28699,1,4,0:3:0:0:
48,224,28965,6,0,L|125:224,1,77.5,6|0,0:3|0:0,0:0:0:0:
240,224,29496,1,8,0:0:0:0:
48,48,30027,6,0,L|144:48,2,77.5,6|0|0,0:3|0:0|0:0,0:0:0:0:
240,48,30823,1,4,0:3:0:0:
386,160,31089,6,0,L|464:160,1,77.5,6|0,0:0|0:0,0:0:0:0:
272,160,31620,1,8,0:0:0:0:
48,125,31885,5,0,0:0:0:0:
48,258,32151,2,0,L|48:336,2,77.5,6|0|0,0:3|0:0|0:0,0:0:0:0:
48,48,32947,1,4,0:3:0:0:
48,258,33213,1,4,0:3:0:0:
464,320,34275,6,0,B|432:272|432:272|480:192|480:192|432:112|432:112|480:48,1,310,6|4,0:3|0:3,0:0:0:0:
256,192,35204,5,4,0:0:0:0:
332,256,35337,2,0,B|372:188|372:188|316:92,1,155,4|0,0:3|0:0,0:0:0:0:
256,16,35735,5,4,0:3:0:0:
160,104,35868,1,4,0:3:0:0:
72,192,36000,1,2,0:0:0:0:
160,280,36133,1,2,0:0:0:0:
256,352,36266,2,0,B|336:368|336:368|424:352,1,155,2|0,0:0|0:0,0:0:0:0:
256,352,36664,2,4,B|176:368|176:368|88:352,1,155,4|4,0:0|0:3,0:0:0:0:
144,176,37328,5,0,0:0:0:0:
256,240,37460,1,6,0:3:0:0:
368,176,37593,1,0,0:0:0:0:
400,48,37726,6,0,B|496:32,1,77.5,2|4,0:0|0:3,0:0:0:0:
112,48,37991,2,0,B|16:32,1,77.5,6|0,0:3|0:0,0:0:0:0:
256,240,38257,5,0,0:0:0:0:
256,48,38390,1,0,0:0:0:0:
32,160,38522,2,0,L|32:237,1,77.5,6|0,0:3|0:0,0:0:0:0:
144,352,38788,2,0,L|144:274,1,77.5
256,144,39053,5,4,0:3:0:0:
256,336,39186,1,0,0:0:0:0:
352,192,39319,2,0,L|448:192,1,77.5,0|0,0:0|0:0,0:0:0:0:
429,288,39584,2,0,L|351:288,1,77.5,4|0,0:3|0:0,0:0:0:0:
448,48,39850,5,0,0:0:0:0:
256,144,39983,1,4,0:3:0:0:
288,0,40115,2,0,L|432:48,1,77.5,4|0,0:3|0:0,0:0:0:0:
368,144,40381,5,0,0:0:0:0:
160,64,40514,1,0,0:0:0:0:
192,272,40646,6,0,L|208:368,1,77.5,4|0,0:3|0:0,0:0:0:0:
320,272,40912,2,0,L|304:368,1,77.5
144,240,41177,6,0,L|192:304,1,77.5
368,240,41443,2,0,L|320:304,1,77.5,0|0,0:0|0:0,0:0:0:0:
256,80,41708,6,0,L|256:240,1,155
256,0,42239,5,8,0:0:0:0:
240,48,42372,1,2,0:0:0:0:
256,96,42505,1,2,0:0:0:0:
272,224,42637,1,4,0:0:0:0:
256,352,42770,2,0,P|101:308|277:230,1,465.000017738343,6|8,0:0|0:0,0:0:0:0:
160,40,43567,5,0,0:0:0:0:
191,275,43699,1,4,0:0:0:0:
176,160,43832,2,0,L|192:280,1,116.250004434586,4|0,0:3|0:0,0:0:0:0:
320,275,44098,2,0,L|336:160,1,116.250004434586,0|0,0:0|0:0,0:0:0:0:
204,1,44363,6,0,P|231:123|290:-11,1,348.750013303757,10|2,0:0|0:0,0:0:0:0:
256,80,44894,6,0,L|257:200,1,116.250004434586,6|0,0:0|0:0,0:0:0:0:
168,360,45160,6,0,L|40:360,1,116.250004434586,0|0,0:0|0:0,0:0:0:0:
344,360,45425,2,0,L|472:360,1,116.250004434586,8|0,0:0|0:0,0:0:0:0:
56,232,45691,6,0,L|172:232,1,116.250004434586
456,232,45956,2,0,L|339:232,1,116.250004434586,4|0,0:3|0:0,0:0:0:0:
112,32,46222,6,0,L|112:160,1,116.250004434586,0|0,0:0|0:0,0:0:0:0:
400,148,46487,2,0,L|400:32,1,116.250004434586,8|0,0:0|0:0,0:0:0:0:
256,104,46753,2,0,L|256:304,1,116.250004434586
393,354,47018,6,0,P|420:262|328:287,1,232.500008869171,6|0,0:0|0:0,0:0:0:0:
119,354,47549,2,0,P|91:262|183:287,1,232.500008869171,8|0,0:0|0:0,0:0:0:0:
256,240,47947,5,0,0:0:0:0:
336,160,48080,1,4,0:3:0:0:
176,160,48213,1,0,0:0:0:0:
256,80,48345,1,0,0:0:0:0:
256,352,48611,5,8,0:0:0:0:
144,272,48744,2,0,P|192:224|256:224,1,116.250004434586,2|0,0:0|0:0,0:0:0:0:
368,304,49009,2,0,P|336:240|144:240,1,232.500008869171,6|0,0:0|0:0,0:0:0:0:
64,0,49407,6,0,L|64:128,1,116.250004434586,2|0,0:0|0:0,0:0:0:0:
160,176,49673,1,10,0:0:0:0:
160,64,49806,1,0,0:0:0:0:
256,0,49938,2,0,L|256:128,1,116.250004434586,2|0,0:0|0:0,0:0:0:0:
352,176,50204,1,6,0:3:0:0:
352,64,50337,1,2,0:0:0:0:
448,0,50469,2,0,L|448:128,1,116.250004434586,2|0,0:0|0:0,0:0:0:0:
448,240,50735,5,8,0:0:0:0:
288,336,50868,2,0,P|336:224|448:240,1,232.500008869171,2|0,0:0|0:0,0:0:0:0:
384,320,51266,6,0,L|288:176,1,116.250004434586,6|0,0:0|0:0,0:0:0:0:
192,223,51531,2,0,L|128:320,1,116.250004434586,0|0,0:0|0:0,0:0:0:0:
368,144,51797,2,0,L|112:144,1,232.500008869171,8|0,0:0|0:0,0:0:0:0:
256,288,52195,5,4,0:3:0:0:
256,64,52328,2,0,L|256:208,2,116.250004434586,4|0|0,0:3|0:0|0:0,0:0:0:0:
80,80,52859,6,0,P|96:176|64:336,1,232.500008869171,2|0,0:0|0:0,0:0:0:0:
20,308,53257,2,0,P|0:194|16:80,1,232.500008869171,6|0,0:0|0:0,0:0:0:0:
160,32,53655,6,0,L|304:32,1,116.250004434586,0|0,0:0|0:0,0:0:0:0:
352,64,53921,2,0,L|208:64,1,116.250004434586,8|0,0:0|0:0,0:0:0:0:
112,144,54186,6,0,L|256:144,1,116.250004434586,0|4,0:0|0:3,0:0:0:0:
448,224,54452,2,0,L|304:224,1,116.250004434586,4|0,0:3|0:0,0:0:0:0:
16,320,54717,6,0,L|160:320,1,116.250004434586,0|0,0:0|0:0,0:0:0:0:
496,320,54983,2,0,L|352:320,1,116.250004434586,8|0,0:0|0:0,0:0:0:0:
256,144,55248,5,0,0:0:0:0:
256,304,55381,1,4,0:3:0:0:
170,119,55514,2,0,P|254:54|334:186,1,232.500008869171,6|0,0:0|0:0,0:0:0:0:
368,368,56045,6,0,B|256:336|256:336|144:368,1,232.500008869171,8|0,0:0|0:0,0:0:0:0:
128,272,56443,5,4,0:3:0:0:
320,192,56576,1,4,0:3:0:0:
192,192,56708,1,0,0:0:0:0:
384,272,56841,1,0,0:0:0:0:
48,64,57107,5,8,0:0:0:0:
128,128,57239,2,0,P|64:176|16:160,1,116.250004434586,2|0,0:0|0:0,0:0:0:0:
224,96,57505,2,0,P|192:208|80:272,1,232.500008869171,6|0,0:0|0:0,0:0:0:0:
0,384,57903,6,0,L|116:384,1,116.250004434586,2|2,0:0|0:0,0:0:0:0:
256,384,58301,1,0,0:0:0:0:
256,192,58434,2,0,L|256:256,1,58.1250022172929,2|0,0:0|0:0,0:0:0:0:
112,192,58699,5,2,0:0:0:0:
400,192,58832,1,2,0:0:0:0:
256,330,58965,2,0,L|256:272,1,58.1250022172929,2|0,0:0|0:0,0:0:0:0:
256,48,59230,5,8,0:0:0:0:
373,335,59363,2,0,P|258:351|144:336,1,232.500008869171,2|0,0:0|0:0,0:0:0:0:
64,176,59761,6,0,L|0:40,1,116.250004434586,6|0,0:0|0:0,0:0:0:0:
32,256,60027,5,0,0:0:0:0:
112,240,60160,1,0,0:0:0:0:
144,160,60292,2,0,L|112:32,1,116.250004434586,8|0,0:0|0:0,0:0:0:0:
160,352,60558,5,0,0:0:0:0:
224,272,60691,1,0,0:0:0:0:
224,176,60823,2,0,L|224:48,1,116.250004434586,4|0,0:3|0:0,0:0:0:0:
368,176,61089,5,2,0:0:0:0:
224,31,61222,1,0,0:0:0:0:
400,48,61354,2,0,P|432:192|432:304,1,232.500008869171,10|0,0:0|0:0,0:0:0:0:
256,320,61753,1,6,0:0:0:0:
78,276,61885,2,0,P|80:208|96:96,1,116.250004434586,4|0,0:3|0:0,0:0:0:0:
176,344,62151,5,0,0:0:0:0:
192,264,62283,1,0,0:0:0:0:
208,184,62416,2,0,L|92:153,1,116.250004434586,8|0,0:0|0:0,0:0:0:0:
320,288,62682,5,0,0:0:0:0:
304,192,62814,1,0,0:0:0:0:
288,96,62947,2,0,L|403:81,1,116.250004434586,4|0,0:3|0:0,0:0:0:0:
432,272,63213,5,0,0:0:0:0:
416,176,63345,1,0,0:0:0:0:
320,288,63478,1,8,0:0:0:0:
336,384,63611,1,0,0:0:0:0:
208,304,63744,2,0,L|176:128,1,116.250004434586,0|0,0:0|0:0,0:0:0:0:
16,288,64009,6,0,P|128:288|176:176,1,232.500008869171,6|0,0:0|0:0,0:0:0:0:
0,32,64540,5,8,0:0:0:0:
112,48,64673,1,0,0:0:0:0:
224,64,64806,2,0,L|208:192,1,116.250004434586,0|0,0:0|0:0,0:0:0:0:
289,323,65071,5,4,0:3:0:0:
303,207,65204,1,0,0:0:0:0:
289,323,65337,2,0,L|303:207,1,116.250004434586,0|0,0:0|0:0,0:0:0:0:
224,64,65602,5,8,0:0:0:0:
395,142,65735,2,0,P|347:190|235:206,1,116.250004434586,2|0,0:0|0:0,0:0:0:0:
368,0,66000,2,0,P|432:128|368:208,1,232.500008869171,6|0,0:0|0:0,0:0:0:0:
208,352,66399,6,0,L|144:352,1,58.1250022172929,2|0,0:0|0:0,0:0:0:0:
336,144,66664,5,10,0:0:0:0:
336,272,66797,1,0,0:0:0:0:
210,207,66930,2,0,L|146:207,1,58.1250022172929,2|0,0:0|0:0,0:0:0:0:
144,80,67195,5,6,0:3:0:0:
352,80,67328,1,2,0:0:0:0:
256,272,67460,2,0,L|256:352,1,58.1250022172929,2|0,0:0|0:0,0:0:0:0:
80,336,67726,5,8,0:0:0:0:
80,48,67859,2,0,P|160:128|96:320,1,232.500008869171,2|0,0:0|0:0,0:0:0:0:
80,192,68257,6,0,P|144:144|240:176,1,116.250004434586,4|0,0:0|0:0,0:0:0:0:
280,192,68522,5,2,0:0:0:0:
360,208,68655,1,2,0:0:0:0:
424,160,68788,2,0,P|440:112|424:48,1,116.250004434586,8|0,0:0|0:0,0:0:0:0:
264,216,69053,5,2,0:0:0:0:
360,240,69186,1,2,0:0:0:0:
456,256,69319,2,0,P|504:216|512:120,1,116.250004434586,4|0,0:0|0:0,0:0:0:0:
424,160,69584,5,8,0:0:0:0:
392,336,69717,1,2,0:0:0:0:
216,352,69850,2,0,P|120:328|64:192,1,232.500008869171,8|0,0:0|0:0,0:0:0:0:
64,48,70248,5,2,0:0:0:0:
128,136,70381,2,0,L|280:112,1,116.250004434586,4|0,0:0|0:0,0:0:0:0:
320,56,70646,5,0,0:0:0:0:
336,152,70779,1,0,0:0:0:0:
352,248,70912,2,0,L|376:392,1,116.250004434586,8|0,0:0|0:0,0:0:0:0:
272,328,71177,5,2,0:0:0:0:
456,296,71310,1,4,0:0:0:0:
272,328,71443,2,0,L|152:352,1,116.250004434586,4|0,0:0|0:0,0:0:0:0:
56,376,71708,5,2,0:0:0:0:
0,280,71841,1,2,0:0:0:0:
40,176,71974,1,8,0:0:0:0:
144,144,72107,1,2,0:0:0:0:
240,207,72239,2,0,P|202:250|146:262,1,116.250004434586
272,112,72505,6,0,P|240:240|88:272,1,232.500008869171,4|0,0:0|0:0,0:0:0:0:
256,24,73036,5,8,0:0:0:0:
256,360,73302,1,0,0:0:0:0:
464,336,73567,5,4,0:3:0:0:
368,288,73699,1,0,0:0:0:0:
336,192,73832,2,0,P|336:128|400:48,1,116.250004434586,0|0,0:0|0:0,0:0:0:0:
432,160,74098,5,8,0:0:0:0:
288,16,74230,2,0,P|256:64|256:192,1,116.250004434586,2|0,0:0|0:0,0:0:0:0:
224,368,74496,2,0,P|256:320|144:176,1,232.500008869171,6|0,0:0|0:0,0:0:0:0:
80,304,74894,6,0,L|160:288,1,58.1250022172929,2|0,0:0|0:0,0:0:0:0:
64,288,75160,5,2,0:0:0:0:
144,256,75292,1,0,0:0:0:0:
224,224,75425,2,0,L|320:192,1,58.1250022172929,2|0,0:0|0:0,0:0:0:0:
48,272,75691,5,2,0:0:0:0:
112,192,75823,1,2,0:0:0:0:
176,112,75956,2,0,L|224:32,1,58.1250022172929,2|0,0:0|0:0,0:0:0:0:
32,256,76222,5,2,0:0:0:0:
96,32,76354,2,0,P|112:112|80:176,1,116.250004434586,2|0,0:0|0:0,0:0:0:0:
0,96,76753,5,6,0:0:0:0:
448,224,78345,6,0,P|352:272|336:368,1,173.600002119141,10|0,0:0|0:0,0:0:0:0:
448,336,78744,1,6,0:0:0:0:
384,144,78876,6,0,P|384:96|416:48,1,86.8000010595703,4|0,0:3|0:0,0:0:0:0:
110,62,79142,2,0,P|129:101|128:144,1,86.8000010595703,0|0,0:0|0:0,0:0:0:0:
352,208,79407,2,0,P|336:128|352:80,1,86.8000010595703,8|0,0:0|0:0,0:0:0:0:
175,124,79673,2,0,P|174:167|160:208,1,86.8000010595703,0|4,0:0|0:3,0:0:0:0:
256,48,79938,1,4,0:3:0:0:
320,304,80204,5,2,0:0:0:0:
189,303,80337,1,2,0:0:0:0:
320,304,80469,2,0,P|256:352|192:256,1,173.600002119141,10|0,0:0|0:0,0:0:0:0:
80,32,81000,6,0,P|56:74|48:128,1,86.8000010595703,6|0,0:0|0:0,0:0:0:0:
80,352,81266,2,0,P|56:309|48:256,1,86.8000010595703,0|0,0:0|0:0,0:0:0:0:
176,112,81531,6,0,P|192:66|229:12,1,86.8000010595703,8|0,0:0|0:0,0:0:0:0:
176,272,81797,2,0,P|192:317|229:371,1,86.8000010595703,0|0,0:0|0:0,0:0:0:0:
448,240,82062,6,0,P|455:174|408:96,1,86.8000010595703,6|0,0:3|0:0,0:0:0:0:
261,263,82328,2,0,P|295:290|336:304,1,86.8000010595703,0|0,0:0|0:0,0:0:0:0:
336,80,82593,2,0,P|275:106|231:186,1,86.8000010595703,8|0,0:0|0:0,0:0:0:0:
352,192,82859,5,0,0:0:0:0:
192,80,82991,2,0,P|96:80|16:256,1,260.400003178711,6|0,0:0|0:0,0:0:0:0:
256,320,83655,2,0,B|224:224|288:240|240:96,1,173.600002119141,8|0,0:0|0:0,0:0:0:0:
320,80,84053,2,0,P|416:80|496:256,1,260.400003178711,6|0,0:0|0:0,0:0:0:0:
256,0,84717,1,8,0:0:0:0:
144,320,85115,5,0,0:0:0:0:
96,128,85248,2,0,P|80:224|96:256,1,86.8000010595703,6|0,0:0|0:0,0:0:0:0:
256,256,85514,2,0,P|272:160|256:128,1,86.8000010595703,0|0,0:0|0:0,0:0:0:0:
224,32,85779,2,0,P|304:96|496:80,1,260.400003178711,8|0,0:0|0:0,0:0:0:0:
336,32,86310,6,0,P|352:128|368:144,1,86.8000010595703,4|0,0:3|0:0,0:0:0:0:
432,224,86576,1,0,0:0:0:0:
224,32,86708,1,0,0:0:0:0:
144,304,86841,2,0,P|176:272|112:288,1,173.600002119141,10|0,0:0|0:0,0:0:0:0:
112,256,87239,2,0,P|16:208|16:320,1,260.400003178711,6|0,0:0|0:0,0:0:0:0:
384,320,87903,6,0,P|416:176|368:48,1,260.400003178711,8|0,0:0|0:0,0:0:0:0:
496,192,88434,1,4,0:3:0:0:
256,48,88699,5,2,0:0:0:0:
256,336,88832,1,2,0:0:0:0:
132,242,88965,2,0,L|160:160,1,86.8000010595703,10|0,0:0|0:0,0:0:0:0:
351,159,89230,2,0,L|379:242,1,86.8000010595703
63,319,89496,6,0,P|30:195|64:71,1,260.400003178711,6|0,0:0|0:0,0:0:0:0:
128,187,90027,2,0,B|256:240|256:144|384:192,1,260.400003178711,8|0,0:0|0:0,0:0:0:0:
447,320,90558,2,0,P|480:195|447:71,1,260.400003178711,6|0,0:3|0:0,0:0:0:0:
192,48,91089,2,0,P|256:96|320:32,1,173.600002119141,10|0,0:3|0:0,0:0:0:0:
158,144,91487,6,0,B|64:192|64:320|192:336|192:336|304:304|352:160|160:160|208:304|320:336|320:336|448:320|448:192|352:144,1,900.550013054238,6|0,0:3|0:0,0:0:0:0:
256,96,93478,6,0,L|256:48,2,38.75
176,176,93744,6,0,L|176:272,1,96.875,6|0,0:0|0:0,0:0:0:0:
336,272,94009,2,0,L|336:176,1,96.875,0|0,0:0|0:0,0:0:0:0:
112,128,94275,2,0,L|112:256,1,96.875,8|0,0:0|0:0,0:0:0:0:
400,224,94540,1,2,0:0:0:0:
400,128,94673,1,8,0:0:0:0:
160,336,94806,6,0,L|368:336,1,193.75,4|0,0:3|0:0,0:0:0:0:
352,48,95337,2,0,L|144:48,1,193.75,10|0,0:0|0:0,0:0:0:0:
96,192,95735,5,4,0:0:0:0:
416,192,95868,2,0,L|288:192,1,96.875,4|0,0:3|0:0,0:0:0:0:
400,272,96133,5,0,0:0:0:0:
480,256,96266,1,0,0:0:0:0:
496,176,96399,2,0,L|512:80,1,96.875,8|0,0:0|0:0,0:0:0:0:
448,336,96664,5,0,0:0:0:0:
432,224,96797,1,0,0:0:0:0:
416,112,96930,2,0,L|400:-16,1,96.875,4|0,0:3|0:0,0:0:0:0:
128,16,97195,5,0,0:0:0:0:
256,48,97328,1,0,0:0:0:0:
336,144,97460,1,8,0:0:0:0:
320,272,97593,1,0,0:0:0:0:
224,368,97726,2,0,P|144:384|96:368,1,96.875,0|0,0:0|0:0,0:0:0:0:
64,160,97991,6,0,P|144:144|192:160,1,96.875,6|0,0:0|0:0,0:0:0:0:
256,208,98257,1,0,0:0:0:0:
0,80,98522,1,8,0:0:0:0:
176,53,98788,6,0,P|165:130|144:165,1,96.875,0|0,0:0|0:0,0:0:0:0:
32,288,99053,1,4,0:3:0:0:
112,224,99186,1,0,0:0:0:0:
224,224,99319,1,0,0:0:0:0:
320,272,99452,1,0,0:0:0:0:
368,368,99584,1,10,0:3:0:0:
432,208,99717,6,0,P|413:144|352:112,1,96.875,2|0,0:0|0:0,0:0:0:0:
448,192,99983,2,0,P|400:112|304:128,1,193.75,6|0,0:0|0:0,0:0:0:0:
208,192,100381,5,2,0:0:0:0:
288,128,100514,1,0,0:0:0:0:
192,96,100646,2,0,L|96:64,1,96.875,10|0,0:0|0:0,0:0:0:0:
100,318,100912,2,0,L|192:288,1,96.875,2|0,0:0|0:0,0:0:0:0:
96,288,101177,5,6,0:3:0:0:
144,192,101310,1,2,0:0:0:0:
192,96,101443,2,0,L|240:0,1,96.875,2|0,0:0|0:0,0:0:0:0:
48,48,101708,5,8,0:0:0:0:
224,112,101841,2,0,P|336:128|416:96,1,193.75,2|0,0:0|0:0,0:0:0:0:
496,0,102239,5,6,0:0:0:0:
432,80,102372,1,0,0:0:0:0:
464,176,102505,2,0,L|512:304,1,96.875,0|0,0:0|0:0,0:0:0:0:
304,80,102770,5,8,0:0:0:0:
368,160,102903,1,0,0:0:0:0:
336,256,103036,2,0,L|288:384,1,96.875,0|0,0:0|0:0,0:0:0:0:
64,352,103301,6,0,L|144:160,1,193.75,4|0,0:3|0:0,0:0:0:0:
208,32,103699,1,0,0:0:0:0:
320,128,103832,6,0,P|208:176|112:144,1,193.75,10|0,0:0|0:0,0:0:0:0:
208,32,104230,1,6,0:0:0:0:
320,128,104363,2,0,P|352:192|352:256,1,96.875,4|0,0:3|0:0,0:0:0:0:
320,320,104629,5,0,0:0:0:0:
224,352,104761,1,0,0:0:0:0:
128,320,104894,2,0,L|0:272,1,96.875,8|0,0:0|0:0,0:0:0:0:
192,208,105160,5,0,0:0:0:0:
224,352,105292,1,0,0:0:0:0:
192,208,105425,2,0,L|160:48,1,96.875,4|0,0:3|0:0,0:0:0:0:
16,176,105691,5,0,0:0:0:0:
80,272,105823,1,0,0:0:0:0:
208,288,105956,1,8,0:0:0:0:
320,224,106089,1,0,0:0:0:0:
352,112,106222,2,0,P|352:64|320:0,1,96.875
320,224,106487,6,0,P|416:224|464:112,1,193.75,6|0,0:0|0:0,0:0:0:0:
48,144,107018,5,8,0:0:0:0:
464,144,107284,2,0,L|304:144,1,96.875,0|0,0:0|0:0,0:0:0:0:
256,288,107549,5,4,0:3:0:0:
256,192,107682,1,0,0:0:0:0:
368,240,107814,2,0,L|464:240,1,96.875,0|0,0:0|0:0,0:0:0:0:
144,240,108080,1,8,0:0:0:0:
320,32,108213,6,0,P|384:48|416:144,1,96.875,2|0,0:0|0:0,0:0:0:0:
192,32,108478,2,0,P|128:48|80:192,1,193.75,6|0,0:0|0:0,0:0:0:0:
224,224,108876,6,0,L|304:224,1,58.1250022172929,2|0,0:0|0:0,0:0:0:0:
320,112,109142,5,2,0:0:0:0:
320,304,109275,1,0,0:0:0:0:
496,208,109407,2,0,L|416:208,1,58.1250022172929,2|0,0:0|0:0,0:0:0:0:
192,336,109673,5,2,0:0:0:0:
192,80,109806,1,2,0:0:0:0:
0,208,109938,2,0,L|80:208,1,58.1250022172929,2|0,0:0|0:0,0:0:0:0:
256,32,110204,5,10,0:0:0:0:
256,352,110337,2,0,L|256:240,1,58.1250022172929,2|0,0:0|0:0,0:0:0:0:
256,32,110602,1,0,0:0:0:0:
256,208,110735,5,6,0:0:0:0:
352,224,110868,1,0,0:0:0:0:
448,240,111000,2,0,P|480:192|480:144,1,96.875,0|0,0:0|0:0,0:0:0:0:
256,240,111266,5,8,0:0:0:0:
160,256,111399,1,0,0:0:0:0:
64,272,111531,2,0,P|32:224|32:176,1,96.875,0|0,0:0|0:0,0:0:0:0:
256,272,111797,5,4,0:3:0:0:
352,288,111930,1,0,0:0:0:0:
448,304,112062,2,0,P|480:256|480:208,1,96.875,0|0,0:0|0:0,0:0:0:0:
304,48,112328,6,0,P|352:144|432:160,1,193.75,10|0,0:0|0:0,0:0:0:0:
432,32,112726,1,6,0:0:0:0:
304,48,112859,2,0,P|217:111|224:176,1,96.875,4|0,0:3|0:0,0:0:0:0:
160,336,113124,6,0,L|128:224,1,96.875,0|0,0:0|0:0,0:0:0:0:
80,64,113390,2,0,L|112:176,1,96.875,8|0,0:0|0:0,0:0:0:0:
224,272,113655,5,0,0:0:0:0:
48,240,113788,1,0,0:0:0:0:
224,272,113921,2,0,L|384:304,1,96.875,4|0,0:3|0:0,0:0:0:0:
512,144,114186,5,0,0:0:0:0:
432,192,114319,1,0,0:0:0:0:
336,176,114452,1,8,0:0:0:0:
272,112,114584,1,0,0:0:0:0:
272,16,114717,2,0,P|320:32|368:96,1,96.875,0|0,0:0|0:0,0:0:0:0:
368,272,114983,6,0,L|381:367,1,96.875,6|0,0:0|0:0,0:0:0:0:
192,384,115248,2,0,L|178:288,1,96.875,0|0,0:0|0:0,0:0:0:0:
400,368,115514,1,8,0:0:0:0:
160,288,115779,6,0,L|64:304,1,96.875,0|0,0:0|0:0,0:0:0:0:
32,128,116045,1,4,0:3:0:0:
192,288,116177,1,0,0:0:0:0:
160,96,116310,2,0,L|146:0,1,96.875,0|0,0:0|0:0,0:0:0:0:
176,192,116576,5,8,0:0:0:0:
352,192,116708,2,0,P|384:256|384:336,1,96.875,2|0,0:0|0:0,0:0:0:0:
448,192,116974,2,0,P|496:112|464:16,1,193.75,6|0,0:0|0:0,0:0:0:0:
288,96,117372,6,0,L|416:96,1,96.875,2|0,0:0|0:0,0:0:0:0:
336,320,117637,5,10,0:0:0:0:
336,224,117770,1,0,0:0:0:0:
336,128,117903,2,0,L|448:128,1,96.875,2|0,0:0|0:0,0:0:0:0:
240,160,118168,5,6,0:3:0:0:
336,320,118301,1,2,0:0:0:0:
240,160,118434,2,0,L|176:48,1,96.875,2|0,0:0|0:0,0:0:0:0:
96,192,118699,5,8,0:0:0:0:
336,48,118832,2,0,L|96:192,1,193.75,2|0,0:0|0:0,0:0:0:0:
256,192,119230,5,6,0:0:0:0:
272,288,119363,1,0,0:0:0:0:
288,384,119496,2,0,L|384:368,1,96.875,0|0,0:0|0:0,0:0:0:0:
272,192,119761,5,8,0:0:0:0:
320,272,119894,1,0,0:0:0:0:
368,352,120027,2,0,L|464:288,1,96.875,0|0,0:0|0:0,0:0:0:0:
144,208,120292,6,0,L|197:288,1,96.875,4|0,0:3|0:0,0:0:0:0:
368,176,120558,2,0,L|314:95,1,96.875,8|0,0:0|0:0,0:0:0:0:
64,96,120823,6,0,P|48:192|80:336,1,193.75,10|0,0:0|0:0,0:0:0:0:
256,192,121222,1,6,0:0:0:0:
448,96,121354,2,0,P|464:160|448:272,1,96.875,4|0,0:3|0:0,0:0:0:0:
272,368,121620,6,0,P|256:304|272:192,1,96.875,0|0,0:0|0:0,0:0:0:0:
240,16,121885,2,0,P|256:80|240:192,1,96.875,8|0,0:0|0:0,0:0:0:0:
160,224,122151,6,0,P|112:240|48:240,1,96.875,0|0,0:0|0:0,0:0:0:0:
352,160,122416,2,0,P|400:144|464:144,1,96.875,4|0,0:3|0:0,0:0:0:0:
432,336,122682,5,0,0:0:0:0:
320,304,122814,1,0,0:0:0:0:
272,192,122947,1,8,0:0:0:0:
320,80,123080,1,0,0:0:0:0:
432,48,123213,2,0,P|448:96|432:176,1,96.875,0|0,0:0|0:0,0:0:0:0:
180,336,123478,6,0,P|240:288|336:352,1,193.75,6|0,0:0|0:0,0:0:0:0:
331,45,124009,2,0,P|256:97|180:48,1,193.75,8|0,0:0|0:0,0:0:0:0:
384,192,124540,5,4,0:3:0:0:
256,192,124673,1,0,0:0:0:0:
128,192,124806,2,0,L|0:192,1,96.875,0|0,0:0|0:0,0:0:0:0:
192,96,125071,5,8,0:0:0:0:
192,288,125204,2,0,P|144:336|48:368,1,96.875,2|0,0:0|0:0,0:0:0:0:
256,192,125469,2,0,P|352:224|416:304,1,193.75,6|0,0:0|0:0,0:0:0:0:
448,96,125868,6,0,L|448:32,1,58.1250022172929,2|0,0:0|0:0,0:0:0:0:
320,96,126133,5,2,0:0:0:0:
304,96,126266,1,0,0:0:0:0:
288,96,126399,2,0,L|224:96,1,58.1250022172929,2|0,0:0|0:0,0:0:0:0:
320,224,126664,5,2,0:0:0:0:
320,240,126797,1,2,0:0:0:0:
320,256,126930,2,0,L|320:320,1,58.1250022172929,2|0,0:0|0:0,0:0:0:0:
448,224,127195,5,2,0:0:0:0:
224,224,127328,2,0,L|128:224,2,58.1250022172929,2|0|0,0:0|0:0|0:0,0:0:0:0:
192,48,127726,6,0,P|112:48|32:128,1,155,6|0,0:0|0:0,0:0:0:0:
160,192,128124,1,0,0:0:0:0:
0,64,128257,2,0,B|32:112|32:112|24:233,1,155,8|0,0:0|0:0,0:0:0:0:
160,192,128655,5,4,0:3:0:0:
16,304,128788,2,0,B|48:336|48:336|208:352,1,155,4|0,0:3|0:0,0:0:0:0:
272,352,129186,1,0,0:0:0:0:
368,320,129319,6,0,P|304:256|208:272,1,155,10|0,0:0|0:0,0:0:0:0:
464,256,129717,1,6,0:0:0:0:
400,144,129850,6,0,P|336:208|352:304,1,155,4|0,0:3|0:0,0:0:0:0:
464,256,130248,1,0,0:0:0:0:
496,128,130381,2,0,B|496:48|496:48|416:16,1,155,8|0,0:0|0:0,0:0:0:0:
240,144,130779,5,4,0:3:0:0:
400,16,130912,2,0,L|336:64,1,77.5,4|0,0:3|0:0,0:0:0:0:
336,160,131177,5,2,0:0:0:0:
248,48,131310,1,2,0:0:0:0:
112,56,131443,2,0,P|72:144|88:224,1,155,10|0,0:0|0:0,0:0:0:0:
192,160,131841,5,0,0:0:0:0:
200,272,131974,2,0,P|88:336|8:304,1,155,6|0,0:0|0:0,0:0:0:0:
88,208,132372,5,0,0:0:0:0:
256,336,132505,2,0,B|304:368|304:368|416:352,1,155,8|0,0:0|0:0,0:0:0:0:
480,240,132903,5,0,0:0:0:0:
288,144,133036,2,0,P|336:256|400:256,1,155,6|0,0:3|0:0,0:0:0:0:
400,160,133434,5,0,0:0:0:0:
128,256,133567,2,0,L|224:224,1,77.5,8|0,0:0|0:0,0:0:0:0:
400,160,133832,1,0,0:0:0:0:
80,272,133965,6,0,P|18:229|32:48,1,232.5,6|0,0:0|0:0,0:0:0:0:
128,144,134496,1,0,0:0:0:0:
208,328,134629,6,0,B|216:272|216:272|208:232|208:232|224:144,1,155,8|0,0:0|0:0,0:0:0:0:
480,144,135027,6,0,P|416:272|320:288,1,232.5,6|0,0:0|0:0,0:0:0:0:
336,144,135558,1,0,0:0:0:0:
464,16,135691,6,0,L|336:96,1,77.5,8|0,0:0|0:0,0:0:0:0:
224,160,135956,1,0,0:0:0:0:
256,16,136089,1,0,0:0:0:0:
64,144,136222,6,0,P|48:192|48:240,1,77.5,6|0,0:0|0:0,0:0:0:0:
224,320,136487,2,0,P|240:272|240:224,1,77.5,0|0,0:0|0:0,0:0:0:0:
0,320,136753,6,0,B|32:352|32:352|176:368,1,155,8|0,0:0|0:0,0:0:0:0:
241,245,137151,5,4,0:3:0:0:
328,352,137284,2,0,P|392:384|440:384,1,77.5,4|0,0:3|0:0,0:0:0:0:
480,208,137549,2,0,P|416:176|368:176,1,77.5,0|0,0:0|0:0,0:0:0:0:
240,160,137814,6,0,P|304:112|320:16,1,155,10|0,0:0|0:0,0:0:0:0:
192,32,138213,1,6,0:0:0:0:
128,160,138345,2,0,P|128:192|208:256,1,77.5,4|0,0:3|0:0,0:0:0:0:
192,32,138611,2,0,P|144:16|64:64,1,77.5,0|0,0:0|0:0,0:0:0:0:
16,160,138876,6,0,B|32:272|32:272|64:304,1,155,8|0,0:0|0:0,0:0:0:0:
264,344,139275,1,4,0:3:0:0:
96,320,139407,2,0,L|192:336,1,77.5,4|0,0:3|0:0,0:0:0:0:
400,352,139673,5,2,0:0:0:0:
272,208,139806,1,2,0:0:0:0:
408,216,139938,2,0,P|488:152|504:88,1,155,10|0,0:0|0:0,0:0:0:0:
352,48,140337,5,0,0:0:0:0:
272,208,140469,2,0,P|368:224|400:208,1,77.5,6|0,0:0|0:0,0:0:0:0:
112,288,140735,2,0,P|168:367|202:378,1,77.5,0|0,0:0|0:0,0:0:0:0:
32,208,141000,6,0,B|144:192|144:192|208:240,1,155,8|0,0:0|0:0,0:0:0:0:
256,304,141399,5,0,0:0:0:0:
200,120,141531,2,0,L|170:14,1,77.5,6|0,0:3|0:0,0:0:0:0:
333,45,141797,2,0,L|312:120,1,77.5,0|0,0:0|0:0,0:0:0:0:
256,304,142062,6,0,L|256:226,1,77.5,8|0,0:0|0:0,0:0:0:0:
496,272,142328,5,0,0:0:0:0:
368,272,142460,2,0,P|416:176|480:144,1,155,6|0,0:0|0:0,0:0:0:0:
432,336,142859,6,0,P|336:352|320:336,1,77.5,0|0,0:0|0:0,0:0:0:0:
256,336,143124,2,0,P|240:240|256:224,1,77.5,8|0,0:0|0:0,0:0:0:0:
64,256,143390,2,0,P|160:240|176:256,1,77.5,0|6,0:0|0:0,0:0:0:0:
144,64,143655,2,0,P|160:160|144:176,1,77.5,4|0,0:3|0:0,0:0:0:0:
336,144,143921,2,0,P|240:160|224:144,1,77.5,0|0,0:0|0:0,0:0:0:0:
464,0,144186,5,8,0:0:0:0:
448,96,144319,1,0,0:0:0:0:
432,192,144452,2,0,L|416:304,1,77.5,0|0,0:0|0:0,0:0:0:0:
128,312,144717,5,6,0:0:0:0:
16,184,144983,1,0,0:0:0:0:
256,200,145248,1,8,0:0:0:0:
144,72,145514,2,0,L|136:192,1,77.5,0|4,0:0|0:3,0:0:0:0:
128,312,145779,5,4,0:3:0:0:
16,184,146045,1,0,0:0:0:0:
256,200,146310,1,10,0:0:0:0:
144,72,146576,2,0,L|136:192,1,77.5,0|4,0:0|0:0,0:0:0:0:
392,88,146841,5,6,0:3:0:0:
392,296,147107,1,0,0:0:0:0:
392,88,147372,1,8,0:0:0:0:
392,296,147637,2,0,L|392:200,1,77.5,0|4,0:0|0:3,0:0:0:0:
488,40,147903,5,4,0:3:0:0:
488,344,148168,2,0,L|488:264,1,77.5,2|2,0:0|0:0,0:0:0:0:
488,40,148434,1,10,0:0:0:0:
488,344,148699,1,0,0:0:0:0:
200,128,148965,6,0,L|80:112,1,77.5,6|0,0:0|0:0,0:0:0:0:
40,256,149230,1,0,0:0:0:0:
184,272,149496,1,8,0:0:0:0:
56,112,149761,1,0,0:0:0:0:
112,344,150027,6,0,L|80:240,1,77.5,6|0,0:3|0:0,0:0:0:0:
32,80,150292,1,0,0:0:0:0:
312,160,150558,1,8,0:0:0:0:
480,352,150823,6,0,L|480:240,1,77.5,0|2,0:0|0:0,0:0:0:0:
480,32,151089,1,4,0:3:0:0:
480,352,151354,1,0,0:0:0:0:
480,32,151620,2,0,L|480:200,1,155,8|0,0:0|0:0,0:0:0:0:
376,32,152018,5,0,0:0:0:0:
464,32,152151,6,0,L|464:187,1,155,4|0,0:3|0:0,0:0:0:0:
464,352,152682,2,0,L|464:197,1,155,8|0,0:0|0:0,0:0:0:0:
376,192,153080,5,0,0:0:0:0:
256,192,153213,6,0,L|120:192,1,77.5,6|0,0:0|0:0,0:0:0:0:
120,272,153478,2,0,L|197:272,1,77.5
200,112,153744,2,0,L|122:112,1,77.5,8|0,0:0|0:0,0:0:0:0:
88,352,154009,2,0,L|165:352,1,77.5,0|0,0:0|0:0,0:0:0:0:
165,32,154275,2,0,L|87:32,1,77.5,4|0,0:3|0:0,0:0:0:0:
0,192,154540,5,0,0:0:0:0:
96,192,154673,1,0,0:0:0:0:
192,192,154806,2,0,L|360:192,1,155,10|0,0:0|0:0,0:0:0:0:
432,192,155204,5,6,0:0:0:0:
432,352,155337,6,0,L|432:274,1,77.5,4|0,0:3|0:0,0:0:0:0:
432,32,155602,1,0,0:0:0:0:
432,352,155868,1,8,0:0:0:0:
432,32,156133,2,0,L|432:144,1,77.5,0|0,0:0|0:0,0:0:0:0:
344,328,156399,5,4,0:3:0:0:
344,56,156664,2,0,L|344:168,1,77.5,2|2,0:0|0:0,0:0:0:0:
344,328,156930,2,0,L|344:216,1,77.5,10|0,0:0|0:0,0:0:0:0:
344,56,157195,1,0,0:0:0:0:
88,328,157460,6,0,L|8:328,1,77.5,6|0,0:0|0:0,0:0:0:0:
184,328,157726,2,0,L|264:328,1,77.5,0|0,0:0|0:0,0:0:0:0:
48,152,157991,6,0,L|48:248,1,77.5,8|0,0:0|0:0,0:0:0:0:
224,229,158257,2,0,L|224:151,1,77.5,0|0,0:0|0:0,0:0:0:0:
8,48,158522,6,0,L|104:48,1,77.5,6|0,0:0|0:0,0:0:0:0:
264,48,158788,2,0,L|168:48,1,77.5,0|0,0:0|0:0,0:0:0:0:
136,264,159053,6,0,L|136:104,1,155,10|0,0:3|0:0,0:0:0:0:
376,120,159452,6,0,L|376:256,1,77.5,6|0,0:0|0:0,0:0:0:0:
256,192,159651,12,0,161443,0:0:0:0:
64,320,161708,6,0,B|112:256|208:256|256:336|256:336|304:256|400:256|464:320,1,465,6|0,0:3|0:0,0:0:0:0:
58,103,163699,6,0,B|112:160|208:160|256:48|256:48|304:160|400:160|457:102,1,503.75,6|0,0:0|0:0,0:0:0:0:
48,80,165956,6,0,P|16:192|64:320,1,232.5,6|0,0:0|0:0,0:0:0:0:
256,192,167018,5,2,0:0:0:0:
464,80,167947,6,0,P|496:192|448:320,1,232.5,6|0,0:0|0:0,0:0:0:0:
48,299,169009,6,0,P|15:190|48:80,1,232.5,6|0,0:0|0:0,0:0:0:0:
368,156,170204,6,0,P|256:320|148:144,1,465,6|0,0:0|0:0,0:0:0:0:
256,0,172195,6,0,B|352:32|352:192|256:192|160:192|160:352|276:384,1,465,6|0,0:0|0:0,0:0:0:0:
251,2,174452,6,0,B|176:40|176:192|256:192|336:192|336:344|256:374,1,426.25,6|0,0:0|0:0,0:0:0:0:
400,16,176443,6,0,P|368:88|488:168,1,232.5,6|0,0:0|0:0,0:0:0:0:
464,80,177505,2,0,P|400:112|392:216,1,155,6|0,0:0|0:0,0:0:0:0:
385,201,178168,5,2,0:0:0:0:
200,360,179230,6,0,P|258:256|312:362,1,290.625,14|0,0:0|0:0,0:0:0:0:
88,368,179761,6,0,P|120:216|304:152,1,348.750013303757,6|0,0:3|0:0,0:0:0:0:
440,368,180292,6,0,P|384:200|208:152,1,271.250002586842,10|0,0:0|0:0,0:0:0:0:
112,40,180691,6,0,P|256:96|400:32,1,310,6|0,0:0|0:0,0:0:0:0:
256,0,181089,6,0,P|240:80|264:160,1,155
400,240,181354,5,10,0:0:0:0:
288,192,181487,1,0,0:0:0:0:
192,272,181620,2,0,P|120:312|0:312,1,155,2|0,0:0|0:0,0:0:0:0:
0,136,181885,2,0,P|70:104|144:104,1,139.499995742798,6|0,0:3|0:0,0:0:0:0:
104,208,182151,5,2,0:0:0:0:
144,104,182284,1,0,0:0:0:0:
256,72,182416,1,10,0:0:0:0:
368,104,182549,1,0,0:0:0:0:
408,208,182682,2,0,P|424:280|408:352,1,124
304,176,182947,5,6,0:0:0:0:
288,272,183080,1,2,0:0:0:0:
208,328,183213,2,0,P|152:352|72:336,1,131.750002512932,2|0,0:0|0:0,0:0:0:0:
128,128,183478,2,0,P|152:183|136:264,1,131.750002512932,8|0,0:0|0:0,0:0:0:0:
248,176,183744,5,2,0:0:0:0:
32,200,183876,1,0,0:0:0:0:
248,176,184009,2,0,L|400:160,1,116.250004434586,4|0,0:3|0:0,0:0:0:0:
344,8,184275,2,0,L|228:20,1,116.250004434586,0|0,0:0|0:0,0:0:0:0:
248,176,184540,5,8,0:0:0:0:
264,280,184673,1,0,0:0:0:0:
360,336,184806,1,0,0:0:0:0:
464,312,184938,1,4,0:0:0:0:
512,224,185071,5,6,0:3:0:0:
376,200,185204,1,2,0:0:0:0:
248,176,185337,2,0,P|246:108|284:45,1,131.750002512932,2|0,0:0|0:0,0:0:0:0:
486,200,185602,5,10,0:0:0:0:
376,200,185735,1,2,0:0:0:0:
272,199,185868,2,0,P|260:145|288:80,1,124,2|4,0:0|0:3,0:0:0:0:
462,185,186133,5,6,0:3:0:0:
376,200,186266,1,2,0:0:0:0:
294,214,186399,2,0,P|277:173|304:96,1,116.250004434586,2|0,0:0|0:0,0:0:0:0:
384,32,186664,5,8,0:0:0:0:
184,184,186797,2,0,P|72:200|16:64,1,263.500005025864,2|0,0:0|0:0,0:0:0:0:
200,32,187195,6,0,P|224:120|194:184,1,139.499995742798,4|0,0:0|0:0,0:0:0:0:
128,304,187460,5,0,0:0:0:0:
96,328,187593,1,0,0:0:0:0:
64,336,187726,2,0,P|120:272|198:265,1,147.249996068001,10|0,0:0|0:0,0:0:0:0:
344,264,187991,5,0,0:0:0:0:
384,280,188124,1,0,0:0:0:0:
404,318,188257,2,0,P|312:288|275:236,1,155,6|0,0:3|0:0,0:0:0:0:
400,176,188522,5,8,0:0:0:0:
256,96,188655,1,0,0:0:0:0:
397,2,188788,2,0,P|422:78|408:157,1,162.749995033264,10|0,0:0|0:0,0:0:0:0:
256,96,189053,5,0,0:0:0:0:
115,2,189186,2,0,B|87:48|85:73|71:137|101:162|135:197|136:219|125:290|102:329,1,341.000010406494,6|0,0:0|0:0,0:0:0:0:
216,368,189584,6,0,P|275:288|345:272,1,170.500005203247,0|0,0:0|0:0,0:0:0:0:
432,368,189850,5,10,0:0:0:0:
368,272,189983,1,2,0:0:0:0:
424,160,190115,2,0,P|438:84|415:11,1,155,2|0,0:0|0:0,0:0:0:0:
96,11,190381,2,0,P|73:84|88:160,1,139.499995742798,6|0,0:3|0:0,0:0:0:0:
256,232,190646,5,2,0:0:0:0:
192,152,190779,1,0,0:0:0:0:
88,160,190912,1,10,0:0:0:0:
32,248,191045,1,0,0:0:0:0:
64,344,191177,2,0,P|104:368|224:344,1,124
256,232,191443,5,6,0:0:0:0:
144,256,191576,1,2,0:0:0:0:
256,232,191708,2,0,P|277:194|256:72,1,131.750002512932,2|0,0:0|0:0,0:0:0:0:
512,160,191974,6,0,P|491:198|512:320,1,131.750002512932,8|0,0:0|0:0,0:0:0:0:
416,328,192239,2,0,P|378:307|256:328,1,116.250004434586,2|0,0:0|0:0,0:0:0:0:
352,64,192505,6,0,P|390:84|512:64,1,116.250004434586,4|0,0:3|0:0,0:0:0:0:
512,160,192770,2,0,P|491:198|512:320,1,116.250004434586,0|0,0:0|0:0,0:0:0:0:
304,304,193036,5,8,0:0:0:0:
312,192,193168,1,0,0:0:0:0:
256,96,193301,1,0,0:0:0:0:
152,64,193434,1,6,0:0:0:0:
46,95,193567,5,6,0:3:0:0:
70,231,193699,1,2,0:0:0:0:
94,359,193832,2,0,P|162:361|225:323,1,131.750002512932,2|0,0:0|0:0,0:0:0:0:
33,128,194098,5,10,0:0:0:0:
70,231,194230,1,2,0:0:0:0:
107,329,194363,2,0,P|162:322|213:273,1,124,0|8,0:0|0:0,0:0:0:0:
27,156,194629,5,6,0:3:0:0:
70,231,194761,1,2,0:0:0:0:
112,303,194894,2,0,P|155:290|196:220,1,116.250004434586,2|0,0:0|0:0,0:0:0:0:
16,176,195160,5,8,0:0:0:0:
200,104,195292,2,0,P|192:224|208:272,1,131.750002512932,2|0,0:0|0:0,0:0:0:0:
312,360,195558,5,8,0:0:0:0:
416,232,195691,2,0,P|424:72|200:112,1,418.499987228394,6|0,0:0|0:0,0:0:0:0:
96,232,196222,6,0,P|72:72|304:156,1,441.749988204003,10|0,0:0|0:0,0:0:0:0:
384,352,196753,6,0,P|296:240|360:112,1,155,6|0,0:3|0:0,0:0:0:0:
320,72,197018,1,0,0:0:0:0:
192,312,197151,1,0,0:0:0:0:
216,148,197284,6,0,P|189:77|120:24,1,162.749995033264,10|0,0:0|0:0,0:0:0:0:
40,192,197549,1,0,0:0:0:0:
168,320,197682,6,0,P|224:248|128:0,1,341.000010406494,6|0,0:0|0:0,0:0:0:0:
40,192,198080,6,0,P|128:224|248:200,1,170.500005203247,0|0,0:0|0:0,0:0:0:0:
288,88,198345,5,10,0:0:0:0:
232,208,198478,1,2,0:0:0:0:
328,312,198611,2,0,P|408:344|480:328,1,155,2|0,0:0|0:0,0:0:0:0:
184,350,198876,6,0,P|104:320|32:334,1,139.499995742798,6|0,0:3|0:0,0:0:0:0:
24,216,199142,5,2,0:0:0:0:
128,208,199275,1,0,0:0:0:0:
224,168,199407,1,10,0:0:0:0:
296,96,199540,1,0,0:0:0:0:
328,0,199673,2,0,P|264:0|192:88,1,124
296,216,199938,5,6,0:0:0:0:
296,96,200071,1,2,0:0:0:0:
296,216,200204,2,0,P|328:272|392:344,1,131.750002512932,2|0,0:0|0:0,0:0:0:0:
496,240,200469,2,0,P|464:184|400:112,1,131.750002512932,8|0,0:0|0:0,0:0:0:0:
288,232,200735,6,0,P|312:280|384:360,1,116.250004434586,2|0,0:0|0:0,0:0:0:0:
480,248,201000,2,0,P|440:176|384:128,1,116.250004434586,4|0,0:3|0:0,0:0:0:0:
280,248,201266,6,0,P|304:296|384:368,1,116.250004434586
136,280,201531,5,8,0:0:0:0:
160,176,201664,1,0,0:0:0:0:
256,120,201797,1,0,0:0:0:0:
368,144,201930,1,6,0:0:0:0:
424,240,202062,5,6,0:3:0:0:
305,313,202195,1,2,0:0:0:0:
196,383,202328,2,0,P|148:334|132:262,1,131.750002512932,2|0,0:0|0:0,0:0:0:0:
407,268,202593,5,10,0:0:0:0:
306,312,202726,1,2,0:0:0:0:
211,352,202859,2,0,P|178:307|179:236,1,124,2|4,0:0|0:3,0:0:0:0:
391,292,203124,5,6,0:3:0:0:
306,312,203257,1,2,0:0:0:0:
225,330,203390,2,0,P|205:289|228:211,1,116.250004434586,2|0,0:0|0:0,0:0:0:0:
368,376,203655,5,8,0:0:0:0:
304,128,203788,2,0,P|208:96|88:224,1,263.500005025864,2|0,0:0|0:0,0:0:0:0:
184,72,204186,6,0,P|232:72|344:136,1,139.499995742798,6|0,0:0|0:0,0:0:0:0:
368,304,204452,5,0,0:0:0:0:
320,208,204584,1,0,0:0:0:0:
336,104,204717,2,0,P|416:16|496:16,1,147.249996068001,10|0,0:0|0:0,0:0:0:0:
448,200,204983,5,0,0:0:0:0:
336,216,205115,1,0,0:0:0:0:
224,232,205248,2,0,P|144:208|80:96,1,155,6|0,0:3|0:0,0:0:0:0:
240,64,205514,5,8,0:0:0:0:
56,40,205646,1,0,0:0:0:0:
128,200,205779,2,0,P|120:304|56:368,1,162.749995033264,10|0,0:0|0:0,0:0:0:0:
0,240,206045,5,0,0:0:0:0:
224,296,206177,2,0,P|360:240|368:40,1,341.000010406494,6|0,0:0|0:0,0:0:0:0:
232,144,206576,6,0,P|296:208|400:224,1,170.500005203247
296,64,206841,5,10,0:0:0:0:
184,64,206974,1,2,0:0:0:0:
128,160,207107,2,0,P|128:280|160:336,1,155,2|0,0:0|0:0,0:0:0:0:
352,304,207372,2,0,P|375:230|365:154,1,139.499995742798,6|0,0:3|0:0,0:0:0:0:
256,224,207637,5,2,0:0:0:0:
360,232,207770,1,0,0:0:0:0:
448,192,207903,1,10,0:0:0:0:
480,104,208036,1,0,0:0:0:0:
464,8,208168,2,0,P|400:48|400:152,1,124
448,304,208434,5,6,0:0:0:0:
376,136,208567,1,2,0:0:0:0:
448,304,208699,2,0,P|400:336|312:360,1,131.750002512932,2|0,0:0|0:0,0:0:0:0:
257,190,208965,2,0,P|305:158|393:134,1,131.750002512932,8|0,0:0|0:0,0:0:0:0:
201,82,209230,6,0,P|234:131|257:210,1,116.250004434586,2|0,0:0|0:0,0:0:0:0:
9,170,209496,2,0,P|34:116|91:57,1,116.250004434586,4|0,0:3|0:0,0:0:0:0:
177,298,209761,2,0,P|118:302|38:282,1,116.250004434586
253,185,210027,5,8,0:0:0:0:
304,280,210160,1,0,0:0:0:0:
416,296,210292,1,0,0:0:0:0:
496,232,210425,1,0,0:0:0:0:
504,136,210558,5,6,0:0:0:0:
432,88,210691,1,2,0:0:0:0:
360,40,210823,2,0,L|312:120,1,58.1250022172929,2|0,0:0|0:0,0:0:0:0:
496,144,211089,5,2,0:0:0:0:
416,109,211222,1,2,0:0:0:0:
337,74,211354,2,0,L|303:161,1,58.1250022172929,2|0,0:0|0:0,0:0:0:0:
488,152,211620,5,2,0:0:0:0:
403,131,211753,1,2,0:0:0:0:
319,110,211885,2,0,L|301:201,1,58.1250022172929,2|0,0:0|0:0,0:0:0:0:
272,336,212151,5,0,0:0:0:0:
441,378,212284,1,2,0:0:0:0:
272,336,212416,2,0,L|277:307,2,29.0625011086464,0|0|0,0:0|0:0|0:0,0:0:0:0:
288,272,212682,6,0,P|192:312|120:96,1,348.750013303757,6|0,0:3|0:0,0:0:0:0:
288,112,213744,6,0,P|129:92|87:247,1,348.750013303757,2|0,0:0|0:0,0:0:0:0:
344,344,214806,6,0,L|416:368,2,58.1250022172929,2|0|0,0:0|0:0|0:0,0:0:0:0:
344,40,215337,6,0,L|416:16,2,58.1250022172929,2|0|0,0:0|0:0|0:0,0:0:0:0:
200,192,215868,6,0,L|344:192,1,116.250004434586,2|0,0:0|0:0,0:0:0:0:
168,40,216399,6,0,L|96:16,2,58.1250022172929,2|0|0,0:0|0:0|0:0,0:0:0:0:
168,344,216930,6,0,P|96:360|112:240,1,232.500008869171,6|0,0:3|0:0,0:0:0:0:
256,192,217726,1,6,0:3:0:0:
408,241,217991,2,0,P|444:336|344:344,2,232.500008869171,6|8|6,0:3|0:0|0:3,0:0:0:0:
168,152,219319,6,0,L|168:16,1,116.250004434586,2|2,0:0|0:0,0:0:0:0:
344,35,219850,2,0,L|344:152,1,116.250004434586,6|6,0:3|0:3,0:0:0:0:
152,168,220381,6,0,L|152:32,1,116.250004434586,2|10,0:0|0:0,0:0:0:0:
360,51,220912,2,0,L|360:256,1,174.375006651879,2|0,0:0|0:0,0:0:0:0:
384,224,221443,6,0,L|384:96,1,116.250004434586,2|2,0:0|0:0,0:0:0:0:
256,256,221974,1,4,0:3:0:0:
128,107,222239,2,0,L|128:224,1,116.250004434586,6|0,0:3|0:0,0:0:0:0:
312,32,222770,2,0,L|195:32,1,116.250004434586,8|0,0:0|0:0,0:0:0:0:
384,184,223301,6,0,P|456:152|464:-8,1,232.500008869171,6|0,0:3|0:0,0:0:0:0:
256,96,224098,1,6,0:3:0:0:
34,12,224363,2,0,P|34:123|128:184,1,232.500008869171,6|8,0:3|0:0,0:0:0:0:
256,192,225425,5,6,0:3:0:0:
256,192,225558,12,0,233922,0:0:0:0:
