osu file format v14

[General]
AudioFilename: audio.mp3
AudioLeadIn: 0
PreviewTime: 110735
Countdown: 0
SampleSet: Normal
StackLeniency: 0.4
Mode: 0
LetterboxInBreaks: 0
WidescreenStoryboard: 1

[Editor]
Bookmarks: 17158,42647,76632,93625,127610,144603,161595,195581,216821
DistanceSpacing: 2.3
BeatDivisor: 4
GridSize: 8
TimelineZoom: 1.7

[Metadata]
Title:D.A.N.C.E.
TitleUnicode:D.A.N.C.E.
Artist:Justice
ArtistUnicode:Justice
Creator:Mechanizen
Version:Gens' Choreo
Source:
Tags:justice dance Gens electronic pop french touch 2007 symmetry alternate cross Touhou nu-disco english
BeatmapID:1918437
BeatmapSetID:875221

[Difficulty]
HPDrainRate:5
CircleSize:2
OverallDifficulty:7
ApproachRate:7
SliderMultiplier:3
SliderTickRate:1

[Events]
//Background and Video events
0,0,"dance.png",0,0
//Break Periods
2,127926,143817
//Storyboard Layer 0 (Background)
//Storyboard Layer 1 (Fail)
//Storyboard Layer 2 (Pass)
//Storyboard Layer 3 (Foreground)
//Storyboard Layer 4 (Overlay)
//Storyboard Sound Samples

[TimingPoints]
17284,530.973451327434,4,2,0,50,1,0
25779,-100,4,2,0,60,0,0
34275,-80,4,1,0,65,0,0
42770,-133.333333333333,4,1,0,60,0,0
43301,-66.6666666666667,4,1,0,60,0,0
44761,-80,4,1,0,65,0,0
47549,-80,4,1,0,60,0,0
49407,-80,4,1,0,55,0,0
51266,-80,4,1,0,60,0,0
52328,-133.333333333333,4,1,0,55,0,0
52859,-66.6666666666667,4,1,0,60,0,0
53257,-80,4,1,0,65,0,0
56045,-80,4,1,0,60,0,0
59761,-133.333333333333,4,1,0,60,0,0
61354,-133.333333333333,4,1,0,45,0,0
61885,-80,4,1,0,65,0,0
64540,-80,4,1,0,60,0,0
68257,-133.333333333333,4,1,0,60,0,0
69850,-133.333333333333,4,1,0,45,0,0
70381,-80,4,1,0,65,0,0
73036,-80,4,1,0,60,0,0
76753,-80,4,1,0,65,0,0
81000,-133.333333333333,4,1,0,65,0,0
82991,-200,4,1,0,70,0,0
84053,-200,4,1,0,70,0,0
85248,-227.272727272727,4,1,0,65,0,0
86841,-80,4,1,0,65,0,0
89496,-200,4,1,0,65,0,0
90558,-200,4,1,0,65,0,0
93744,-200,4,1,0,60,0,0
95868,-80,4,1,0,65,0,0
98522,-80,4,1,0,60,0,0
102239,-200,4,1,0,60,0,0
104363,-80,4,1,0,65,0,0
107018,-80,4,1,0,60,0,0
110735,-200,4,1,0,60,0,0
112859,-80,4,1,0,65,0,0
115514,-80,4,1,0,60,0,0
116045,-80,4,1,0,60,0,0
119230,-200,4,1,0,60,0,0
121354,-80,4,1,0,65,0,0
124009,-80,4,1,0,60,0,0
124540,-80,4,1,0,60,0,0
127726,-80,4,1,0,65,0,0
144717,-80,4,1,0,60,0,0
152151,-166.666666666667,4,1,0,65,0,0
153213,-80,4,1,0,60,0,0
160646,-166.666666666667,4,1,0,65,0,0
161974,-100,4,3,0,50,0,0
168080,-86.9565217391304,4,3,0,55,0,0
170204,-86.9565217391304,4,3,0,50,0,0
176576,-86.9565217391304,4,3,0,55,0,0
177637,-166.666666666667,4,3,0,50,0,0
178699,-80,4,1,0,45,0,0
178965,-80,4,1,0,65,0,0
179230,-80,4,1,0,65,0,1
185071,-80,4,1,0,70,0,1
187195,-80,4,1,0,65,0,1
193567,-80,4,1,0,70,0,1
194629,-166.666666666667,4,1,0,70,0,1
195691,-166.666666666667,4,1,0,65,0,1
196222,-125,4,1,0,65,0,1
196753,-100,4,1,0,65,0,1
197284,-80,4,1,0,70,0,1
200469,-80,4,1,0,65,0,1
202062,-80,4,1,0,60,0,1
204186,-166.666666666667,4,1,0,65,0,1
204717,-125,4,1,0,65,0,1
205248,-100,4,1,0,65,0,1
205779,-80,4,1,0,70,0,1
208965,-80,4,1,0,65,0,1
210558,-80,4,1,0,60,0,1
212682,-80,4,1,0,50,0,0
216930,-80,4,1,0,35,0,0
221177,-80,4,1,0,20,0,0
225425,-80,4,1,0,5,0,0
225956,-80,4,1,0,30,0,0

[Colours]
Combo1 : 232,80,57
Combo2 : 200,121,247
Combo3 : 37,185,239
Combo4 : 85,236,160
Combo5 : 225,203,77

[HitObjects]
128,322,17283,5,2,0:0:0:0:
104,174,17549,1,0,0:0:0:0:
212,282,17814,1,8,0:0:0:0:
256,138,18080,1,0,0:0:0:0:
300,282,18345,1,4,0:0:0:0:
408,174,18611,1,0,0:0:0:0:
384,322,18876,1,8,0:0:0:0:
256,67,19407,5,2,0:0:0:0:
134,154,19673,1,0,0:0:0:0:
180,296,19938,1,8,0:0:0:0:
330,296,20204,1,0,0:0:0:0:
376,154,20469,1,4,0:0:0:0:
60,322,21531,6,0,B|72:302|84:298|92:378|116:378|124:266|148:266|156:346|168:342|180:322,1,150,2|0,0:0|0:0,0:0:0:0:
332,322,22062,2,0,B|344:342|356:346|364:266|388:266|396:378|420:378|428:298|440:302|452:322,1,150,8|0,0:0|0:0,0:0:0:0:
376,194,22593,1,4,0:0:0:0:
256,106,22859,1,8,0:0:0:0:
136,194,23124,1,4,0:0:0:0:
139,45,23390,5,8,0:0:0:0:
139,45,23655,2,0,P|209:68|256:126,1,150,2|0,0:0|0:0,0:0:0:0:
372,217,24186,2,0,P|302:240|256:298,1,150,8|0,0:0|0:0,0:0:0:0:
256,298,24717,1,4,0:0:0:0:
123,287,25779,5,4,1:3:0:0:
126,139,26045,1,0,0:0:0:0:
256,64,26310,1,8,0:0:0:0:
385,139,26576,1,0,1:0:0:0:
388,287,26841,1,6,1:2:0:0:
296,170,27107,1,8,0:0:0:0:
216,298,27372,1,8,1:0:0:0:
108,162,27903,6,0,P|127:90|179:37,1,150,2|0,1:2|0:0,0:0:0:0:
332,37,28434,2,0,P|383:90|404:162,1,150,8|0,1:2|1:0,0:0:0:0:
256,194,28965,1,4,1:2:0:0:
124,262,30027,6,0,P|157:327|221:364,2,150,4|0|8,1:3|0:0|0:0,0:0:0:0:
256,194,30823,1,2,1:2:0:0:
388,126,31089,2,0,P|354:60|290:23,2,150,4|8|8,1:2|0:0|1:0,0:0:0:0:
512,210,31885,5,8,0:0:0:0:
428,330,32151,2,0,P|363:292|330:227,1,150,2|0,2:0|0:0,0:0:0:0:
181,227,32682,2,0,P|148:292|84:330,1,150,8|0,2:0|1:0,0:0:0:0:
83,330,33213,1,4,1:2:0:0:
83,330,34275,5,4,0:0:0:0:
67,161,34540,1,0,2:0:0:0:
226,101,34806,1,8,0:0:0:0:
334,229,35071,1,0,2:0:0:0:
247,375,35337,1,2,0:0:0:0:
83,330,35602,2,0,L|226:209,1,187.5,0|8,2:0|0:0,0:0:0:0:
429,330,36399,5,4,0:0:0:0:
445,161,36664,1,0,2:0:0:0:
286,101,36930,1,8,0:0:0:0:
178,229,37195,1,0,2:0:0:0:
265,375,37460,1,2,0:0:0:0:
429,330,37726,2,0,L|285:209,1,187.5,0|8,2:0|0:0,0:0:0:0:
91,239,38522,6,0,P|125:324|210:358,2,187.5,4|0|8,0:0|2:0|0:0,0:0:0:0:
256,194,39319,1,0,2:0:0:0:
420,148,39584,2,0,P|386:63|301:29,2,187.5,2|0|8,0:0|2:0|0:0,0:0:0:0:
141,275,40646,5,2,0:0:0:0:
256,112,40912,1,0,0:0:0:0:
370,275,41177,1,4,0:0:0:0:
141,275,41708,5,2,0:0:0:0:
256,112,42239,1,0,0:0:0:0:
369,275,42770,2,0,P|296:256|292:174,1,168.750006437302,4|0,0:0|2:0,0:0:0:0:
384,124,43301,1,8,0:0:0:0:
143,315,43699,1,0,2:0:0:0:
143,315,43832,1,0,0:0:0:0:
296,194,44098,1,0,2:0:0:0:
296,194,44363,6,0,L|383:123,1,112.500004291535,8|0,0:0|2:0,0:0:0:0:
208,262,44761,1,6,0:0:0:0:
208,262,45160,1,0,0:0:0:0:
316,214,45425,1,8,0:0:0:0:
184,166,45691,1,0,0:0:0:0:
340,118,45956,1,4,0:0:0:0:
160,70,46222,1,0,0:0:0:0:
364,22,46487,1,8,0:0:0:0:
184,166,46753,6,0,P|272:318|445:286,1,375,6|8,0:0|0:0,0:0:0:0:
356,142,47549,2,0,B|325:178|278:172|257:85|237:-3|190:-8|160:28,1,281.25,4|0,0:0|2:0,0:0:0:0:
122,108,48080,2,0,P|129:153|163:185,2,93.75,2|0|0,0:2|2:0|0:0,0:0:0:0:
255,195,48611,2,0,P|289:227|297:273,1,93.75,0|8,2:0|2:1,0:0:0:0:
148,290,49009,1,6,0:0:0:0:
385,288,49407,6,0,P|374:196|316:123,2,187.5,2|2|4,0:2|0:2|0:3,0:0:0:0:
200,270,50204,2,0,L|121:320,2,93.75,0|0|8,0:0|2:0|0:0,0:0:0:0:
372,162,50735,2,0,L|451:112,1,93.75,4|2,0:0|0:0,0:0:0:0:
371,275,51266,5,2,0:0:0:0:
256,112,51531,1,0,0:0:0:0:
142,275,51797,1,4,0:0:0:0:
104,57,52328,6,0,P|179:40|206:112,1,168.750006437302,2|0,2:0|0:0,0:0:0:0:
152,194,52859,2,0,L|32:130,1,112.500004291535,8|0,0:0|0:0,0:0:0:0:
280,274,53257,1,6,0:0:0:0:
280,274,53655,5,0,0:0:0:0:
148,226,53921,1,8,0:0:0:0:
144,78,54186,1,4,0:3:0:0:
296,42,54452,1,4,0:0:0:0:
404,170,54717,1,0,0:0:0:0:
256,254,54983,1,8,0:0:0:0:
116,146,55248,2,0,P|256:41|396:146,1,375,6|8,0:0|0:0,0:0:0:0:
389,295,56045,2,0,B|305:361|205:228|122:295,1,281.25,4|0,0:0|0:0,0:0:0:0:
32,288,56576,6,0,P|41:334|72:369,2,93.75,2|0|4,0:2|2:0|2:3,0:0:0:0:
37,98,57107,2,0,P|46:52|77:17,1,93.75,0|8,2:0|2:1,0:0:0:0:
232,58,57505,1,6,0:0:0:0:
116,269,57903,6,0,P|166:346|255:362,2,187.5,2|2|4,0:2|0:2|0:3,0:0:0:0:
256,174,58699,2,0,L|256:80,2,93.75,0|0|8,0:0|0:0|0:0,0:0:0:0:
396,268,59230,2,0,P|379:312|346:345,1,93.75,0|6,0:0|0:0,0:0:0:0:
300,80,59761,6,0,P|365:130|377:211,1,168.750006437302,4|0,0:0|2:0,0:0:0:0:
332,290,60292,2,0,P|256:321|180:290,1,168.750006437302,12|0,0:0|2:0,0:0:0:0:
134,211,60823,2,0,P|146:130|210:80,1,168.750006437302,6|0,0:0|2:0,0:0:0:0:
112,37,61354,2,0,P|62:103|44:191,1,168.750006437302,6|0,0:0|2:0,0:0:0:0:
135,212,61885,5,4,0:0:0:0:
232,114,62151,1,0,0:0:0:0:
364,162,62416,1,8,0:0:0:0:
368,310,62682,1,4,0:3:0:0:
216,346,62947,1,4,0:0:0:0:
108,218,63213,1,0,0:0:0:0:
256,134,63478,1,8,0:0:0:0:
396,242,63744,2,0,P|256:347|116:242,1,375,6|8,0:0|0:0,0:0:0:0:
123,93,64540,2,0,B|206:26|306:159|389:93,1,281.25,4|0,0:0|0:0,0:0:0:0:
477,100,65071,6,0,P|468:54|437:19,2,93.75,2|0|4,0:2|2:0|2:3,0:0:0:0:
474,289,65602,2,0,P|465:335|434:370,1,93.75,0|8,2:0|2:1,0:0:0:0:
280,330,66000,1,6,0:0:0:0:
395,118,66399,6,0,P|345:41|256:25,2,187.5,2|2|4,0:2|0:2|0:3,0:0:0:0:
256,214,67195,2,0,L|256:307,2,93.75,0|0|8,0:0|0:0|0:0,0:0:0:0:
115,119,67726,2,0,P|132:75|165:42,1,93.75,0|6,0:0|0:0,0:0:0:0:
212,308,68257,6,0,P|147:258|135:177,1,168.750006437302,4|0,0:0|2:0,0:0:0:0:
180,98,68788,2,0,P|256:67|332:98,1,168.750006437302,12|0,0:0|2:0,0:0:0:0:
378,177,69319,2,0,P|366:258|302:308,1,168.750006437302,6|0,0:0|2:0,0:0:0:0:
400,351,69850,2,0,P|450:285|467:203,1,168.750006437302,6|0,0:0|2:0,0:0:0:0:
378,177,70381,5,4,0:0:0:0:
304,262,70646,1,0,0:0:0:0:
196,214,70912,1,8,0:0:0:0:
328,166,71177,1,0,0:0:0:0:
172,118,71443,1,4,0:0:0:0:
352,70,71708,1,0,0:0:0:0:
148,22,71974,1,8,0:0:0:0:
328,166,72239,6,0,P|240:318|67:286,1,375,6|8,0:0|0:0,0:0:0:0:
156,142,73036,2,0,B|187:178|234:172|255:85|275:-3|322:-8|352:28,1,281.25,4|0,0:0|2:0,0:0:0:0:
390,108,73567,2,0,P|383:153|349:185,2,93.75,2|0|0,0:2|2:0|0:0,0:0:0:0:
257,195,74098,2,0,P|223:227|215:273,1,93.75,0|8,2:0|2:1,0:0:0:0:
364,290,74496,1,6,0:0:0:0:
127,288,74894,6,0,P|138:196|196:123,2,187.5,2|2|4,0:2|0:2|0:3,0:0:0:0:
312,270,75691,2,0,L|391:320,2,93.75,0|0|8,0:0|2:0|0:0,0:0:0:0:
140,162,76222,2,0,L|61:112,1,93.75,4|2,0:0|0:0,0:0:0:0:
303,92,76753,5,4,0:0:0:0:
303,92,78345,2,0,L|265:177,1,93.75,8|0,0:0|0:0,0:0:0:0:
343,10,78744,2,0,P|427:42|442:130,1,187.5,6|0,0:0|2:0,0:0:0:0:
380,194,79142,2,0,B|316:233|263:154|200:194,1,187.5,4|8,3:0|0:0,0:0:0:0:
172,362,79673,1,0,0:0:0:0:
340,362,79938,1,6,0:0:0:0:
256,194,80204,2,0,L|256:98,2,93.75,0|0|8,0:0|0:0|0:0,0:0:0:0:
128,274,81000,6,0,P|223:330|328:299,1,225,6|8,0:0|0:0,0:0:0:0:
384,114,82062,2,0,P|289:58|184:89,1,225,2|8,0:0|0:0,0:0:0:0:
28,270,82991,6,0,P|150:300|240:212,1,262.5,4|8,0:0|0:0,0:0:0:0:
168,165,84053,2,0,P|262:59|397:102,1,300,4|2,0:0|2:0,0:0:0:0:
456,166,85248,5,4,0:0:0:0:
456,166,86841,2,0,L|435:74,1,93.75,8|0,0:0|0:0,0:0:0:0:
476,254,87239,2,0,P|387:279|305:239,1,187.5,6|0,0:0|2:0,0:0:0:0:
259,160,87637,2,0,P|265:68|331:4,1,187.5,0|8,0:0|0:0,0:0:0:0:
456,166,88168,1,0,0:0:0:0:
276,202,88434,1,6,0:0:0:0:
416,30,88699,2,0,L|357:103,2,93.75,2|0|8,0:2|0:0|0:0,0:0:0:0:
224,330,89496,6,0,P|334:343|435:298,1,225,6|0,0:0|0:0,0:0:0:0:
336,174,90558,2,0,P|226:187|125:142,1,225,6|0,0:0|0:0,0:0:0:0:
124,141,91487,1,4,0:0:0:0:
256,192,91620,12,2,93213,2:0:0:0:
141,275,93744,5,2,0:0:0:0:
256,112,94009,1,0,0:0:0:0:
370,275,94275,1,4,0:0:0:0:
141,275,94806,6,0,P|153:223|202:190,1,112.5,2|0,3:0|3:0,3:0:0:0:
256,111,95337,2,0,P|286:154|280:213,1,112.5,2|0,0:0|2:0,0:0:0:0:
352,286,95868,1,4,0:0:0:0:
237,256,96133,5,0,0:0:0:0:
122,226,96399,1,8,0:0:0:0:
219,159,96664,1,4,0:3:0:0:
63,132,96930,1,4,0:0:0:0:
201,63,97195,1,0,0:0:0:0:
9,39,97460,1,8,0:0:0:0:
116,194,97726,6,0,P|256:299|396:194,1,375,6|8,0:0|0:0,0:0:0:0:
344,26,98522,2,0,B|288:2|216:42|224:98|256:122|288:98|296:42|224:2|168:26,1,281.25,4|0,0:0|0:0,0:0:0:0:
81,10,99053,2,0,P|84:56|112:94,2,93.75,2|0|4,0:2|2:0|2:3,0:0:0:0:
256,60,99584,2,0,L|256:154,1,93.75,0|8,0:0|2:1,0:0:0:0:
256,154,99983,1,6,0:0:0:0:
256,374,100381,6,0,L|68:374,2,187.5,2|2|4,2:0|2:0|0:3,0:0:0:0:
256,194,101177,2,0,L|349:194,2,93.75,0|0|8,0:0|0:0|0:0,0:0:0:0:
256,14,101708,1,0,0:0:0:0:
256,14,101841,1,6,0:0:0:0:
207,280,102239,5,2,0:0:0:0:
205,109,102505,1,0,0:0:0:0:
355,192,102770,1,4,0:0:0:0:
207,280,103301,6,0,P|153:267|116:226,1,112.5,2|0,0:0|2:0,0:0:0:0:
205,109,103832,2,0,P|243:69|297:56,1,112.5,2|0,0:0|2:0,0:0:0:0:
412,130,104363,5,4,0:0:0:0:
307,279,104629,1,0,0:0:0:0:
205,109,104894,1,8,0:0:0:0:
204,290,105160,1,4,0:3:0:0:
308,98,105425,1,4,0:0:0:0:
308,302,105691,1,0,0:0:0:0:
204,86,105956,1,8,0:0:0:0:
203,301,106222,6,0,P|380:342|472:194,1,375,6|8,0:0|0:0,0:0:0:0:
307,85,107018,2,0,P|182:33|65:101,1,281.25,4|0,0:0|2:0,0:0:0:0:
141,152,107549,2,0,P|178:124|223:131,2,93.75,2|0|4,1:2|2:1|2:3,0:0:0:0:
288,256,108080,2,0,P|333:263|370:235,1,93.75,0|8,1:0|2:1,0:0:0:0:
456,66,108478,1,6,0:0:0:0:
168,50,108876,6,0,P|256:22|344:50,2,187.5,2|2|0,0:2|0:2|0:0,0:0:0:0:
209,230,109673,2,0,L|303:230,2,93.75,0|0|8,0:0|0:0|0:0,0:0:0:0:
256,378,110204,1,4,0:0:0:0:
256,378,110337,1,2,0:0:0:0:
371,275,110735,6,0,P|381:223|351:172,1,112.5,2|0,0:0|2:0,0:0:0:0:
256,111,111266,2,0,P|247:163|277:214,1,112.5,2|0,0:0|2:0,0:0:0:0:
371,275,111797,5,4,0:0:0:0:
256,112,112062,1,2,0:0:0:0:
142,275,112328,2,0,P|168:320|224:340,1,112.5,4|0,3:0|3:0,3:0:0:0:
275,256,112859,5,4,0:0:0:0:
275,256,113124,1,0,0:0:0:0:
390,226,113390,1,8,0:0:0:0:
293,159,113655,1,4,0:3:0:0:
449,132,113921,1,4,0:0:0:0:
311,63,114186,1,0,0:0:0:0:
503,39,114452,1,8,0:0:0:0:
396,194,114717,6,0,P|256:299|116:194,1,375,6|8,0:0|0:0,0:0:0:0:
168,26,115514,2,0,B|224:2|296:42|288:98|256:122|224:98|216:42|288:2|344:26,1,281.25,4|0,0:0|0:0,0:0:0:0:
431,10,116045,2,0,P|428:56|400:94,2,93.75,2|0|4,0:2|2:0|2:3,0:0:0:0:
256,60,116576,2,0,L|256:154,1,93.75,0|8,0:0|2:1,0:0:0:0:
256,154,116974,1,6,0:0:0:0:
256,374,117372,6,0,L|443:374,2,187.5,2|2|4,2:0|2:0|0:3,0:0:0:0:
256,194,118168,2,0,L|162:194,2,93.75,0|0|8,0:0|0:0|0:0,0:0:0:0:
256,14,118699,1,0,0:0:0:0:
256,14,118832,1,6,0:0:0:0:
304,280,119230,6,0,P|358:267|395:226,1,112.5,2|0,0:0|2:0,0:0:0:0:
306,109,119761,2,0,P|268:69|214:56,1,112.5,2|0,0:0|2:0,0:0:0:0:
157,192,120292,5,4,0:0:0:0:
157,192,120558,1,2,0:0:0:0:
157,192,120823,2,0,P|141:245|158:298,1,112.5,4|0,0:0|2:0,0:0:0:0:
307,279,121354,5,4,0:0:0:0:
307,109,121620,1,0,0:0:0:0:
205,279,121885,1,8,0:0:0:0:
204,98,122151,1,4,0:3:0:0:
308,290,122416,1,4,0:0:0:0:
308,86,122682,1,0,0:0:0:0:
204,302,122947,1,8,0:0:0:0:
203,87,123213,6,0,P|379:46|471:194,1,375,6|8,0:0|0:0,0:0:0:0:
307,303,124009,2,0,P|181:355|64:287,1,281.25,4|0,0:0|2:0,0:0:0:0:
141,236,124540,2,0,P|177:263|222:256,2,93.75,2|0|4,1:2|2:1|2:3,0:0:0:0:
288,132,125071,2,0,P|333:125|369:152,1,93.75,0|8,1:0|2:1,0:0:0:0:
456,322,125469,1,6,0:0:0:0:
168,338,125868,6,0,P|256:366|344:338,2,187.5,2|2|0,0:2|0:2|0:0,0:0:0:0:
209,158,126664,2,0,L|303:158,2,93.75,0|0|8,0:0|0:0|0:0,0:0:0:0:
256,2,127195,1,4,0:0:0:0:
256,2,127328,1,2,0:0:0:0:
256,246,127726,1,4,0:0:0:0:
96,58,144717,5,4,0:0:0:0:
196,194,144983,1,0,0:0:0:0:
340,282,145248,1,8,0:0:0:0:
172,282,145514,1,4,0:3:0:0:
316,194,145779,1,2,0:0:0:0:
416,58,146045,1,0,0:0:0:0:
256,112,146310,1,6,0:3:0:0:
141,275,146841,5,2,0:0:0:0:
256,112,147107,1,0,0:0:0:0:
370,275,147372,1,4,0:0:0:0:
123,287,147903,5,2,0:0:0:0:
256,99,148168,1,0,0:0:0:0:
386,287,148434,1,4,0:0:0:0:
427,110,148965,6,0,B|476:219|290:86|340:196,1,187.5,4|0,0:0|0:0,0:0:0:0:
172,196,149496,2,0,B|221:86|35:219|85:109,1,187.5,8|0,0:0|0:0,0:0:0:0:
256,90,150027,1,2,0:0:0:0:
352,230,150292,1,0,0:0:0:0:
192,286,150558,1,6,0:3:0:0:
141,113,151089,5,2,0:0:0:0:
256,276,151354,1,0,0:0:0:0:
370,113,151620,1,4,0:0:0:0:
123,100,152151,6,0,L|201:209,1,134.999995880127,2|0,0:0|2:0,0:0:0:0:
256,288,152682,2,0,L|334:178,1,134.999995880127,2|0,0:0|2:0,0:0:0:0:
389,96,153213,5,4,0:0:0:0:
236,22,153478,1,0,0:0:0:0:
168,178,153744,1,8,0:0:0:0:
344,206,154009,1,0,0:0:0:0:
344,206,154275,1,2,0:0:0:0:
276,362,154540,1,0,0:0:0:0:
123,288,154806,1,8,0:0:0:0:
175,79,155337,5,2,0:0:0:0:
338,194,155602,1,0,0:0:0:0:
175,308,155868,1,4,0:0:0:0:
162,61,156399,5,2,0:0:0:0:
350,194,156664,1,0,0:0:0:0:
162,324,156930,1,4,0:0:0:0:
384,192,157460,6,0,P|455:139|441:51,2,187.5,4|0|8,0:0|0:0|0:0,0:0:0:0:
256,302,158257,1,4,0:3:0:0:
127,192,158522,2,0,P|56:139|70:51,2,187.5,2|0|8,0:0|0:0|0:0,0:0:0:0:
337,79,159584,5,2,0:0:0:0:
174,194,159850,1,0,0:0:0:0:
337,308,160115,1,4,0:0:0:0:
350,61,160646,6,0,L|240:139,1,134.999995880127,2|0,0:0|2:0,0:0:0:0:
162,194,161177,2,0,L|271:272,1,134.999995880127,2|0,0:0|2:0,0:0:0:0:
306,363,161708,1,4,0:0:0:0:
306,363,161974,6,0,P|331:296|288:239,1,150,8|0,0:1|0:0,0:0:0:0:
432,198,162372,2,0,P|376:153|308:177,1,150,4|0,0:0|0:0,0:0:0:0:
314,28,162770,2,0,P|254:67|256:139,1,150,2|0,0:1|0:0,0:0:0:0:
115,87,163168,2,0,P|134:157|203:177,1,150,8|0,0:1|0:0,0:0:0:0:
111,294,163567,2,0,P|182:298|223:238,1,150,4|0,0:0|0:0,0:0:0:0:
307,194,164098,6,0,B|352:266|380:121|425:194,1,150,8|0,0:1|0:0,0:0:0:0:
271,243,164496,2,0,B|216:308|363:289|307:354,1,150,4|0,0:0|0:0,0:0:0:0:
213,224,164894,2,0,B|135:191|197:325|118:293,1,150,2|0,0:1|0:0,0:0:0:0:
213,162,165292,2,0,B|219:78|112:179|118:93,1,150,8|0,0:1|0:0,0:0:0:0:
271,143,165691,2,0,B|354:124|224:53|307:32,1,150,4|0,0:0|0:0,0:0:0:0:
208,146,166222,6,0,B|140:78|140:78|96:122,1,150,2|0,0:1|0:0,0:0:0:0:
208,242,166620,2,0,B|140:310|140:310|184:354,1,150,8|0,0:1|0:0,0:0:0:0:
304,242,167018,2,0,B|372:310|372:310|416:266,1,150,2|0,0:1|0:0,0:0:0:0:
304,146,167416,2,0,B|372:78|372:78|328:34,1,150,8|0,0:1|0:0,0:0:0:0:
256,194,167814,1,4,0:0:0:0:
371,275,168080,5,2,0:1:0:0:
256,112,168345,1,0,0:0:0:0:
142,275,168611,1,4,0:1:0:0:
389,287,169142,5,2,0:1:0:0:
256,99,169407,1,0,0:0:0:0:
126,287,169673,1,4,0:1:0:0:
181,88,170204,5,4,0:0:0:0:
181,88,170469,2,0,B|135:77|95:89|95:89|101:131|129:168,1,172.500003290176,2|0,0:1|0:0,0:0:0:0:
132,232,170868,2,0,B|107:272|106:314|106:314|148:321|192:306,1,172.500003290176,8|0,0:1|0:0,0:0:0:0:
254,323,171266,2,0,B|285:359|324:373|324:373|344:336|343:289,1,172.500003290176,2|0,0:1|0:0,0:0:0:0:
378,235,171664,2,0,B|422:217|447:184|447:184|418:153|374:140,1,172.500003290176,8|0,0:1|0:0,0:0:0:0:
333,89,172062,2,0,B|329:42|306:8|306:8|268:27|241:65,1,172.500003290176,4|0,0:0|0:0,0:0:0:0:
184,334,172593,6,0,P|256:374|328:334,1,172.500003290176,2|0,0:1|0:0,0:0:0:0:
368,310,172991,2,0,P|428:254|412:173,1,172.500003290176,8|0,0:1|0:0,0:0:0:0:
400,114,173390,2,0,P|366:39|284:29,1,172.500003290176,2|0,0:1|0:0,0:0:0:0:
229,29,173788,2,0,P|147:39|113:114,1,172.500003290176,8|0,0:1|0:0,0:0:0:0:
101,172,174186,2,0,P|85:253|145:309,1,172.500003290176,4|0,0:0|0:0,0:0:0:0:
212,34,174717,6,0,L|192:210,1,172.500003290176,2|0,0:1|0:0,0:0:0:0:
319,205,175115,2,0,L|300:34,1,172.500003290176,8|0,0:1|0:0,0:0:0:0:
212,34,175514,2,0,L|149:194,1,172.500003290176,2|0,0:1|0:0,0:0:0:0:
362,194,175912,2,0,L|300:34,1,172.500003290176,8|0,0:1|0:0,0:0:0:0:
256,162,176310,1,4,0:3:0:0:
141,275,176576,5,2,0:1:0:0:
256,112,176841,1,0,0:0:0:0:
370,275,177107,1,4,0:1:0:0:
123,287,177637,6,0,L|201:176,1,134.999995880127,2|0,0:1|0:0,0:0:0:0:
256,99,178168,2,0,L|334:210,1,134.999995880127,2|0,0:1|0:0,0:0:0:0:
388,286,178699,5,4,3:0:0:0:
388,286,178965,2,0,P|303:285|308:201,1,187.5,12|0,0:0|2:0,0:0:0:0:
352,110,179363,2,0,P|267:78|194:131,1,187.5,4|0,0:3|2:0,0:0:0:0:
180,234,179761,2,0,P|256:280|332:234,1,187.5,2|0,0:0|2:0,0:0:0:0:
317,131,180160,2,0,P|244:78|160:110,1,187.5,8|0,0:0|2:0,0:0:0:0:
203,201,180558,2,0,P|208:285|123:286,1,187.5,4|0,0:0|2:0,0:0:0:0:
124,286,181089,6,0,P|200:336|289:316,1,187.5,8|0,0:0|2:0,0:0:0:0:
376,266,181487,2,0,P|421:185|412:94,1,187.5,4|0,0:3|2:0,0:0:0:0:
344,18,181885,2,0,B|292:50|256:25|256:25|220:50|168:18,1,187.5,2|0,0:0|2:0,0:0:0:0:
99,94,182284,2,0,P|90:185|136:266,1,187.5,8|0,0:0|2:0,0:0:0:0:
222,315,182682,2,0,P|311:336|388:286,1,187.5,4|0,0:0|2:0,0:0:0:0:
184,72,183213,6,0,P|175:159|256:194,1,187.5,2|0,0:0|2:0,0:0:0:0:
327,315,183611,2,0,P|336:228|256:194,1,187.5,8|0,0:0|2:0,0:0:0:0:
119,158,184009,2,0,P|174:226|256:194,1,187.5,2|0,0:0|2:0,0:0:0:0:
392,229,184407,2,0,P|337:161|256:194,1,187.5,8|0,0:0|2:0,0:0:0:0:
256,294,184806,1,4,0:0:0:0:
123,287,185071,5,2,0:1:0:0:
256,99,185337,1,0,0:0:0:0:
386,287,185602,1,4,0:1:0:0:
123,287,186133,5,2,0:1:0:0:
256,99,186399,1,0,0:0:0:0:
386,287,186664,1,4,0:1:0:0:
76,94,187195,5,4,0:0:0:0:
76,94,187460,2,0,P|161:121|189:207,1,187.5,2|0,0:0|2:0,0:0:0:0:
95,187,187859,2,0,P|122:272|208:300,1,187.5,8|0,0:0|2:0,0:0:0:0:
303,299,188257,2,0,P|389:272|417:187,1,187.5,2|0,0:0|2:0,0:0:0:0:
323,207,188655,2,0,P|350:121|436:94,1,187.5,8|0,0:0|2:0,0:0:0:0:
350,19,189053,2,0,L|162:19,1,187.5,4|0,0:0|2:0,0:0:0:0:
176,326,189584,6,0,P|256:368|336:326,1,187.5,2|0,0:0|2:0,0:0:0:0:
408,257,189983,2,0,P|444:176|393:102,1,187.5,8|0,0:0|2:0,0:0:0:0:
296,122,190381,2,0,B|240:98|256:49|256:49|272:98|216:122,1,187.5,2|0,0:0|2:0,0:0:0:0:
118,102,190779,2,0,P|67:176|103:257,1,187.5,8|0,0:0|2:0,0:0:0:0:
176,326,191177,2,0,P|256:368|336:326,1,187.5,4|0,0:0|2:0,0:0:0:0:
316,26,191708,6,0,L|128:26,1,187.5,2|0,0:0|2:0,0:0:0:0:
192,114,192107,2,0,L|379:114,1,187.5,8|0,0:0|2:0,0:0:0:0:
316,202,192505,2,0,L|129:202,1,187.5,8|0,0:0|2:0,0:0:0:0:
192,290,192903,2,0,L|379:290,1,187.5,8|0,0:0|2:0,0:0:0:0:
480,288,193301,1,4,0:0:0:0:
389,101,193567,5,2,0:1:0:0:
256,289,193832,1,0,0:0:0:0:
126,101,194098,1,4,0:1:0:0:
389,287,194629,6,0,L|311:176,1,134.999995880127,2|0,0:1|2:0,0:0:0:0:
256,99,195160,2,0,L|178:210,1,134.999995880127,2|0,0:1|2:0,0:0:0:0:
121,289,195691,6,0,P|177:337|239:369,1,134.999995880127,4|0,0:1|2:0,0:0:0:0:
303,286,196222,2,0,P|224:256|160:184,1,180,12|0,0:1|2:0,0:0:0:0:
219,86,196753,2,0,P|275:179|382:200,1,225,6|0,0:1|2:0,0:0:0:0:
464,150,197284,2,0,L|345:4,1,187.5,8|0,0:0|0:0,0:0:0:0:
256,2,197682,1,6,0:0:0:0:
184,126,198080,5,0,0:0:0:0:
184,274,198345,1,8,0:0:0:0:
340,274,198611,1,0,0:0:0:0:
340,102,198876,1,4,0:0:0:0:
160,102,199142,1,0,0:0:0:0:
160,298,199407,1,8,0:0:0:0:
363,298,199673,2,0,P|459:154|335:34,1,375,6|8,0:0|0:0,0:0:0:0:
176,34,200469,2,0,P|52:154|148:298,1,375,4|2,0:0|2:0,0:0:0:0:
208,378,201133,2,0,L|301:378,1,93.75
256,194,201531,1,8,0:0:0:0:
132,54,202062,6,0,L|73:126,2,93.75,6|0|2,0:0|0:0|2:0,0:0:0:0:
356,110,202593,2,0,L|414:182,2,93.75,8|0|2,0:0|0:0|2:0,0:0:0:0:
180,166,203124,2,0,L|121:238,2,93.75,4|0|2,0:0|0:0|2:0,0:0:0:0:
324,22,203655,1,4,0:0:0:0:
324,22,203788,1,2,0:0:0:0:
391,289,204186,6,0,P|335:337|273:369,1,134.999995880127,4|0,0:1|2:0,0:0:0:0:
209,286,204717,2,0,P|288:256|352:184,1,180,12|0,0:1|2:0,0:0:0:0:
293,86,205248,2,0,P|237:179|130:200,1,225,6|0,0:1|2:0,0:0:0:0:
48,150,205779,2,0,L|166:4,1,187.5,8|0,0:0|0:0,0:0:0:0:
256,2,206177,1,6,0:0:0:0:
328,126,206576,5,0,0:0:0:0:
328,274,206841,1,8,0:0:0:0:
172,274,207107,1,0,0:0:0:0:
172,102,207372,1,4,0:0:0:0:
352,102,207637,1,0,0:0:0:0:
352,298,207903,1,8,0:0:0:0:
148,298,208168,2,0,P|52:154|176:34,1,375,6|8,0:0|0:0,0:0:0:0:
335,34,208965,2,0,P|459:154|363:298,1,375,4|2,0:0|2:0,0:0:0:0:
304,378,209629,2,0,L|210:378,1,93.75
256,194,210027,1,8,0:0:0:0:
72,62,210558,6,0,L|7:130,2,93.75,6|0|2,0:0|0:0|2:0,0:0:0:0:
144,154,211089,2,0,L|108:240,2,93.75,8|0|2,0:0|0:0|2:0,0:0:0:0:
236,230,211620,2,0,L|227:323,2,93.75,4|0|2,0:0|0:0|2:0,0:0:0:0:
256,66,212151,1,0,2:1:0:0:
256,66,212284,1,2,0:0:0:0:
256,192,212682,5,0,0:0:0:0:
256,192,212814,12,4,216930,0:0:0:0:
256,192,217725,5,0,0:0:0:0:
256,192,217991,1,0,0:0:0:0:
256,192,218124,12,0,221177,0:0:0:0:
256,192,221974,5,0,0:0:0:0:
256,192,222239,1,0,0:0:0:0:
256,192,222372,12,0,225425,0:0:0:0:
256,192,226222,5,0,0:0:0:0:
256,192,226487,1,0,0:0:0:0:
136,152,227018,1,0,0:0:0:0:
376,232,227549,1,0,0:0:0:0:
