osu file format v14

[General]
AudioFilename: audio.mp3
AudioLeadIn: 0
PreviewTime: 14110
Countdown: 0
SampleSet: None
StackLeniency: 0.7
Mode: 0
LetterboxInBreaks: 0
WidescreenStoryboard: 1

[Editor]
DistanceSpacing: 0.5
BeatDivisor: 4
GridSize: 16
TimelineZoom: 1.9

[Metadata]
Title:Canon (Primo)
TitleUnicode:Canon (Primo)
Artist:Justice
ArtistUnicode:Justice
Creator:JosephK
Version:Insane
Source:
Tags:french house audio video disco electronic electropop
BeatmapID:1853447
BeatmapSetID:886136

[Difficulty]
HPDrainRate:5
CircleSize:4.5
OverallDifficulty:6
ApproachRate:9
SliderMultiplier:1.4
SliderTickRate:1

[Events]
//Background and Video events
0,0,"3SUkv1F.jpg",0,0
//Break Periods
//Storyboard Layer 0 (Background)
//Storyboard Layer 1 (Fail)
//Storyboard Layer 2 (Pass)
//Storyboard Layer 3 (Foreground)
//Storyboard Sound Samples

[TimingPoints]
2816,352.939999999999,4,1,0,48,1,0
14110,-100,4,1,0,48,0,1
19757,-100,4,1,0,48,0,0
24257,-49.0196078431373,4,1,0,48,0,0

[Colours]
Combo1 : 126,126,126
Combo2 : 192,192,192
Combo3 : 177,225,157
Combo4 : 72,36,35

[HitObjects]
80,64,2816,5,0,0:0:0:0:
432,336,3168,1,0,0:0:0:0:
80,336,3521,1,0,0:0:0:0:
416,64,3874,1,0,0:0:0:0:
80,64,4227,2,0,P|80:144|144:192,1,140
208,256,4933,5,0,0:0:0:0:
320,192,5110,1,0,0:0:0:0:
224,112,5287,1,0,0:0:0:0:
48,48,5639,5,0,0:0:0:0:
448,336,5992,1,0,0:0:0:0:
208,256,6345,1,0,0:0:0:0:
320,192,6522,1,0,0:0:0:0:
208,128,6698,1,0,0:0:0:0:
48,48,7051,6,0,P|80:240|272:320,1,420
256,48,8463,5,2,0:0:0:0:
64,192,8815,1,0,0:0:0:0:
256,336,9168,1,0,0:0:0:0:
432,192,9521,1,0,0:0:0:0:
96,192,9874,5,2,0:0:0:0:
432,48,10227,1,0,0:0:0:0:
96,192,10580,1,0,0:0:0:0:
256,192,10757,1,0,0:0:0:0:
400,192,10933,1,0,0:0:0:0:
416,320,11286,5,2,0:0:0:0:
256,192,11639,1,0,0:0:0:0:
48,48,11992,1,0,0:0:0:0:
256,48,12168,1,0,0:0:0:0:
432,48,12345,1,0,0:0:0:0:
416,128,12698,6,2,P|384:256|256:320,1,280
48,64,14110,5,0,0:0:0:0:
256,256,14463,1,0,0:0:0:0:
416,64,14815,1,0,0:0:0:0:
80,192,15168,1,0,0:0:0:0:
432,320,15521,1,0,0:0:0:0:
432,48,15874,1,0,0:0:0:0:
256,192,16227,5,0,0:0:0:0:
144,128,16403,1,0,0:0:0:0:
144,272,16580,1,0,0:0:0:0:
144,32,16933,5,0,0:0:0:0:
464,320,17286,1,0,0:0:0:0:
208,64,17639,1,0,0:0:0:0:
336,192,17816,1,0,0:0:0:0:
208,288,17992,1,0,0:0:0:0:
64,64,18345,6,0,P|64:224|176:272,1,280
416,64,19757,5,2,0:0:0:0:
416,304,20110,1,0,0:0:0:0:
64,64,20462,1,0,0:0:0:0:
432,304,20815,1,0,0:0:0:0:
64,320,21168,1,2,0:0:0:0:
432,64,21521,1,0,0:0:0:0:
208,48,21874,5,0,0:0:0:0:
336,192,22051,1,0,0:0:0:0:
208,256,22227,1,0,0:0:0:0:
96,80,22580,5,0,0:0:0:0:
96,288,22933,1,0,0:0:0:0:
256,48,23286,5,0,0:0:0:0:
256,320,23551,1,0,0:0:0:0:
64,320,23815,5,0,0:0:0:0:
64,48,24080,1,0,0:0:0:0:
192,32,24345,6,0,B|192:112|192:112|112:112|112:112|112:208|112:208|192:208|192:208|192:352|192:352|304:352|304:352|304:208|304:208|384:208|384:208|384:112|384:112|288:112|288:112|288:32|288:32|192:32,1,1142.40000697266
